#TITLE:ワールズエンド・ダンスホール;
#SUBTITLE:;
#ARTIST:wowaka;
#TITLETRANSLIT:World's End Dancehall;
#SUBTITLETRANSLIT:;
#ARTISTTRANSLIT:;
#CREDIT:;
#BANNER:World's End Dancehall.png;
#BACKGROUND:World's End Dancehall-bg.png;
#JACKET:World's End Dancehall-jacket.png;
#LYRICSPATH:;
#CDTITLE:;
#MUSIC:World's End Dancehall.mp3;
#OFFSET:-5.367;
#SAMPLESTART:83.900;
#SAMPLELENGTH:15.620;
#SELECTABLE:YES;
#BPMS:0.000=171.000;
#STOPS:;
#BGCHANGES:;

//---------------dance-single - ----------------
#NOTES:
     dance-single:
     :
     Hard:
     9:
     0.755,0.766,0.933,0.433,0.304: // measure 1
1100
0000
0000
0101
0000
0000
2100
0000
0000
0000
0010
0000
3010
0000
1000
0000
,  // measure 2
0011
0000
0000
1010
0000
0000
0012
0000
0000
0000
0100
0000
0103
0000
0000
0000
,  // measure 3
1010
0000
0000
0101
0000
0000
1002
0000
0000
0000
0100
0000
0103
0000
0001
0000
,  // measure 4
0011
0000
0000
1100
0000
0000
2001
0000
0000
0000
0010
0000
3010
0000
0000
0000
,  // measure 5
1010
0000
0000
0110
0000
0000
0102
0000
0000
0000
1000
0000
1003
0000
0001
0000
,  // measure 6
0011
0000
0000
0110
0000
0000
2100
0000
0000
0000
0001
0000
3001
0000
0000
0000
,  // measure 7
1010
0000
0000
0011
0000
0000
0120
0000
0000
0000
0100
0000
0130
0000
1000
0000
,  // measure 8
1100
0000
0000
0101
0000
0000
0110
0000
0000
0000
0001
1000
0001
1000
0001
1000
,  // measure 9
0002
0000
0000
0010
0000
0000
0100
0000
0000
0000
1000
0000
1003
0000
1000
0000
,  // measure 10
0020
0000
0000
1000
0000
0000
0001
0000
0000
0000
0100
0000
0130
0000
0100
0000
,  // measure 11
2000
0000
0000
0100
0000
0000
0010
0000
0000
0000
0001
0000
3001
0000
0001
0000
,  // measure 12
0200
0000
0000
0001
0000
0000
1000
0000
0000
0000
0010
0000
0310
0000
0000
0000
,  // measure 13
2000
0000
0000
0100
0000
0000
0010
0000
0000
0000
0001
0000
3001
0000
0001
0000
,  // measure 14
0200
0000
0000
0001
0000
0000
1000
0000
0000
0000
0010
0000
0310
0000
0010
0000
,  // measure 15
0002
0000
0000
0010
0000
0000
0100
0000
0000
0000
1000
0000
1003
0000
1000
0000
,  // measure 16
0020
0000
0000
1000
0000
0000
0001
0000
0000
0000
0100
0000
0130
0000
0000
0000
,  // measure 17
0010
0000
0000
1000
0000
0000
0100
0000
0000
0000
0010
0000
0001
0000
1000
0000
,  // measure 18
0100
0000
0000
1000
0000
0000
0010
0000
0000
0000
0000
0000
0101
0000
0000
0000
,  // measure 19
0100
0000
0000
0001
0000
0000
0010
0000
0000
0000
0100
0000
1000
0000
0001
0000
,  // measure 20
0010
0000
0000
0001
0000
0000
0102
0000
0000
0000
0000
0000
1003
0000
0000
0000
,  // measure 21
0001
0000
0000
0010
0000
0000
0200
0000
0000
0000
1300
0000
0001
0000
0100
0000
,  // measure 22
0010
0000
0000
1000
0000
0000
0100
0000
0000
0000
0000
0000
0011
0000
0000
0000
,  // measure 23
1000
0000
0000
0010
0000
0000
0200
0000
0000
0000
0301
0000
1000
0000
0100
0000
,  // measure 24
0011
1100
0101
1010
,  // measure 25
0001
0000
0000
0100
0000
0000
2000
0000
0000
0000
3100
0000
0001
0000
1000
0000
,  // measure 26
0001
0000
0000
0010
0000
0000
0100
0000
0000
0000
0000
0000
1001
0000
0000
0000
,  // measure 27
1000
0000
0000
0010
0000
0000
0002
0000
0000
0000
0013
0000
1000
0000
0001
0000
,  // measure 28
0101
1010
2100
3001
,  // measure 29
1000
0000
0000
0010
0000
0000
0002
0000
0000
0000
0013
0000
1000
0000
0001
0000
,  // measure 30
1000
0000
0000
0100
0000
0000
0020
0000
0000
0000
0000
0000
0130
0000
0000
0000
,  // measure 31
1000
0000
0000
0100
0000
0000
0002
0000
0000
0000
0103
0000
1000
0000
0001
0000
,  // measure 32
0101
1010
0012
1003
,  // measure 33
0001
0000
0000
0010
0000
0000
0100
0000
0000
0000
1100
0000
1100
0000
0000
0000
,  // measure 34
1000
0000
0000
0010
0000
0000
0100
0000
0000
0000
0001
0100
0001
0100
0001
0100
,  // measure 35
0001
0000
0000
0100
0000
0000
0010
0000
0000
0000
1010
0000
1010
0000
0000
0000
,  // measure 36
1000
0000
0000
0100
0000
0000
0010
0000
0000
0000
0001
0010
0001
0010
0001
0010
,  // measure 37
0001
0000
0000
0100
0000
0000
0010
0000
0000
0000
1001
0000
1001
0000
0000
0000
,  // measure 38
1000
0000
0000
0100
0000
0000
0010
0000
0000
0000
0001
0100
0001
0100
0010
1000
,  // measure 39
0010
0000
0000
0100
0000
0000
0001
0000
0000
0000
1001
0000
1001
0000
0000
0000
,  // measure 40
1000
0000
0000
0100
0000
0000
0010
0000
0000
0000
0001
0010
0001
0010
0100
1000
,  // measure 41
0001
0000
0000
0100
0000
0000
2000
0000
0000
0000
3100
0000
0001
0000
1000
0000
,  // measure 42
0001
0000
0000
0010
0000
0000
2000
0000
0000
0000
0010
0000
3010
0000
0000
0000
,  // measure 43
1000
0000
0000
0010
0000
0000
0200
0000
0000
0000
0310
0000
0001
0000
1000
0000
,  // measure 44
0001
0000
0000
0100
0000
0000
2010
0000
0000
0000
0000
0000
3001
0000
0000
0000
,  // measure 45
1000
0000
0000
0100
0000
0000
0012
0000
0000
0000
1003
0000
0010
0000
0001
0000
,  // measure 46
0010
0000
0000
0100
0000
0000
0001
0000
0000
0000
0000
0000
1001
0000
0000
0000
,  // measure 47
1000
0000
0000
0100
0000
0000
0002
0000
0000
0000
0103
0000
0010
0000
0001
0000
,  // measure 48
0101
1010
0012
1003
,  // measure 49
0001
0100
1000
0100
0010
1000
0001
0001
,  // measure 50
1000
0100
0001
0100
0010
0001
1000
1000
,  // measure 51
0001
0100
0001
0100
0001
0000
1000
0100
1000
0100
1000
0000
0001
1000
0001
1000
,  // measure 52
0002
0023
0230
1300
,  // measure 53
0001
0100
1000
0100
0010
1000
1001
0000
,  // measure 54
1000
0100
0001
0100
0010
0001
1001
0000
,  // measure 55
0002
0000
0103
0100
0020
0000
1030
1000
,  // measure 56
1001
1001
1001
1001
2001
0000
3100
0000
,  // measure 57
1010
0000
1000
0001
0011
0000
0001
1000
,  // measure 58
0001
0100
1000
0100
0010
0000
1010
0000
,  // measure 59
0011
0000
0001
0100
1010
0000
1000
0100
,  // measure 60
1000
0010
0100
0001
0102
0000
1003
0000
,  // measure 61
1001
0000
0001
1000
1100
0000
1000
0001
,  // measure 62
1000
0010
0001
0010
0100
0000
0101
0000
,  // measure 63
1100
0000
1000
0010
0101
0000
0001
0010
,  // measure 64
0001
0100
0010
1000
2010
0000
3001
0000
,  // measure 65
1100
0000
0010
0100
0101
0000
0001
0010
,  // measure 66
1000
0010
0001
0100
1000
0000
1100
0000
,  // measure 67
0101
0000
1000
0001
0010
0010
0100
0100
,  // measure 68
2000
0000
3010
0010
0200
0000
0301
0000
,  // measure 69
2010
3100
0012
0103
,  // measure 70
0001
0100
1000
0010
0001
0000
1010
0000
,  // measure 71
0011
0000
0100
0010
1010
0000
0100
0010
,  // measure 72
1001
1001
1001
1001
1002
0000
0103
0000
,  // measure 73
0011
0000
0000
1010
0000
0000
0012
0000
0000
0000
0100
0000
0103
0000
0001
0000
,  // measure 74
1100
0000
0000
0101
0000
0000
2100
0000
0000
0000
0010
0000
3010
0000
0000
0000
,  // measure 75
0101
0000
0000
1010
0000
0000
2001
0000
0000
0000
0010
0000
3010
0000
1000
0000
,  // measure 76
1100
0000
0000
0011
0000
0000
1002
0000
0000
0000
0100
0000
0103
0000
0000
0000
,  // measure 77
0101
0000
0000
0110
0000
0000
2010
0000
0000
0000
0001
0000
3001
0000
1000
0000
,  // measure 78
1100
0000
0000
0110
0000
0000
0012
0000
0000
0000
1000
0000
1003
0000
0000
0000
,  // measure 79
0101
0000
0000
1100
0000
0000
0210
0000
0000
0000
0010
0000
0310
0000
0001
0000
,  // measure 80
0011
0000
0000
1010
0000
0000
0110
0000
0000
0000
1001
0000
1001
0000
1001
0000
;

//---------------dance-single - ----------------
#NOTES:
     dance-single:
     :
     Easy:
     4:
     0.348,0.366,0.217,0.000,0.000:
1000
0100
1000
1000
,
0001
0100
0001
0001
,
1000
0010
1000
1000
,
0001
0010
0001
0001
,
1000
0010
0100
0100
,
0001
0010
0100
0100
,
1000
0001
0010
0010
,
0001
1000
0100
0100
,
1000
0010
1000
0010
,
0100
0001
0100
0001
,
1000
0100
1000
0100
,
0010
0001
0010
0001
,
1000
0010
0100
0001
,
1000
0100
0010
0001
,
1000
0100
0001
0100
,
1000
0001
1000
1001
,
1000
0000
1000
0000
,
0010
0000
0010
0000
,
0100
0000
0100
0000
,
0001
0000
0001
0000
,
1000
0000
1000
0000
,
0100
0000
0100
0000
,
0010
0000
0010
0000
,
0001
0001
1000
1000
,
0001
0000
0101
0000
,
1000
0000
1100
0000
,
0001
0000
0011
0000
,
1000
1000
0001
0001
,
1000
0000
1010
0000
,
0001
0000
0011
0000
,
1000
0000
1001
0000
,
0001
0001
1000
1000
,
0001
0000
0100
0101
,
0001
0000
1000
1100
,
1000
0000
0001
0011
,
0001
0000
1000
1010
,
1000
0000
0001
0101
,
1000
0000
1000
1100
,
0001
0000
0001
0011
,
1000
0000
1000
1001
,
1000
0000
0010
0000
,
0100
0001
0100
0000
,
0001
0000
0010
0000
,
0100
1000
0100
0000
,
1000
0000
0010
0000
,
0100
0001
1000
0000
,
0100
0000
1000
0000
,
0001
1000
0010
0000
,
1000
1000
0010
0010
,
0100
0100
0001
0001
,
1000
1000
0001
0001
,
1000
0010
0100
0001
,
1000
0100
1000
1100
,
0001
0100
0001
0101
,
1000
0010
0100
0001
,
1000
1000
1000
0000
,
1001
0000
0110
0000
,
1000
0100
0010
0001
,
1001
0000
0110
0000
,
0001
0100
0010
1000
,
1100
0000
0101
0000
,
1000
0010
0100
0001
,
0011
0000
1010
0000
,
0001
0010
0100
1000
,
0001
0100
1000
0100
,
0010
1000
0001
1000
,
0100
0010
0001
0100
,
1000
0100
0010
1000
,
0001
0010
1000
0010
,
0100
1000
0010
0001
,
0010
0100
0001
0010
,
0100
1000
0001
1001
,
0001
0010
0001
0001
,
1000
0010
1000
1000
,
0001
0100
0001
0001
,
1000
0100
1000
1000
,
0001
0100
0010
0010
,
1000
0100
0010
0010
,
0001
1000
0100
0100
,
1000
0000
0001
0000
0010
0000
0010
0010
;

//---------------dance-single - ----------------
#NOTES:
     dance-single:
     :
     Medium:
     6:
     0.541,0.566,0.417,0.092,0.000:
1000
0000
0100
0000
0010
0001
0010
0000
,
0001
0000
0100
0000
0010
1000
0010
0000
,
1000
0000
0010
0000
0100
0001
1000
0000
,
0001
0000
0010
0000
0100
1000
0001
0000
,
1000
0000
0010
0000
0100
0001
0001
0000
,
0001
0000
0010
0000
0100
1000
1000
0000
,
0001
0000
1000
0000
0001
0100
1000
0000
,
0100
0000
0010
0000
1000
0001
1000
0001
,
1000
0000
0010
0000
0100
0000
0001
0001
,
0001
0000
0010
0000
0100
0000
1000
1000
,
1000
0000
0010
0000
0100
0000
0001
0001
,
0001
0100
0010
1001
,
1000
0000
0100
0000
0010
0000
0001
0010
,
0100
0000
1000
0000
0010
0000
0100
0001
,
1000
0000
0100
0000
1000
0000
0010
0100
,
0001
1000
0001
1001
,
1000
0100
0001
0100
,
0010
0001
1000
1001
,
0001
0100
1000
0100
,
0010
1000
0001
1001
,
1000
0100
0001
0010
,
0001
0100
1000
1001
,
1000
0010
0001
0010
,
1010
0101
0011
1100
,
0001
0000
0100
0000
0010
0000
1000
0010
,
1000
0010
0100
1001
,
1000
0000
0100
0000
0010
0000
0001
1000
,
0001
0101
1100
1001
,
1000
0000
0010
0000
0001
0000
0010
0100
,
0001
0010
0100
1001
,
1000
0000
0100
0000
0001
0000
0100
1000
,
0010
1010
0101
0011
,
1100
0000
1000
0000
0010
0100
0100
0000
,
0001
0000
1000
0000
0100
0010
0010
0000
,
0001
0000
0100
0000
0010
1000
1000
0000
,
0001
0000
0010
0000
0100
1000
1000
0000
,
0001
0000
0100
0000
0010
1000
0010
0000
,
0100
0000
0001
0000
1000
0100
1000
0000
,
0001
0000
0100
0000
0010
1000
0001
0000
,
1000
0000
0100
0000
0010
0001
1000
0001
,
1000
0000
0010
0000
0100
0000
0001
0100
,
0010
1000
0001
1001
,
1000
0000
0100
0000
0010
0000
0001
0010
,
0100
1000
0001
1001
,
1000
0000
0010
0000
0100
0000
0001
0010
,
1000
0010
0001
1001
,
1000
0000
0010
0000
0100
0000
0001
0100
,
1000
1100
0101
1001
,
1000
0010
1000
0000
0100
0001
0100
0000
,
0001
0010
0001
0000
1000
0100
1000
0000
,
0001
1000
0001
1000
0001
1000
0001
1000
,
0002
0023
0230
1300
,
0001
0100
0001
0100
0010
0010
0010
0000
,
1000
0100
1000
0100
0010
0010
0010
0000
,
0002
0103
2000
3100
,
0001
1000
0001
1000
0002
0000
0103
0000
,
1010
0100
0011
0100
,
1000
0001
1000
0001
2000
0000
3100
0000
,
0011
0100
1010
0100
,
0001
1000
0001
1000
0020
0000
0130
0000
,
0011
0100
1100
0010
,
1000
0010
0100
0001
1000
0000
0001
0000
,
1100
0010
0011
0100
,
0001
0100
0010
1000
0002
0000
1003
0000
,
1010
1010
0011
0011
,
1000
0100
0001
0100
1000
0000
0001
0000
,
1100
1100
0101
0101
,
1000
0010
0001
0010
2000
0000
3001
0000
,
1100
1100
0011
0011
,
1000
0010
0001
0100
2000
0000
3001
0000
,
1010
0101
0011
1100
,
1000
0100
0001
0010
1000
0000
1001
0000
,
0001
0000
0010
0000
0100
1000
0100
0000
,
1000
0000
0010
0000
0100
0001
0100
0000
,
0001
0000
0100
0000
0010
1000
0001
0000
,
1000
0000
0100
0000
0010
0001
1000
0000
,
0001
0000
0100
0000
0010
1000
1000
0000
,
1000
0000
0100
0000
0010
0001
0001
0000
,
1000
0000
0001
0000
1000
0010
0001
0000
,
0010
0000
0100
0000
0001
1000
0001
1001
;
