#TITLE:Weekender Girl;
#SUBTITLE:;
#ARTIST:kz × 八王子P;
#TITLETRANSLIT:;
#SUBTITLETRANSLIT:;
#ARTISTTRANSLIT:kz x hachioji-P;
#GENRE:;
#CREDIT:;
#BANNER:Weekender Girl.png;
#BACKGROUND:Weekender Girl-bg.png;
#JACKET:Weekender Girl-jacket.png;
#LYRICSPATH:;
#CDTITLE:;
#MUSIC:Weekender Girl.mp3;
#OFFSET:-0.144;
#SAMPLESTART:87.780;
#SAMPLELENGTH:16.420;
#SELECTABLE:YES;
#BPMS:0.000=132.000
;
#STOPS:
;
#BGCHANGES:;
#KEYSOUNDS:;
#ATTACKS:;

//---------------dance-single - ----------------
#NOTES:
     dance-single:
     :
     Hard:
     7:
     0.472,0.492,0.197,0.365,0.215,376.000,27.000,50.000,0.000,0.000,0.000,0.472,0.492,0.197,0.365,0.215,376.000,27.000,50.000,0.000,0.000,0.000:
0000
0000
0000
0000
,
0000
0000
0000
0000
,
0000
0000
0000
0000
,
0000
0000
0000
0000
,
1000
0000
0100
0000
0000
0010
0000
0001
0000
0000
0000
0000
1000
0000
0000
0000
,
0001
0000
0000
0100
0000
0000
0020
0000
0000
0000
0100
0000
0130
0000
0000
0000
,
0001
0000
0010
0000
0000
0100
0000
1000
0000
0000
0000
0000
0001
0000
0000
0000
,
1000
0010
0100
0002
0000
0003
1001
0000
,
0001
0000
1000
0000
0100
0000
0000
0010
0000
0001
0000
0000
0010
0000
0100
0000
,
1000
0000
0000
0001
0000
0000
0200
0000
0010
0000
0000
0000
0310
0000
0000
0000
,
1000
0000
0001
0000
0100
0000
0000
0010
0000
1000
0000
0000
0010
0000
0100
0000
,
0001
0000
0000
1000
0000
0000
0200
0000
0010
0000
0000
0000
0310
0000
0000
0000
,
0001
0000
0100
0000
0010
0000
0000
1000
0000
0001
0000
0000
1000
0000
0100
0000
,
0010
0000
0000
0001
0000
0000
2000
0000
0100
0000
0000
0000
3001
0000
0000
0000
,
1000
0000
0010
0000
0100
0000
0000
0001
0000
0000
1000
0000
0001
0000
0010
0000
,
0100
0000
0000
1000
0000
0000
0002
0000
0010
0000
0000
0000
1003
0000
1000
0000
,
0001
0000
0100
0000
0000
0010
0000
0200
0000
0000
0000
0001
0000
0301
0000
0000
,
1000
0000
0000
0100
0000
0010
0000
0001
0000
0010
0000
0100
0000
1000
0000
0001
,
0000
0000
1000
0000
0010
0000
0100
0000
0020
0000
0000
1000
0000
1030
0000
0000
,
0001
0000
0000
0001
0000
0000
0010
0000
0000
0010
0000
0000
0100
0000
0100
0000
,
1000
0000
0010
0000
0000
0100
0000
0020
0000
0000
0000
1000
0000
1030
0000
0000
,
0001
0000
0000
0010
0000
0100
0000
1000
0000
0100
0000
0010
0000
0001
0000
1000
,
0000
0000
0001
0000
0100
0000
0010
0000
0200
0000
0000
0001
0000
0301
0000
0000
,
1000
0000
0000
0010
0000
0000
0100
0000
0000
0000
2002
0000
0000
0000
3003
0000
,
1000
0000
0001
0000
0010
0000
0000
0100
0000
1000
0000
0000
0100
0000
0010
0000
,
0001
0000
0000
1000
0000
0000
0020
0000
0100
0000
0000
0000
0130
0000
0000
0000
,
0001
0000
1000
0000
0010
0000
0000
0100
0000
0000
0001
0000
0100
0000
0010
0000
,
1000
0000
0000
0001
0000
0000
0020
0000
0100
0000
0000
0000
0130
0000
0000
0000
,
1000
0000
0010
0000
0100
0000
0000
0001
0000
1000
0000
0000
0001
0000
0010
0000
,
0100
0000
0000
1000
0000
0000
0002
0000
0010
0000
0000
0000
1003
0000
0000
0000
,
0001
0000
0100
0000
0010
0000
0000
1000
0000
0000
0001
0000
1000
0000
0100
0000
,
0010
0000
0000
0001
0000
0000
1000
0000
0020
0000
0000
0000
0130
0000
0000
0000
,
0102
0010
0100
1003
,
0002
0203
0320
2030
,
0010
0010
0100
0100
,
3001
0000
1000
0010
0100
0100
0001
0001
,
1000
1100
0001
0101
,
1000
0000
0000
1000
0000
0000
0010
0000
0000
0010
0000
0000
0100
0000
0001
0000
,
1000
0100
0001
0100
1000
0010
0001
0010
,
2002
0000
3003
1000
0100
0010
0001
2000
,
0000
0000
0000
0000
,
3000
0000
0000
0001
0100
0010
1000
0002
,
0000
0000
0000
0000
,
0003
0000
0000
1000
0010
0100
0001
1000
,
0001
0011
0001
0101
,
0001
1001
1000
1010
,
0010
0000
0000
0010
0000
0000
0100
0000
0000
0100
0000
0000
0001
0000
1000
0000
,
0001
0010
1000
0010
0001
0100
1000
0100
,
0020
0000
0130
0000
0001
0100
0010
1000
,
0002
0000
0013
0020
0000
0130
0200
0000
,
1000
0000
0301
0100
1000
0010
0100
0001
,
1000
0000
0100
0001
0000
1000
0000
0010
,
0002
1003
0101
1100
,
0002
0000
0010
0010
0000
0100
0103
0000
,
0001
0100
0010
2000
0000
0001
3001
0000
,
1000
0000
0100
0001
0000
1000
0000
0010
,
0001
0000
1001
0000
1000
0010
0001
0010
,
2000
0000
3100
0200
0000
0310
0020
0000
,
0001
0000
1030
0010
0001
0100
0010
1000
,
0001
0000
0010
1000
0000
0001
0000
0100
,
2000
3001
1010
0011
,
2000
0000
0100
0100
0000
0010
3010
0000
,
1000
0010
0100
0002
0000
1000
1003
0000
,
0001
0000
0010
1000
0000
0001
0000
0100
,
1000
1010
0101
0011
,
2100
0010
0010
0010
,
0001
0000
0001
0000
3001
0000
1000
0002
,
0010
0000
0010
0000
0013
0001
0010
0100
,
1000
0000
1001
0000
1000
0010
0000
0001
,
0020
0000
0100
0000
0130
0000
0001
1000
,
0002
0103
1010
0012
,
0010
0010
0100
0100
,
1003
0101
1100
0011
,
2010
3020
0230
0302
,
2003
3100
0022
0000
,
0033
0000
0000
0000
;

//---------------dance-single - ----------------
#NOTES:
     dance-single:
     :
     Easy:
     3:
     0.253,0.274,0.029,0.124,0.000,222.000,4.000,17.000,0.000,0.000,0.000,0.253,0.274,0.029,0.124,0.000,222.000,4.000,17.000,0.000,0.000,0.000:
0000
0000
0000
0000
,
0000
0000
0000
0000
,
0000
0000
0000
0000
,
0000
0000
0000
0000
,
1000
1000
1000
0000
,
0100
0100
0100
0000
,
0010
0010
0010
0000
,
0001
1000
2002
3003
,
1000
0000
0010
0000
,
0100
0001
0100
0000
,
0001
0000
0010
0000
,
0100
1000
0100
0000
,
1000
0000
0010
0000
,
0100
0001
1000
0000
,
0001
0000
0010
0000
,
0100
1000
0001
0000
,
1000
1000
0020
0030
,
0100
0100
0001
0001
,
0010
0010
0100
0100
,
1000
1000
0001
0001
,
1000
1000
0200
0300
,
0010
0010
0001
0001
,
1000
1000
0010
0010
,
0100
0001
1000
1001
,
0001
0000
0010
0000
,
0100
1000
0001
0000
,
0100
0000
0010
0000
,
1000
0001
0010
0000
,
0100
0000
1000
0000
,
0001
0100
1000
0000
,
0100
0000
0010
0000
,
1000
0010
0001
0000
,
0010
0010
1000
1000
,
0100
0100
0010
0010
,
0001
0001
0100
0100
,
0010
0010
1000
1000
,
0001
0100
0001
0100
,
1000
0100
1000
0100
,
0010
0010
1000
1000
,
2002
3003
1000
0100
,
0020
0000
0000
0000
,
0030
0000
0001
0100
,
0020
0000
0000
0000
,
0030
0000
1000
0100
,
0010
0010
0001
0001
,
1000
1000
0100
0100
,
1000
0010
0100
0001
,
1000
1000
0001
0001
,
2002
0000
0000
3003
,
1000
0100
0010
0100
,
1000
0010
0100
0010
,
1000
0100
0010
0001
,
0010
0100
1000
0001
,
1000
0010
0100
0010
,
1000
0100
0010
0100
,
1000
0010
0100
0001
,
0010
0100
1000
1000
,
0001
0100
0010
0100
,
0001
0010
0100
0010
,
0001
1000
0100
1000
,
0010
0100
0001
0001
,
1000
0100
0010
0001
,
0010
0100
1000
0001
,
1000
0010
0100
0001
,
1000
0001
0001
0001
,
2000
0000
0000
0000
,
0000
0000
3000
0001
,
0002
0000
0003
0010
,
0020
0030
0100
1000
,
0002
0000
0003
0100
,
0200
0300
0010
0020
,
0000
0000
0000
0000
,
0030
1000
0100
0010
,
0001
0001
0100
0100
,
0010
0010
2000
0000
,
3000
0000
0000
0000
;

//---------------dance-single - ----------------
#NOTES:
     dance-single:
     :
     Medium:
     5:
     0.404,0.438,0.248,0.350,0.000,306.000,34.000,48.000,0.000,0.000,0.000,0.404,0.438,0.248,0.350,0.000,306.000,34.000,48.000,0.000,0.000,0.000:
0000
0000
0000
0000
,
0000
0000
0000
0000
,
0000
0000
0000
0000
,
0000
0000
0000
0000
,
1000
0100
0000
0010
0001
0000
1001
0000
,
0001
0100
0010
1001
,
1000
0010
0000
0100
0001
0000
1001
0000
,
0010
0100
0010
0200
0000
0000
0301
0000
,
1000
0001
1000
0000
0001
0100
0001
0000
,
0100
0010
1000
1001
,
1000
0100
1000
0000
0100
0010
0100
0000
,
0010
0001
1000
1001
,
0001
0100
0010
0000
1000
0010
0100
0000
,
0001
0010
0100
1001
,
1000
0100
0010
0000
0001
0010
0100
0000
,
1000
0000
0001
0000
0200
0000
0010
0310
,
1000
0001
0000
0010
0100
0000
1001
0000
,
1000
0100
0010
0001
,
1000
0010
1000
0000
0001
0010
0001
0000
,
1000
0000
0000
0001
0000
0000
1001
0000
,
0001
1000
0000
0100
0010
0000
1001
0000
,
0001
0010
0100
1000
,
0001
0100
0001
0000
1000
0100
1000
0000
,
0001
0000
0000
1000
0000
2002
0000
3003
,
0001
1000
0001
0000
1000
0010
1000
0000
,
0010
0100
0001
1001
,
0001
0010
0001
0000
0010
0100
0010
0000
,
0100
1000
0001
1001
,
1000
0010
0100
0000
0001
0100
0010
0000
,
1000
0100
0010
1001
,
0001
0010
0100
0000
1000
0100
0010
0000
,
0001
0000
1000
0000
0010
0100
0020
0000
,
2030
0000
0000
3002
,
0023
0230
2300
3002
,
0000
0000
0000
0000
,
0003
0000
0000
1000
0001
0000
0100
0010
,
0100
0100
0001
0001
,
1000
1000
0100
0100
,
0010
0001
0010
0001
1000
0100
1000
0001
,
2000
0000
0000
3000
,
0202
0000
0000
0000
,
0303
0000
0100
0010
,
2020
0000
0000
0000
,
3030
0000
0100
0010
,
0001
0001
0100
0100
,
0010
0010
1000
1000
,
0001
0100
0010
1000
,
0001
0010
0001
0010
0100
1000
0100
1000
,
0002
0010
0103
1001
,
2000
3010
0200
0301
,
2000
0000
3001
0000
0100
0010
0100
0010
,
2000
3100
0020
0031
,
2000
3001
0101
1100
,
0002
0010
0103
1001
,
2000
0010
3100
1001
,
1000
0000
0100
0010
0000
0001
0000
0010
,
0200
0000
1300
0000
0001
1000
0001
1000
,
0002
0103
0020
1030
,
0002
0000
1003
0000
0010
0100
0010
0100
,
0002
0013
0200
1300
,
0002
1003
1010
0011
,
2000
0100
3010
1001
,
0002
0100
0013
1001
,
0001
0000
0010
0100
0000
1000
0000
0100
,
0020
0031
1100
0101
,
1002
1000
1000
1000
,
0100
0100
0103
0020
,
0100
0100
0130
0002
,
1003
0000
0001
0000
0010
0100
0000
1000
,
0020
0100
0100
0130
,
0002
1003
1100
0102
,
0100
0100
0010
0010
,
1003
1100
0101
1010
,
0012
0023
0230
2300
,
3002
1003
2002
0000
,
3003
0000
0000
0000
;
