#VERSION:0.81;
#TITLE:VOID;
#SUBTITLE:;
#ARTIST:COIL;
#TITLETRANSLIT:;
#SUBTITLETRANSLIT:;
#ARTISTTRANSLIT:;
#GENRE:;
#ORIGIN:;
#CREDIT:;
#BANNER:VOID.png;
#BACKGROUND:VOID-bg.png;
#PREVIEWVID:;
#JACKET:VOID-jacket.png;
#CDIMAGE:;
#DISCIMAGE:;
#LYRICSPATH:;
#CDTITLE:;
#MUSIC:VOID.mp3;
#OFFSET:-0.078;
#SAMPLESTART:69.875;
#SAMPLELENGTH:17.091;
#SELECTABLE:YES;
#BPMS:0.000=165.000;
#STOPS:;
#DELAYS:;
#WARPS:;
#TIMESIGNATURES:0.000=4=4;
#TICKCOUNTS:0.000=4;
#COMBOS:0.000=1;
#SPEEDS:0.000=1.000=0.000=0;
#SCROLLS:0.000=1.000;
#FAKES:;
#LABELS:0.000=Song Start;
#BGCHANGES:;
#KEYSOUNDS:;
#ATTACKS:
;

//---------------dance-single - ----------------
#NOTEDATA:;
#CHARTNAME:;
#STEPSTYPE:dance-single;
#DESCRIPTION:;
#CHARTSTYLE:;
#DIFFICULTY:Hard;
#METER:10;
#RADARVALUES:0.930,1.000,0.522,0.171,0.779,646.000,58.000,19.000,0.000,0.000,0.000,0.000,0.000,0.930,1.000,0.522,0.171,0.779,646.000,58.000,19.000,0.000,0.000,0.000,0.000,0.000;
#CREDIT:;
#NOTES:
0000
0000
0000
0000
,
0000
0000
0000
0000
,
0000
0000
0000
0000
,
0000
0000
0000
0000
,
1002
0000
0000
0000
0010
0000
0013
0000
0000
0000
0001
0000
1000
0010
0100
0000
,
0020
0000
0000
0000
1000
0000
1030
0000
0000
0000
0010
0000
1000
0100
0010
0000
,
0200
0000
0000
0000
1000
0000
1300
0000
0000
0000
0100
0000
1000
0010
0100
0000
,
0001
0010
0000
0000
0010
0100
0000
0000
0100
1000
0000
0000
1001
0000
0000
0000
,
2100
0000
0000
0000
0001
0000
3001
0000
0000
0000
1000
0000
0001
0100
0010
0000
,
1000
0000
0100
0000
0001
0000
0100
0000
0000
0000
0110
0000
0000
0010
0001
0000
,
1000
0000
0010
0000
0100
0000
1000
0000
0100
0000
0001
0000
1000
0001
1000
0000
,
0001
0000
0100
0000
0010
0000
0001
0000
0010
0000
1000
0000
0001
1000
0001
0000
,
1000
0000
0010
0000
0100
0000
0001
0000
0000
0000
1010
0000
0000
0100
0001
0000
,
1000
0000
0100
0000
0010
0000
0001
0000
0000
0000
1100
0000
0000
0010
0001
0000
,
1000
0000
0010
0000
0001
0000
0010
0000
0100
0000
0001
0000
1000
0100
1000
0000
,
0001
0000
0100
0000
1000
0000
0100
0000
0010
0000
1001
0000
0100
0010
0100
0010
,
1000
0000
0010
0000
1010
0000
0010
0100
0001
0000
0100
0001
1000
0001
1000
0000
,
0001
0000
0010
0000
0110
0000
0100
0000
1000
0000
1100
0000
1000
0001
1000
0000
,
0001
0000
0100
0000
0101
0000
0100
0010
1000
0000
0010
1000
0001
1000
0001
0000
,
1000
0000
0100
0000
0110
0000
0010
0000
0001
0000
0011
0000
0001
1000
0001
1000
,
0001
0000
0100
0000
1010
0000
0010
0100
0001
0000
1000
0100
0010
0100
1000
0000
,
0001
0000
0100
0000
1010
0000
1000
0000
0100
0000
0011
0000
1000
0001
0100
0000
,
0001
0000
0010
0000
1100
0000
1000
0010
0100
0000
0001
0010
0100
0010
0001
0000
,
1000
0000
0010
0000
0101
0000
0001
0010
0100
0000
1100
0000
1000
0001
1000
0001
,
1000
0000
0010
0000
1010
0000
0010
0100
0001
0000
0101
0000
0001
0010
0100
0000
,
1000
0000
0100
0000
0110
0000
0010
0001
1000
0000
1001
0000
1000
0010
0100
0000
,
0001
0000
0100
0000
0101
0000
0100
0010
1000
0000
1010
0000
1000
0100
0010
0000
,
0001
0100
0001
0100
0010
1000
0010
1000
0001
0010
0001
0010
0100
1000
0100
1000
,
0001
0000
0100
0000
1010
0000
0010
0000
0100
0000
0101
0000
0001
1000
0001
0000
,
1000
0000
0100
0000
0011
0000
0001
0000
0010
0000
1100
0000
1000
0001
1000
0000
,
0001
0000
0100
0000
1010
0000
0010
1000
0001
0000
1000
0000
0001
0010
0100
0000
,
1000
0000
0100
0000
0100
0000
0001
0000
1000
0000
1000
0000
0100
0001
0100
0000
,
0010
0000
1000
0000
0101
0000
0001
0010
0001
0000
0100
0000
0010
1000
0001
0000
,
1000
0000
0010
0000
0010
0000
0001
0000
1000
0000
1000
0000
0010
0001
0010
0000
,
0100
0000
1000
0000
0101
0000
0100
0001
1000
0000
0100
0000
1000
0001
0010
0000
,
0001
0000
0100
0000
1000
0000
0010
0000
0001
0000
1001
0000
0010
0100
0010
0100
,
1000
0000
0100
0000
0101
0000
0001
0100
0001
0000
0101
0000
0001
0100
1000
0000
,
0001
0000
0010
0000
1010
0000
1000
0010
1000
0000
1010
0000
1000
0010
0001
0000
,
0010
0000
0001
0000
0101
0000
0010
1000
0100
0000
1100
0000
1000
0001
0100
0000
,
0001
0000
0010
0000
0010
0000
1000
0000
0100
0000
0100
0000
0001
1000
0001
0000
,
1000
0000
0010
0000
0101
0000
0001
0010
0100
0000
1100
0000
1000
0100
0001
0000
,
0100
0000
0010
0000
0011
0000
0001
0100
0010
0000
1010
0000
0001
0010
1000
0000
,
0010
0000
0001
0000
1100
0000
0010
1000
0001
0000
0101
0000
1000
0100
0001
0000
,
0100
0000
1000
0000
1010
0000
0010
0100
0001
0000
1001
0000
0001
0010
1000
0010
,
0002
0100
0103
0001
,
2000
0100
3100
1000
,
0002
0010
0013
0001
,
1000
0010
0000
0000
0010
0100
0000
0000
0100
0001
0000
0000
1001
0000
0000
0000
,
1010
0000
1000
0000
0001
0100
0001
0000
0001
1000
0001
0000
0001
0010
0001
0000
,
1000
0000
0100
0000
0001
0000
0100
0000
1000
0010
1000
0000
0001
0010
0001
0000
,
1000
0000
0010
0000
0100
0001
0100
0001
1000
0000
0100
0000
0010
0001
0010
0001
,
1000
0000
0010
0000
0100
0001
1000
0100
0010
0000
0100
0000
1001
0000
0000
0000
,
1000
0010
0100
0010
1000
0000
1000
0000
0001
0010
0100
0010
0001
0000
0001
0000
,
1000
0100
0010
0100
1000
0000
1000
0000
0001
0100
0010
0100
0001
0000
0001
0000
,
1000
0010
0100
0001
0100
0010
1000
0000
0001
0010
0100
1000
0100
0010
0001
0000
,
1000
0100
0010
0001
1000
0010
0100
0001
2000
0000
0000
0000
3001
0000
0000
0000
,
1001
0000
0000
1100
0000
0110
0000
0011
0000
0101
0000
0110
,
0000
2010
0001
0000
0100
0000
3100
1000
,
0001
0100
0010
1000
0002
0000
1003
0000
0001
0010
0100
1000
0002
0000
1003
0000
,
0001
0100
0010
1000
0010
0100
0001
0000
1000
0100
0010
0001
2000
0000
3001
0000
,
1000
0010
0100
0001
1000
0010
0100
0001
1000
0100
0010
0001
1000
0100
0010
0001
,
1000
0010
0100
0001
1000
0100
0010
0001
1000
0010
0100
0001
1000
0100
0010
0001
,
1000
0010
1000
0001
1000
0100
1000
0010
0100
0001
0010
0001
0100
0001
1000
0010
,
1000
0100
0010
0001
0010
0100
1000
0001
1000
0010
0100
0001
0100
0010
1000
0001
,
2000
0000
0000
0000
,
0000
0000
0000
0000
,
3020
0100
0100
0130
,
0002
1003
0200
0310
,
0012
0000
0000
0000
1003
0000
0001
0100
0001
0100
0001
0000
1000
0100
1000
0100
,
1000
0010
1000
0000
0010
0000
0100
0001
0100
0001
0100
0000
0001
0010
0001
0010
,
0100
0000
1000
0000
0010
0000
0100
0010
0100
0010
0100
0000
0001
0100
0001
1000
,
0001
0010
0000
0001
1000
0010
0000
1000
0001
0100
0000
0001
1000
0100
0001
0200
,
2000
0000
0000
0000
,
0000
0000
0000
0000
,
0000
0000
0000
0000
,
3300
0000
0000
0000
;

//---------------dance-single - Blank----------------
#NOTEDATA:;
#CHARTNAME:;
#STEPSTYPE:dance-single;
#DESCRIPTION:Blank;
#CHARTSTYLE:;
#DIFFICULTY:Medium;
#METER:8;
#RADARVALUES:0.402,0.518,0.000,0.000,0.014,313.000,0.000,0.000,0.000,0.000,0.000,0.000,0.000,0.402,0.518,0.000,0.000,0.014,313.000,0.000,0.000,0.000,0.000,0.000,0.000,0.000;
#CREDIT:;
#NOTES:
// measure 0
0000
0000
0000
0000
,  // measure 1
0000
0000
0000
0000
,  // measure 2
0000
0000
0000
0000
,  // measure 3
0000
0000
0000
0000
,  // measure 4
0000
0000
0000
0000
,  // measure 5
0000
0000
0000
0000
,  // measure 6
0000
0000
0000
0000
,  // measure 7
0000
0000
0000
0000
,  // measure 8
1000
0000
0000
0001
0000
0000
0000
0000
,  // measure 9
0010
0000
0000
1000
0000
1000
0000
0000
,  // measure 10
1000
0000
0000
0001
0000
0100
0000
0001
,  // measure 11
0000
0100
0000
1000
0000
0001
0000
0000
,  // measure 12
1000
0000
0000
0001
0000
0000
0000
0000
,  // measure 13
0010
0000
0000
1000
0000
1000
0000
0000
,  // measure 14
1000
0000
0000
0001
0000
0100
0000
0001
,  // measure 15
0000
0100
0000
1000
0000
0001
0000
0000
,  // measure 16
0100
0000
0010
0100
0000
0010
0000
1000
,  // measure 17
0100
0000
0010
0100
0000
0010
0000
0001
,  // measure 18
0100
0000
0010
0100
0000
0010
0000
1000
,  // measure 19
0100
0000
0010
0100
0000
0010
0000
0010
,  // measure 20
0100
0000
0010
0100
0000
0010
0000
1000
,  // measure 21
1000
0000
0001
1000
0000
0001
0000
0100
,  // measure 22
0100
0000
0010
0100
0000
0010
0000
0001
,  // measure 23
1000
0000
0000
0000
0001
0000
0000
1000
0000
0000
1000
0000
1000
0001
1000
0001
,  // measure 24
1000
0000
0000
0000
,  // measure 25
0000
0000
0000
0000
,  // measure 26
0000
0000
0000
0000
,  // measure 27
0000
0000
0000
0000
,  // measure 28
0100
0100
0010
0100
0010
1000
0100
0001
,  // measure 29
0100
0100
0010
0100
0010
0100
1000
0100
,  // measure 30
0100
0100
0010
0100
0010
1000
0100
0001
,  // measure 31
0100
0100
0010
0100
0010
1000
0100
0001
,  // measure 32
0100
0100
0010
0100
0010
1000
0100
0001
,  // measure 33
0100
0100
0010
0100
0010
1000
0100
0001
,  // measure 34
0100
0100
0010
0100
0010
1000
0100
0001
,  // measure 35
0100
0100
0010
0100
0010
1000
0100
0001
,  // measure 36
0100
0100
0010
0100
0010
0001
0100
1000
,  // measure 37
0100
0100
0010
0100
0010
1000
0100
0001
,  // measure 38
0100
0100
0010
0100
0010
0001
0100
1000
,  // measure 39
0100
0100
0010
0100
0010
1000
0100
0001
,  // measure 40
0100
0100
0010
0100
0010
1000
0100
0001
,  // measure 41
0100
0100
0010
0100
0010
0001
0010
1000
,  // measure 42
0100
0100
0010
0100
0010
1000
0100
0001
,  // measure 43
0100
0100
0010
0100
0010
0001
0100
1000
,  // measure 44
1000
0000
0000
0000
,  // measure 45
0000
0000
0000
0000
,  // measure 46
0000
0000
0000
0000
,  // measure 47
0010
0000
0000
0000
,  // measure 48
1000
0000
0010
0100
0010
0100
0010
0100
,  // measure 49
0010
0001
0100
1000
0100
0001
0010
1000
,  // measure 50
0100
1000
0001
0010
0100
1000
0001
0001
,  // measure 51
0001
0001
0010
1000
0100
1000
0100
0000
,  // measure 52
0100
0001
0100
0001
1000
1000
0010
0010
,  // measure 53
0100
0001
0100
1000
1000
0010
1000
0001
,  // measure 54
0001
0100
0001
0010
0100
0001
1000
1000
,  // measure 55
0001
0001
0100
1000
0010
0000
0100
0000
,  // measure 56
0010
0000
1000
0100
0010
0000
0001
0010
,  // measure 57
0000
0001
0000
0000
0000
0000
0000
0001
,  // measure 58
0001
0010
0001
0000
1000
0100
0010
0000
,  // measure 59
0001
1000
0010
0000
1000
0100
0001
0000
,  // measure 60
0100
1000
0010
0001
0100
1000
0010
0001
,  // measure 61
1000
0010
0001
0100
1000
0010
0001
0100
,  // measure 62
0010
0001
0100
1000
0010
0001
0100
1000
,  // measure 63
0001
0100
1000
0010
0001
0100
1000
0010
,  // measure 64
0010
0000
0000
0000
,  // measure 65
0000
0000
0000
0000
,  // measure 66
0000
0000
0000
0000
,  // measure 67
0000
0000
0000
0000
,  // measure 68
1000
0000
0000
0000
,  // measure 69
0000
0000
0000
0000
,  // measure 70
0000
0000
0000
0000
,  // measure 71
0000
0000
0000
0000
,  // measure 72
1000
0000
0000
0000
;

//---------------dance-single - Blank----------------
#NOTEDATA:;
#CHARTNAME:;
#STEPSTYPE:dance-single;
#DESCRIPTION:Blank;
#CHARTSTYLE:;
#DIFFICULTY:Easy;
#METER:6;
#RADARVALUES:0.301,0.518,0.000,0.000,0.000,234.000,0.000,0.000,0.000,0.000,0.000,0.000,0.000,0.301,0.518,0.000,0.000,0.000,234.000,0.000,0.000,0.000,0.000,0.000,0.000,0.000;
#CREDIT:;
#NOTES:
// measure 0
0000
0000
0000
0000
,  // measure 1
0000
0000
0000
0000
,  // measure 2
0000
0000
0000
0000
,  // measure 3
0000
0000
0000
0000
,  // measure 4
0000
0000
0000
0000
,  // measure 5
0000
0000
0000
0000
,  // measure 6
0000
0000
0000
0000
,  // measure 7
0000
0000
0000
0000
,  // measure 8
1000
0000
0000
0001
0000
0000
0000
0000
,  // measure 9
0010
0000
0000
1000
0000
1000
0000
0000
,  // measure 10
1000
0000
0000
0001
0000
0100
0000
0001
,  // measure 11
0000
0100
0000
1000
0000
0001
0000
0000
,  // measure 12
0000
0000
0000
0000
,  // measure 13
0000
0000
0000
0000
,  // measure 14
0000
0000
0000
0000
,  // measure 15
0000
0000
0000
0000
,  // measure 16
0100
0000
0010
0100
0000
0010
0000
1000
,  // measure 17
0100
0000
0010
0100
0000
0010
0000
0001
,  // measure 18
0100
0000
0010
0100
0000
0010
0000
1000
,  // measure 19
0100
0000
0010
0100
0000
0010
0000
0010
,  // measure 20
0100
0000
0010
0100
0000
0010
0000
1000
,  // measure 21
1000
0000
0001
1000
0000
0001
0000
0100
,  // measure 22
0100
0000
0010
0100
0000
0010
0000
0001
,  // measure 23
1000
0000
0001
1000
0000
1000
1000
1000
,  // measure 24
0001
0000
0000
0000
,  // measure 25
0000
0000
0000
0000
,  // measure 26
0000
0000
0000
0000
,  // measure 27
0000
0000
0000
0000
,  // measure 28
0100
0000
0010
0000
0010
1000
0000
0001
,  // measure 29
0100
0010
0010
1000
,  // measure 30
0100
0000
0010
0000
0010
1000
0000
0001
,  // measure 31
0100
0000
0010
0000
0010
1000
0000
0001
,  // measure 32
1000
0000
0001
0000
0001
0010
0000
0100
,  // measure 33
0100
0000
0010
0000
0010
1000
0000
0001
,  // measure 34
0001
0000
1000
0000
1000
0100
0000
0010
,  // measure 35
0100
0000
0010
0000
0010
1000
0000
0001
,  // measure 36
0010
0000
0100
0000
0100
0001
0000
1000
,  // measure 37
1000
0000
0001
0000
0001
0010
0000
0100
,  // measure 38
0100
0000
0010
0000
0010
1000
0000
0001
,  // measure 39
1000
0000
0001
0000
0001
0010
0000
0100
,  // measure 40
0100
0000
0010
0000
0010
1000
0000
0001
,  // measure 41
1000
0000
0001
0000
0001
0010
0000
0100
,  // measure 42
0010
0000
0100
0000
0100
0001
0000
1000
,  // measure 43
0001
0000
1000
0000
1000
0100
0000
0010
,  // measure 44
1000
0000
0000
0000
,  // measure 45
0000
0000
0000
0000
,  // measure 46
0000
0000
0000
0000
,  // measure 47
0010
0000
0000
0000
,  // measure 48
1000
0000
0010
0100
0010
0100
0010
0100
,  // measure 49
0010
0000
0010
0010
0001
0001
0100
0100
,  // measure 50
0001
0000
1000
0000
0010
0010
0001
0001
,  // measure 51
0001
0001
0010
0001
0100
0001
0100
0000
,  // measure 52
0100
0100
0001
0001
,  // measure 53
1000
0000
1000
1000
0001
0001
0001
0001
,  // measure 54
0010
0010
0010
0010
,  // measure 55
0010
1000
0001
0010
,  // measure 56
0010
0000
1000
0100
0010
0000
0001
0010
,  // measure 57
0000
0001
0000
0000
0000
0000
0000
0001
,  // measure 58
0001
0000
0010
0000
1000
0100
1000
0000
,  // measure 59
0001
0000
0010
0000
1000
0100
1000
0000
,  // measure 60
0100
0100
0100
0100
0100
0100
0100
0100
,  // measure 61
1000
1000
1000
1000
1000
1000
1000
1000
,  // measure 62
0001
0001
0001
0001
0001
0001
0001
0001
,  // measure 63
0010
0010
0010
0010
0010
0010
0010
0010
,  // measure 64
0010
0000
0000
0000
,  // measure 65
0000
0000
0000
0000
,  // measure 66
0000
0000
0000
0000
,  // measure 67
0000
0000
0000
0000
,  // measure 68
1000
0000
0000
0000
,  // measure 69
0000
0000
0000
0000
,  // measure 70
0000
0000
0000
0000
,  // measure 71
0000
0000
0000
0000
,  // measure 72
1000
0000
0000
0000
;
