#TITLE:UNLIMITED FIRE;
#SUBTITLE:;
#ARTIST:TAG;
#TITLETRANSLIT:;
#SUBTITLETRANSLIT:;
#ARTISTTRANSLIT:;
#GENRE:;
#CREDIT:;
#BANNER:UNLIMITED FIRE.png;
#BACKGROUND:UNLIMITED FIRE-bg.png;
#LYRICSPATH:;
#CDTITLE:;
#MUSIC:UNLIMITED FIRE.mp3;
#OFFSET:1.200;
#SAMPLESTART:13.743;
#SAMPLELENGTH:12.000;
#LASTBEATHINT:0.494;
#SELECTABLE:YES;
#BPMS:0.000=160.000
;
#STOPS:
;
#BGCHANGES:;
#KEYSOUNDS:;
#ATTACKS:;

//---------------dance-single - ----------------
#NOTES:
     dance-single:
     :
     Challenge:
     8:
     0.592,0.594,0.790,0.271,0.103,285.000,73.000,25.000,256.000,0.000,0.000,0.592,0.594,0.790,0.271,0.103,285.000,73.000,25.000,256.000,0.000,0.000:
0000
0000
0000
0000
,
0000
0000
0000
0000
,
0000
0000
0000
0000
,
0000
0000
0000
0000
,
0000
0000
0000
0000
,
1000
0001
0101
MMMM
0000
1000
1001
0000
,
0001
1000
1100
MMMM
0000
0001
1001
0000
,
0001
1000
1010
MMMM
0000
0001
1001
0000
,
1000
0000
0001
0000
0011
0000
MMMM
0000
0101
0000
0000
1010
0000
0000
1100
0000
,
2002
0000
3003
MMMM
,
1000
0010
0100
0001
0000
1000
0000
2100
,
0000
0001
3001
MMMM
1000
0010
0001
0010
,
1000
0100
0010
0001
0000
1000
0000
0102
,
0000
1000
1003
MMMM
0001
0010
1000
0010
,
0001
0100
0010
1000
0000
0001
0000
0012
,
0000
1000
1003
MMMM
0001
0100
1000
0100
,
0001
0010
0100
1000
0000
0001
0000
0101
,
MMMM
1010
MMMM
1100
MMMM
0022
0033
MMMM
,
0001
0100
0010
1000
0000
0001
0000
0012
,
0000
1000
1003
MMMM
0001
0100
1000
0100
,
0001
0010
0100
1000
0000
0001
0000
2010
,
0000
0001
3001
MMMM
1000
0100
0001
0100
,
1000
0010
0100
0101
MMMM
1010
MMMM
0101
,
0001
0010
0100
1100
MMMM
0011
MMMM
1100
,
1000
0010
0001
0010
0000
0100
0000
0101
,
MMMM
1010
MMMM
1100
MMMM
0022
0033
MMMM
,
0001
0000
0000
0100
0000
0000
1000
0000
0000
0100
0000
0000
0010
0000
MMMM
0000
,
1000
0000
0000
0100
0000
0000
0001
0000
0000
0100
0000
0000
0010
0000
MMMM
0000
,
0001
0000
0000
0100
0000
0000
1000
0000
0000
0001
0000
0000
0010
0000
1000
0000
,
0001
0010
0100
1100
MMMM
0011
MMMM
1001
,
1000
0000
0000
0010
0000
0000
0001
0000
0000
0010
0000
0000
0100
0000
MMMM
0000
,
0001
0000
0000
0010
0000
0000
1000
0000
0000
0010
0000
0000
0100
0000
MMMM
0000
,
1000
0000
0000
0010
0000
0000
0001
0000
0000
1000
0000
0000
0100
0000
0001
0000
,
0101
0000
MMMM
0000
1010
0000
MMMM
0000
1001
0000
1001
0000
0010
0100
0010
0000
,
2000
0000
0010
0000
0100
3100
MMMM
0000
,
0002
0000
0010
0000
0100
0103
MMMM
0000
,
1001
0000
0000
0000
MMMM
0000
0000
0000
0000
1001
0000
0000
0000
0000
0000
0000
0000
0000
0000
0000
0000
0000
0000
0000
0001
0000
0000
0000
0000
0000
0100
0000
0000
0000
0000
0000
0010
0000
0000
0000
0000
0000
0000
0000
0000
0000
0000
0000
,
2000
0000
0010
0000
0001
3001
1001
0000
,
1010
MMMM
0101
MMMM
,
0011
MMMM
1100
MMMM
,
0101
MMMM
1010
MMMM
1100
MMMM
0011
MMMM
,
1000
0000
0000
0000
MMMM
0000
0000
0000
0000
1000
0000
0000
0000
0000
0000
0000
0000
0000
0001
0000
0000
0000
0000
0000
MMMM
0000
0000
0001
0000
0000
0000
0000
0000
0000
0000
0000
0100
0000
0000
0000
0000
0000
0010
0000
0000
0000
0000
0000
,
1001
0000
0110
MMMM
,
1000
0010
0100
0001
0000
1000
0000
2100
,
0000
0001
3001
MMMM
1000
0010
0001
0010
,
1000
0100
0010
0001
0000
1000
0000
0102
,
0000
1000
1003
MMMM
0001
0010
1000
0010
,
0001
0100
0010
1000
0000
0001
0000
0012
,
0000
1000
1003
MMMM
0001
0100
1000
0100
,
0001
0010
0100
1000
0000
0001
0000
0101
,
MMMM
1010
MMMM
1100
MMMM
0022
0033
MMMM
,
0001
0100
0010
1000
0000
0001
0000
0012
,
0000
1000
1003
MMMM
0001
0100
1000
0100
,
0001
0010
0100
1000
0000
0001
0000
2010
,
0000
0001
3001
MMMM
1000
0100
0001
0100
,
1000
0010
0100
0101
MMMM
1010
MMMM
0101
,
0001
0010
0100
1100
MMMM
0011
MMMM
1100
,
1000
0010
0001
0010
0000
0100
0000
0101
,
MMMM
1010
MMMM
1100
MMMM
0022
0033
MMMM
,
1001
MMMM
0000
0110
MMMM
0000
1100
0202
,
0000
0000
0000
0000
0000
0000
0000
0303
,
MMMM
0000
0000
0000
;

//---------------dance-single - ----------------
#NOTES:
     dance-single:
     :
     Hard:
     8:
     0.621,0.594,0.757,0.335,0.108,301.000,70.000,31.000,0.000,0.000,0.000,0.621,0.594,0.757,0.335,0.108,301.000,70.000,31.000,0.000,0.000,0.000: // measure 0
0000
0000
0000
0000
,  // measure 1
0000
0000
0000
0000
,  // measure 2
0000
0000
0000
0000
,  // measure 3
0000
0000
0000
0000
,  // measure 4
0000
0000
0000
0000
,  // measure 5
1000
0001
0101
0000
0000
1000
1001
0000
,  // measure 6
0001
1000
1100
0000
0000
0001
1001
0000
,  // measure 7
0001
1000
1010
0000
0000
0001
1001
0000
,  // measure 8
1000
0000
0001
0000
0011
0000
0000
0000
0101
0000
0000
1010
0000
0000
1100
0000
,  // measure 9
2002
0000
3003
0110
,  // measure 10
1000
0010
0100
0001
0000
1000
0000
2100
,  // measure 11
0000
0001
3001
0000
1000
0010
0001
0010
,  // measure 12
1000
0100
0010
0001
0000
1000
0000
0102
,  // measure 13
0000
1000
1003
0000
0001
0010
1000
0010
,  // measure 14
0001
0100
0010
1000
0000
0001
0000
0012
,  // measure 15
0000
1000
1003
0000
0001
0100
1000
0100
,  // measure 16
0001
0010
0100
1000
0000
0001
0000
0101
,  // measure 17
0000
1010
0000
1100
0000
0022
0000
0033
,  // measure 18
0001
0100
0010
1000
0000
0001
0000
0012
,  // measure 19
0000
1000
1003
0000
0001
0100
1000
0100
,  // measure 20
0001
0010
0100
1000
0000
0001
0000
2010
,  // measure 21
0000
0001
3001
0000
1000
0100
0001
0100
,  // measure 22
1000
0010
0100
0101
0000
1010
0000
0101
,  // measure 23
0001
0010
0100
1100
0000
0011
0000
1100
,  // measure 24
1000
0010
0001
0010
0000
0100
0000
0101
,  // measure 25
0000
1010
0000
1100
0000
0022
0000
0033
,  // measure 26
0001
0000
0000
0100
0000
0000
1000
0000
0000
0100
0000
0000
0010
0000
0010
0000
,  // measure 27
1000
0000
0000
0100
0000
0000
0001
0000
0000
0100
0000
0000
0010
0000
0010
0000
,  // measure 28
0001
0000
0000
0100
0000
0000
1000
0000
0000
0001
0000
0000
0010
0000
1000
0000
,  // measure 29
0001
0010
0100
1100
0000
0011
0000
1001
,  // measure 30
1000
0000
0000
0010
0000
0000
0001
0000
0000
0010
0000
0000
0100
0000
0100
0000
,  // measure 31
0001
0000
0000
0010
0000
0000
1000
0000
0000
0010
0000
0000
0100
0000
0100
0000
,  // measure 32
1000
0000
0000
0010
0000
0000
0001
0000
0000
1000
0000
0000
0100
0000
0001
0000
,  // measure 33
0101
0000
0000
0000
1010
0000
0000
0000
1001
0000
1001
0000
0010
0100
0010
0000
,  // measure 34
2000
0000
0010
0000
0100
3100
1000
0000
,  // measure 35
0002
0000
0010
0000
0100
0103
0001
0000
,  // measure 36
1100
0000
0000
0101
0000
0000
0000
0000
0001
0000
0100
0000
0010
0000
0000
0000
,  // measure 37
2000
0000
0010
0000
0001
3001
1001
0000
,  // measure 38
2010
3001
0012
1003
,  // measure 39
2100
3001
0102
1003
,  // measure 40
0001
0000
0100
0010
0000
1000
0000
0010
0100
0000
0100
0000
0001
0000
0001
0000
,  // measure 41
1000
0000
0000
1000
0000
0000
0001
0000
0000
0001
0000
0000
0010
0000
0100
0000
,  // measure 42
1001
0000
0220
0330
,  // measure 43
1000
0010
0100
0001
0000
1000
0000
2100
,  // measure 44
0000
0001
3001
0000
1000
0010
0001
0010
,  // measure 45
1000
0100
0010
0001
0000
1000
0000
0102
,  // measure 46
0000
1000
1003
0000
0001
0010
1000
0010
,  // measure 47
0001
0100
0010
1000
0000
0001
0000
0012
,  // measure 48
0000
1000
1003
0000
0001
0100
1000
0100
,  // measure 49
0001
0010
0100
1000
0000
0001
0000
0101
,  // measure 50
0000
1010
0000
1100
0000
0022
0000
0033
,  // measure 51
0001
0100
0010
1000
0000
0001
0000
0012
,  // measure 52
0000
1000
1003
0000
0001
0100
1000
0100
,  // measure 53
0001
0010
0100
1000
0000
0001
0000
2010
,  // measure 54
0000
0001
3001
0000
1000
0100
0001
0100
,  // measure 55
1000
0010
0100
0101
0000
1010
0000
0101
,  // measure 56
0001
0010
0100
1100
0000
0011
0000
1100
,  // measure 57
1000
0010
0001
0010
0000
0100
0000
0101
,  // measure 58
0000
1010
0000
1100
0000
0022
0000
0033
,  // measure 59
1001
0000
0000
0110
0000
0000
1100
0202
,  // measure 60
0000
0000
0000
0000
,  // measure 61
0303
0000
0000
0000
;

//---------------dance-single - ----------------
#NOTES:
     dance-single:
     :
     Easy:
     4:
     0.366,0.528,0.151,0.173,0.000,207.000,14.000,16.000,0.000,0.000,0.000,0.366,0.528,0.151,0.173,0.000,207.000,14.000,16.000,0.000,0.000,0.000:
0000
0000
0000
0000
,
0000
0000
0000
0000
,
0000
0000
0000
0000
,
0000
0000
0000
0000
,
0000
0000
0000
0000
,
1000
0100
0000
1100
,
0001
0100
0000
0101
,
1000
0010
0000
1010
,
0001
0010
0100
1000
,
2002
0000
0000
3003
,
1000
0010
0100
0001
,
1000
1000
0001
0001
,
1000
0100
0010
0001
,
1000
1000
0001
0001
,
1000
0010
0001
0010
,
0100
0100
0010
0010
,
1000
0100
0001
0100
,
0010
0010
0100
0100
,
0001
0100
0010
1000
,
0001
0001
1000
1000
,
0001
0010
0100
1000
,
0001
0001
1000
1000
,
0001
0100
1000
0100
,
0001
0010
1000
0010
,
0001
0100
1000
0010
,
0001
0001
1000
1000
,
0001
0100
0001
0100
,
0010
1000
0010
1000
,
0001
0010
0001
0010
,
0100
0100
1000
1001
,
1000
0010
1000
0010
,
0100
0001
0100
0001
,
1000
0100
1000
0100
,
0010
0010
0100
0100
,
2000
0010
3010
1000
,
0002
0010
0013
0001
,
1001
1001
0001
1000
,
0002
0100
0103
0001
,
0022
0033
2200
3300
,
0202
0303
2020
3030
,
1000
0010
0100
0001
,
1000
1000
0001
0001
,
2002
0000
0000
3003
,
1000
0010
0100
0001
,
1000
1000
0001
0001
,
1000
0100
0010
0001
,
1000
1000
0001
0001
,
1000
0010
0001
0010
,
0100
0100
0010
0010
,
1000
0100
0001
0100
,
0010
0010
0100
0100
,
0001
0100
0010
1000
,
0001
0001
1000
1000
,
0001
0010
0100
1000
,
0001
0001
1000
1000
,
0001
0100
1000
0100
,
0001
0010
1000
0010
,
0001
0100
1000
0010
,
0001
0001
1000
1000
,
1001
0000
0000
0110
0000
0000
1000
0002
,
0000
0000
0000
0000
,
0003
0000
0000
0000
;

//---------------dance-single - ----------------
#NOTES:
     dance-single:
     :
     Medium:
     6:
     0.453,0.462,0.433,0.151,0.011,239.000,40.000,14.000,0.000,0.000,0.000,0.453,0.462,0.433,0.151,0.011,239.000,40.000,14.000,0.000,0.000,0.000:
0000
0000
0000
0000
,
0000
0000
0000
0000
,
0000
0000
0000
0000
,
0000
0000
0000
0000
,
0000
0000
0000
0000
,
1000
0000
1100
0000
0000
1000
0001
0000
,
0100
0000
0101
0000
0000
0001
1000
0000
,
0010
0000
1010
0000
0000
1000
0001
0000
,
0010
0000
0011
0000
0001
0100
0010
1000
,
0002
0000
0003
1001
,
1000
0000
0100
0010
0000
0001
0000
0010
,
0000
0100
1000
0000
0001
0000
1001
0000
,
0001
0000
0100
0010
0000
1000
0000
0010
,
0000
0100
0001
0000
1000
0000
1001
0000
,
0001
0000
0100
1000
0000
0100
0000
0010
,
0000
1000
0001
0000
1000
0000
1001
0000
,
1000
0000
0100
0001
0000
0100
0000
0010
,
0000
0001
0000
1000
0000
2002
0000
3003
,
0001
0000
0010
0100
0000
1000
0000
0100
,
0000
0010
0001
0000
1000
0000
1001
0000
,
1000
0000
0010
0100
0000
0001
0000
0100
,
0000
0010
1000
0000
0001
0000
1001
0000
,
1000
0000
0010
0001
0000
0010
0000
0100
,
0000
0001
1000
0000
0001
0000
1001
0000
,
0001
0000
0010
1000
0000
0010
0000
0100
,
0000
1000
0000
0001
0000
2002
0000
3003
,
1000
0000
0001
0000
0100
0000
0001
1000
,
0100
0000
1000
0000
0001
0000
0010
0001
,
1000
0000
0010
0000
1000
0000
0001
0010
,
0100
1100
0101
1001
,
0001
0000
0100
0000
0010
0000
1000
0100
,
0010
0000
0001
0000
0100
0000
0010
1000
,
0001
0000
0010
0000
0100
0000
1000
0001
,
0100
1010
0011
1001
,
1000
0100
0001
0000
0200
0000
0310
0000
,
0001
0100
1000
0000
0200
0000
0310
0000
,
1010
0000
0101
0000
1000
0100
0001
0000
,
1000
0010
0001
0000
0200
0000
0310
0000
,
1010
0000
0101
0000
,
0011
0000
1100
0000
,
1001
1001
0110
0110
,
1000
0000
0000
1000
0000
0000
1000
0000
0000
1000
0000
0000
0001
0000
0001
0000
,
0001
0000
0010
1001
,
1000
0000
0100
0010
0000
0001
0000
0010
,
0000
0100
1000
0000
0001
0000
1001
0000
,
0001
0000
0100
0010
0000
1000
0000
0010
,
0000
0100
0001
0000
1000
0000
1001
0000
,
0001
0000
0100
1000
0000
0100
0000
0010
,
0000
1000
0001
0000
1000
0000
1001
0000
,
1000
0000
0100
0001
0000
0100
0000
0010
,
0000
0001
0000
1000
0000
2002
0000
3003
,
0001
0000
0010
0100
0000
1000
0000
0100
,
0000
0010
0001
0000
1000
0000
1001
0000
,
1000
0000
0010
0100
0000
0001
0000
0100
,
0000
0010
1000
0000
0001
0000
1001
0000
,
1000
0000
0010
0001
0000
0010
0000
0100
,
0000
0001
1000
0000
0001
0000
1001
0000
,
0001
0000
0010
1000
0000
0010
0000
0100
,
0000
1000
0000
0001
0000
2002
0000
3003
,
0101
0000
0000
1100
0000
0000
2000
0002
,
0000
0000
0000
0000
,
3003
0000
0000
0000
;
