#VERSION:0.81;
#TITLE:The Heat Is On;
#SUBTITLE:;
#ARTIST:Aaron G.;
#TITLETRANSLIT:;
#SUBTITLETRANSLIT:;
#ARTISTTRANSLIT:;
#GENRE:;
#ORIGIN:;
#CREDIT:;
#BANNER:The Heat Is On.png;
#BACKGROUND:The Heat Is On-bg.png;
#PREVIEWVID:;
#JACKET:The Heat Is On-jacket.png;
#CDIMAGE:;
#DISCIMAGE:;
#LYRICSPATH:;
#CDTITLE:;
#MUSIC:The Heat Is On.mp3;
#OFFSET:-0.253;
#SAMPLESTART:49.670;
#SAMPLELENGTH:16.420;
#SELECTABLE:YES;
#BPMS:0.000=114.000;
#STOPS:;
#DELAYS:;
#WARPS:;
#TIMESIGNATURES:0.000=4=4;
#TICKCOUNTS:0.000=4;
#COMBOS:0.000=1;
#SPEEDS:0.000=1.000=0.000=0;
#SCROLLS:0.000=1.000;
#FAKES:;
#LABELS:0.000=Song Start;
#BGCHANGES:;
#KEYSOUNDS:;
#ATTACKS:
;

//---------------dance-single - Blank----------------
#NOTEDATA:;
#CHARTNAME:;
#STEPSTYPE:dance-single;
#DESCRIPTION:Blank;
#CHARTSTYLE:;
#DIFFICULTY:Hard;
#METER:7;
#RADARVALUES:0.445,0.369,0.167,0.099,0.138,289.000,17.000,10.000,0.000,0.000,0.000,0.000,0.000,0.445,0.369,0.167,0.099,0.138,289.000,17.000,10.000,0.000,0.000,0.000,0.000,0.000;
#CREDIT:;
#NOTES:
// measure 0
0000
0000
0000
0000
,  // measure 1
0000
0000
0000
0000
,  // measure 2
0000
0000
0000
0000
,  // measure 3
0000
0000
0000
0000
,  // measure 4
1000
0000
0001
0000
0100
0000
0000
0001
0000
0000
1000
0000
0100
0000
0000
0000
,  // measure 5
1000
0000
0001
0000
0010
0000
0000
0001
0000
0000
1000
0000
0010
0000
0000
0000
,  // measure 6
1000
0000
0100
0000
0001
0000
0000
1000
0000
0000
0010
0000
0001
0000
0000
0000
,  // measure 7
1000
0000
0010
0000
0001
0000
0000
0100
0000
0000
1000
0000
0001
0000
0000
0000
,  // measure 8
1000
0010
0100
0000
0001
0100
0010
0000
,  // measure 9
1000
0100
0010
0001
1000
1000
0001
0000
,  // measure 10
0100
0100
0010
0000
1000
0100
0001
0100
,  // measure 11
1000
0000
0000
1000
0010
0000
0000
0010
0100
0000
0000
0101
0000
0000
0001
0000
,  // measure 12
1000
0100
0001
0100
0010
0001
1000
0100
,  // measure 13
1000
0000
0010
0000
0001
0000
0010
0000
0100
0000
0001
1000
0000
0100
0000
0000
,  // measure 14
1000
0000
0010
0100
0000
0100
0000
0000
0001
0000
0010
0100
0000
0100
0000
0000
,  // measure 15
1000
0010
0001
0100
0001
0010
1000
0001
,  // measure 16
1001
0000
0001
0000
0100
0000
0000
0010
0000
0000
1000
0000
0001
0000
0000
0000
,  // measure 17
1000
0000
0001
0000
0010
0000
0000
0100
0000
0000
1000
0000
0001
0000
0000
0000
,  // measure 18
1000
0000
0010
0000
0001
0000
0000
0010
0000
0000
0100
0000
0001
0000
0000
0000
,  // measure 19
1000
0000
0100
0000
0001
0000
0000
0100
0000
0000
0010
0000
0001
0000
0000
0000
,  // measure 20
1000
0000
0010
0000
0100
0000
0010
1000
0000
0000
0001
0000
0001
0000
0000
0000
,  // measure 21
1000
0000
0100
0000
0010
0000
0100
1000
0000
0000
0001
0000
0001
0000
0000
0000
,  // measure 22
1000
0000
0010
0000
0001
0000
0100
1000
0000
0000
0001
0000
0001
0000
0000
0000
,  // measure 23
1000
0100
0001
0100
1000
0010
0001
0010
,  // measure 24
1010
0000
0101
0000
1000
0100
0001
0100
,  // measure 25
2000
0000
3001
0000
1000
0010
0100
0001
,  // measure 26
0011
0000
1100
0000
0001
0010
1000
0010
,  // measure 27
0002
0000
1003
0001
1000
0010
0100
0001
,  // measure 28
1001
0000
0110
0000
1000
0100
0001
0100
,  // measure 29
0020
0000
0130
0000
1000
0010
0100
0100
,  // measure 30
0001
0001
1000
1000
0100
0100
0010
0002
,  // measure 31
0000
0100
0100
0103
0001
0010
0100
1000
,  // measure 32
1010
0000
0101
0000
1000
0100
0001
0100
,  // measure 33
0010
0000
0000
0010
0000
0000
0010
0000
0001
0000
0010
0000
0100
0000
1000
0000
,  // measure 34
0011
0000
1100
0000
1000
0010
0001
0010
,  // measure 35
0100
0100
0001
0001
1000
0010
0001
0010
,  // measure 36
0110
0000
1001
0000
0001
0010
1000
0010
,  // measure 37
0200
0000
0310
0000
0001
0100
0010
0010
,  // measure 38
1000
0000
1000
0000
0001
0000
0001
0000
0010
0000
0000
0100
0000
0000
2000
0000
,  // measure 39
0000
0001
0001
3001
1000
0010
0100
0001
,  // measure 40
1001
0000
0001
0000
0010
0001
0000
1000
0000
0002
0000
0000
0103
0000
0000
0000
,  // measure 41
0001
0010
0100
0000
1000
0010
0100
0001
,  // measure 42
2000
0000
3010
0010
0002
0000
0103
0100
,  // measure 43
1000
0000
1001
0000
0001
0100
0010
1000
,  // measure 44
1001
0000
1000
0000
0100
1000
0000
0001
0000
2000
0000
0000
3010
0000
0000
0000
,  // measure 45
1000
0100
0010
0000
0001
0100
0010
0010
,  // measure 46
1000
1000
0001
0001
0010
0010
0100
1000
;

//---------------dance-single - Blank----------------
#NOTEDATA:;
#CHARTNAME:;
#STEPSTYPE:dance-single;
#DESCRIPTION:Blank;
#CHARTSTYLE:;
#DIFFICULTY:Easy;
#METER:3;
#RADARVALUES:0.245,0.208,0.030,0.059,0.000,165.000,3.000,6.000,0.000,0.000,0.000,0.000,0.000,0.245,0.208,0.030,0.059,0.000,165.000,3.000,6.000,0.000,0.000,0.000,0.000,0.000;
#CREDIT:;
#NOTES:
// measure 0
0000
0000
0000
0000
,  // measure 1
0000
0000
0000
0000
,  // measure 2
0000
0000
0000
0000
,  // measure 3
0000
0000
0000
0000
,  // measure 4
1000
0100
1000
1000
,  // measure 5
0001
0100
0001
0001
,  // measure 6
1000
0010
1000
1000
,  // measure 7
0001
0010
0001
0001
,  // measure 8
1000
1000
0100
0100
,  // measure 9
0010
0010
0001
0001
,  // measure 10
1000
1000
0010
0010
,  // measure 11
0100
0100
0100
1001
,  // measure 12
0001
0010
0100
1000
,  // measure 13
0001
0100
0010
1000
,  // measure 14
0001
0100
1000
0100
,  // measure 15
0001
0010
1000
0010
,  // measure 16
0001
0010
0100
0100
,  // measure 17
1000
0010
0100
0100
,  // measure 18
0001
0100
0010
0010
,  // measure 19
1000
0100
0010
0010
,  // measure 20
0001
0010
1000
1000
,  // measure 21
0001
0100
1000
1000
,  // measure 22
0001
0010
1000
0010
,  // measure 23
0001
0100
1000
0100
,  // measure 24
0001
0010
0100
1000
,  // measure 25
0002
0003
1000
1000
,  // measure 26
0001
0100
0010
1000
,  // measure 27
0002
0003
1000
1000
,  // measure 28
0001
0010
1000
0100
,  // measure 29
0002
0003
1000
1000
,  // measure 30
0010
0010
0100
0100
,  // measure 31
0001
1000
1001
0000
,  // measure 32
0001
0010
0100
1000
,  // measure 33
0002
0003
1000
1000
,  // measure 34
0001
0100
0010
1000
,  // measure 35
0002
0003
1000
1000
,  // measure 36
0001
0010
1000
0100
,  // measure 37
0002
0003
1000
1000
,  // measure 38
0010
0010
0100
0001
,  // measure 39
1000
0001
1001
0000
,  // measure 40
0001
0010
0100
0100
,  // measure 41
1000
0010
0001
0010
,  // measure 42
1000
0100
0010
0010
,  // measure 43
0001
0100
1000
0100
,  // measure 44
0001
0010
1000
1000
,  // measure 45
0001
0100
1000
0001
,  // measure 46
0100
0000
0100
0000
0010
0000
1000
0001
;

//---------------dance-single - Blank----------------
#NOTEDATA:;
#CHARTNAME:;
#STEPSTYPE:dance-single;
#DESCRIPTION:Blank;
#CHARTSTYLE:;
#DIFFICULTY:Medium;
#METER:5;
#RADARVALUES:0.363,0.323,0.266,0.099,0.000,221.000,27.000,10.000,0.000,0.000,0.000,0.000,0.000,0.363,0.323,0.266,0.099,0.000,221.000,27.000,10.000,0.000,0.000,0.000,0.000,0.000;
#CREDIT:;
#NOTES:
// measure 0
0000
0000
0000
0000
,  // measure 1
0000
0000
0000
0000
,  // measure 2
0000
0000
0000
0000
,  // measure 3
0000
0000
0000
0000
,  // measure 4
1000
0100
1000
0000
0001
0000
1001
0000
,  // measure 5
0001
0100
0001
0000
1000
0000
1001
0000
,  // measure 6
1000
0010
1000
0000
0001
0000
1001
0000
,  // measure 7
0001
0010
0001
0000
1000
0000
1001
0000
,  // measure 8
0001
0000
0010
0000
0100
1000
0100
0000
,  // measure 9
1000
0000
0010
0000
0100
0001
0100
0000
,  // measure 10
0001
0000
0010
0000
0100
1000
0001
0000
,  // measure 11
1010
1010
0011
1001
,  // measure 12
0001
0100
0010
0000
1000
0010
0100
0000
,  // measure 13
0001
0010
0100
0000
1000
0100
0010
0000
,  // measure 14
0001
0001
0001
0000
1000
1000
1000
0000
,  // measure 15
1010
0101
0011
1100
,  // measure 16
0001
0010
0001
0000
1000
0000
1001
0000
,  // measure 17
1000
0010
1000
0000
0001
0000
1001
0000
,  // measure 18
0001
0100
0001
0000
1000
0000
1001
0000
,  // measure 19
1000
0100
1000
0000
0001
0000
1001
0000
,  // measure 20
1000
0010
0100
0000
0001
0000
1001
0000
,  // measure 21
0001
0010
0100
0000
1000
0000
1001
0000
,  // measure 22
1000
0100
0010
0000
0001
0000
1001
0000
,  // measure 23
0001
0100
0010
1000
0001
0010
0100
1000
,  // measure 24
0001
0000
1001
0000
1000
0100
1000
0000
,  // measure 25
0002
0010
0100
1003
,  // measure 26
1000
0000
1001
0000
0001
0100
0001
0000
,  // measure 27
2000
0010
0100
3001
,  // measure 28
0010
0000
1001
0000
0001
0100
0010
0000
,  // measure 29
2000
0010
0001
3100
,  // measure 30
1000
0010
1000
0010
0100
0001
0100
0001
,  // measure 31
1000
0001
2002
3003
,  // measure 32
1000
0000
1001
0000
0001
0010
0001
0000
,  // measure 33
2000
0100
0010
3001
,  // measure 34
0001
0000
1001
0000
1000
0010
1000
0000
,  // measure 35
0002
0100
0010
1003
,  // measure 36
0100
0000
1001
0000
1000
0010
0100
0000
,  // measure 37
0002
0100
1000
0013
,  // measure 38
0001
0100
0001
0100
0010
1000
0010
1000
,  // measure 39
0001
1000
2002
3003
,  // measure 40
1000
0100
1000
0100
1000
1000
1000
0000
,  // measure 41
0001
0010
0100
1000
,  // measure 42
0001
0100
0001
0100
0001
0001
0001
0000
,  // measure 43
1000
0010
0100
0001
,  // measure 44
1000
0100
0010
0001
1000
0001
1000
0000
,  // measure 45
0001
0100
0010
1000
,  // measure 46
0001
0001
0010
0010
0100
0100
1000
0001
;
