#VERSION:0.81;
#TITLE:The Fox (What Does The Fox Say);
#SUBTITLE:;
#ARTIST:Ylvis;
#TITLETRANSLIT:;
#SUBTITLETRANSLIT:;
#ARTISTTRANSLIT:;
#GENRE:;
#ORIGIN:;
#CREDIT:;
#BANNER:The Fox (What Does The Fox Say).png;
#BACKGROUND:The Fox (What Does The Fox Say)-bg.png;
#PREVIEWVID:;
#JACKET:The Fox (What Does The Fox Say)-jacket.png;
#CDIMAGE:;
#DISCIMAGE:;
#LYRICSPATH:;
#CDTITLE:;
#MUSIC:The Fox (What Does The Fox Say).mp3;
#OFFSET:-0.077;
#SAMPLESTART:37.500;
#SAMPLELENGTH:12.000;
#SELECTABLE:YES;
#BPMS:0.000=128.000;
#STOPS:;
#DELAYS:;
#WARPS:;
#TIMESIGNATURES:0.000=4=4;
#TICKCOUNTS:0.000=4;
#COMBOS:0.000=1;
#SPEEDS:0.000=1.000=0.000=0;
#SCROLLS:0.000=1.000;
#FAKES:;
#LABELS:0.000=Song Start;
#BGCHANGES:;
#KEYSOUNDS:;
#ATTACKS:
;

//---------------dance-single - ----------------
#NOTEDATA:;
#CHARTNAME:;
#STEPSTYPE:dance-single;
#DESCRIPTION:;
#CHARTSTYLE:;
#DIFFICULTY:Hard;
#METER:8;
#RADARVALUES:0.530,0.466,0.548,0.098,0.083,408.000,73.000,13.000,0.000,0.000,0.000,0.000,0.000,0.530,0.466,0.548,0.098,0.083,408.000,73.000,13.000,0.000,0.000,0.000,0.000,0.000;
#CREDIT:;
#NOTES:
0000
0000
0000
0000
,
0000
0000
0000
0000
,
0000
0000
0000
0000
,
0000
0000
0000
0000
,
1000
0001
0000
0001
0101
0000
1100
0000
,
1001
1000
0000
0001
0011
0000
1010
0000
,
1001
0001
0000
1000
1100
0000
0101
0000
,
1001
1000
1010
0011
,
1001
0001
0000
0100
1010
0000
0101
0000
,
1001
1000
0000
0100
0011
0000
1100
0000
,
1002
0000
0010
0000
0103
0001
0100
1010
,
0000
0101
0000
0011
0000
1100
0000
1001
,
1000
0010
0000
0001
0010
0010
0200
0000
,
0301
0010
0000
1000
0010
0010
0200
0000
,
1000
0000
1000
0000
0301
0100
1000
0002
,
0000
0103
0000
1010
0000
0011
0000
1001
,
0001
0100
0001
0100
0010
1000
0010
1000
,
0001
0010
0001
0010
0100
1000
0100
1000
,
0001
0100
0010
1000
0001
0010
0100
1000
,
0001
0000
0100
0000
1000
0000
0100
0000
0001
0000
0000
0000
1001
0000
0000
0001
,
1000
0000
0010
0000
0100
0000
0001
0000
0100
0000
0010
1000
0000
1000
0010
0000
,
0000
0010
1000
0000
0100
0000
0010
0000
0001
0000
0100
0001
0000
0001
0100
0000
,
0010
0000
1000
0000
0001
0000
0100
0000
0001
0000
1000
0100
0000
0100
1000
0000
,
0001
0100
1000
0100
0101
0000
1100
0000
,
0001
0000
0100
0000
0010
0000
1000
0000
0010
0000
0100
0001
0000
0000
1000
0000
,
0000
1000
0001
0000
0010
0000
0100
0000
1000
0000
0001
1000
0000
0000
0001
0000
,
1000
0000
0010
0000
0001
0000
0010
0000
0100
0000
0001
1000
0000
0000
0100
0000
,
1000
0010
0001
0010
1010
0000
0011
0000
,
1000
0000
0100
0000
0010
0000
0001
0000
0010
0000
0100
1000
0001
0000
0000
0000
,
1000
0000
0010
0000
0100
0000
0001
0000
0100
0000
0010
1000
0001
0000
0000
0000
,
1000
0000
0100
0000
0001
0000
0100
0000
0010
0000
0001
1000
0010
0000
0000
0000
,
1000
0100
0001
0100
0110
0000
1001
0000
,
0001
0000
0001
0000
0001
0000
0100
0000
0010
0000
1000
0010
0000
1000
0010
0000
,
0000
0100
0001
0000
0001
0000
0001
0000
0010
0000
0100
1000
0000
0100
1000
0000
,
0001
0000
0001
0000
0001
0000
0100
0000
0010
0000
1000
0001
0000
1000
0001
0000
,
1000
0010
0001
0010
0110
0000
1001
0000
,
2100
0000
0100
0000
0010
0000
3001
1000
,
0002
0000
0103
0200
0000
0320
0000
2030
,
0001
0001
0100
3100
,
1000
0000
0010
0001
0000
1000
0000
0100
,
0002
0010
0100
1003
,
0001
0000
0010
1000
0000
0001
0100
1000
,
0002
0000
0010
0000
0100
0000
1003
0001
,
0200
0000
0010
0010
0000
0001
0301
0000
,
1000
0100
0010
0001
0010
0100
1000
0001
,
1000
0010
0100
0001
0100
0010
1000
0001
,
1000
0010
0001
0010
0100
0001
1000
0100
,
1000
0010
0001
0010
0100
0001
1000
0001
,
1000
0100
0001
0100
0010
0001
0100
1000
,
0100
0010
1000
0100
0001
0100
1000
0001
,
1000
0100
0001
0100
1000
0010
0001
0010
,
1000
0100
0001
0010
1000
0001
1001
0000
,
1100
1100
0101
0101
,
1010
1010
0011
0011
,
0110
0110
1001
1001
,
0001
0010
0100
1000
0001
0100
0010
1000
,
1010
1010
0101
0101
,
0011
0011
1100
1100
,
1001
1001
0110
0110
,
0001
0010
0100
1000
0001
0100
0100
0000
,
1010
0101
1010
0101
,
1000
0100
0001
0100
0010
0010
0001
0000
,
1100
0011
1100
0011
,
1000
0010
0001
0010
0100
0100
0001
0000
,
1010
0101
0011
1100
,
0001
0010
1000
0010
0100
0100
1000
0000
,
0001
0100
1000
0100
0010
0010
1000
0000
,
0001
0010
0100
1000
0001
0100
0010
1000
,
0002
0000
0000
0000
,
0003
0000
0000
0000
;

//---------------dance-single - Blank----------------
#NOTEDATA:;
#CHARTNAME:;
#STEPSTYPE:dance-single;
#DESCRIPTION:Blank;
#CHARTSTYLE:;
#DIFFICULTY:Easy;
#METER:3;
#RADARVALUES:0.276,0.233,0.038,0.008,0.000,251.000,5.000,1.000,0.000,0.000,0.000,0.000,0.000,0.276,0.233,0.038,0.008,0.000,251.000,5.000,1.000,0.000,0.000,0.000,0.000,0.000;
#CREDIT:;
#NOTES:
0000
0000
0000
0000
,
0000
0000
0000
0000
,
0000
0000
0000
0000
,
0000
0000
0000
0000
,
1000
0000
0001
0100
,
0010
0000
1000
0010
,
0100
0000
0001
0010
,
0100
1000
0001
0100
,
0001
0000
0010
0100
,
1000
0000
0010
0100
,
0001
0000
1000
0100
,
0001
0001
0100
0100
,
1000
0010
1000
0010
,
0100
0001
0100
0001
,
1000
0100
1000
0100
,
0010
0001
0010
0001
,
1000
1000
0010
0010
,
0100
0100
0001
0001
,
1000
1000
0100
0100
,
0001
0100
1000
1001
,
1000
0010
0001
0010
,
0100
0001
1000
0100
,
1000
0010
0001
0010
,
0100
0001
1000
1001
,
1000
0100
0001
0100
,
0010
0001
1000
0100
,
1000
0001
0100
1000
,
0100
0010
1000
1001
,
0001
0010
1000
0010
,
0001
0100
1000
0100
,
0001
0010
0100
1000
,
0001
0100
0010
1001
,
1000
0010
0001
0010
,
1000
0100
0001
0100
,
1000
0010
0100
0001
,
1000
0100
0010
1001
,
0001
0001
0010
0010
,
0100
0100
1000
1000
,
0001
0001
0100
0100
,
0010
0010
1000
1000
,
0001
0001
0100
0100
,
1000
1000
0100
0100
,
0001
0001
0010
0010
,
1000
1000
0010
0010
,
0001
0100
0001
0100
,
0010
1000
0010
1000
,
0001
0010
0001
0010
,
0100
1000
0100
1000
,
0001
0100
0010
1000
,
0001
0010
0100
1000
,
0001
0100
1000
0100
,
0001
0010
1000
0010
,
0001
0001
0001
0001
,
1000
1000
1000
1000
,
0100
0100
0100
0100
,
0010
0001
1000
0100
,
1000
1000
1000
1000
,
0001
0001
0001
0001
,
0010
0010
0010
0010
,
0100
1000
0001
0100
,
0001
0010
1000
0010
,
0100
1000
0001
0001
,
1000
0010
0001
0010
,
0100
0001
1000
1000
,
0001
0010
1000
0010
,
0100
1000
0001
0001
,
1000
0010
0001
0010
,
1000
0100
0001
0100
,
2000
0000
0000
0000
,
3000
0000
0000
0000
;

//---------------dance-single - Blank----------------
#NOTEDATA:;
#CHARTNAME:;
#STEPSTYPE:dance-single;
#DESCRIPTION:Blank;
#CHARTSTYLE:;
#DIFFICULTY:Medium;
#METER:5;
#RADARVALUES:0.398,0.363,0.270,0.015,0.000,333.000,36.000,2.000,0.000,0.000,0.000,0.000,0.000,0.398,0.363,0.270,0.015,0.000,333.000,36.000,2.000,0.000,0.000,0.000,0.000,0.000;
#CREDIT:;
#NOTES:
// measure 0
0000
0000
0000
0000
,  // measure 1
0000
0000
0000
0000
,  // measure 2
0000
0000
0000
0000
,  // measure 3
0000
0000
0000
0000
,  // measure 4
1000
0100
0000
1000
0100
0000
1000
0000
,  // measure 5
0001
0100
0000
0001
0100
0000
0001
0000
,  // measure 6
1000
0010
0000
1000
0010
0000
1000
0000
,  // measure 7
0001
0010
0100
1000
,  // measure 8
0001
0010
0000
0001
0010
0000
0001
0000
,  // measure 9
1000
0010
0000
1000
0010
0000
1000
0000
,  // measure 10
0001
0100
0000
0001
0100
0000
0001
0000
,  // measure 11
1000
0100
0010
0001
,  // measure 12
1000
0001
0000
1000
0001
0000
0101
0000
,  // measure 13
0001
1000
0000
0001
1000
0000
1100
0000
,  // measure 14
1000
0001
0000
1000
0001
0000
0011
0000
,  // measure 15
0001
0100
1000
0100
,  // measure 16
0010
1000
0000
0010
1000
0000
0101
0000
,  // measure 17
0001
0010
0000
0001
0010
0000
1100
0000
,  // measure 18
0001
0100
0000
0010
1000
0000
1001
0000
,  // measure 19
1000
0100
0010
0001
1000
0000
1001
0000
,  // measure 20
0001
0001
0001
0001
0010
0000
0100
0000
,  // measure 21
1000
1000
1000
1000
0010
0000
0100
0000
,  // measure 22
0001
0001
0001
0001
0100
0000
0010
0000
,  // measure 23
1000
0100
0010
1001
,  // measure 24
0001
0001
0001
0001
0100
0000
0010
0000
,  // measure 25
1000
1000
1000
1000
0100
0000
0010
0000
,  // measure 26
0001
0001
0001
0001
1000
0000
0100
0000
,  // measure 27
1000
0010
0100
1001
,  // measure 28
0001
0010
0001
0010
0100
0100
0100
0000
,  // measure 29
1000
0010
1000
0010
0100
0100
0100
0000
,  // measure 30
0001
0100
0001
0100
0010
0010
0010
0000
,  // measure 31
1000
0100
0010
1001
,  // measure 32
0001
0010
0100
1000
0001
0001
0001
0000
,  // measure 33
1000
0010
0100
0001
1000
1000
1000
0000
,  // measure 34
0001
0010
0100
1000
0001
0001
0001
0000
,  // measure 35
1000
0010
0100
1001
,  // measure 36
0001
0001
0010
0010
,  // measure 37
0100
0100
1000
1000
,  // measure 38
0001
0001
0100
0100
,  // measure 39
0010
0010
1000
1000
,  // measure 40
0001
0001
0010
0010
,  // measure 41
1000
1000
0010
0010
,  // measure 42
0001
0001
0100
0100
,  // measure 43
1000
1000
0100
0100
,  // measure 44
0001
0100
0001
0000
0001
0100
0001
0000
,  // measure 45
0100
1000
0100
0000
0100
1000
0100
0000
,  // measure 46
1000
0010
1000
0000
1000
0010
1000
0000
,  // measure 47
0010
0001
0010
0000
0010
0001
0010
0000
,  // measure 48
0001
0100
0001
0000
1000
0010
1000
0000
,  // measure 49
0001
0010
0001
0000
1000
0100
1000
0000
,  // measure 50
0001
1000
0100
0000
1000
0001
0100
0000
,  // measure 51
0001
0100
0010
1000
0001
1000
0001
0000
,  // measure 52
0011
0011
0001
1000
,  // measure 53
1010
1010
1000
0001
,  // measure 54
0101
0101
0001
1000
,  // measure 55
0100
1000
0010
0000
0100
0001
0010
0000
,  // measure 56
0011
0011
0001
1000
,  // measure 57
1010
1010
1000
0001
,  // measure 58
0101
0101
0001
1000
,  // measure 59
0010
0100
0001
0000
0010
0100
1000
0000
,  // measure 60
0011
0011
1010
0101
,  // measure 61
0001
0100
0010
0000
1000
0100
0010
0000
,  // measure 62
0011
0011
1100
1001
,  // measure 63
1000
0010
0100
0000
0001
0100
0010
0000
,  // measure 64
1010
1010
0101
1100
,  // measure 65
0001
0010
0100
0000
1000
0010
0100
0000
,  // measure 66
0001
0100
0010
0000
1000
0100
0010
0000
,  // measure 67
0001
0010
0100
1000
0100
0010
0001
0000
,  // measure 68
2002
0000
0000
0000
,  // measure 69
3003
0000
0000
0000
;
