#VERSION:0.81;
#TITLE:天庭;
#SUBTITLE:;
#ARTIST:あさき;
#TITLETRANSLIT:Tentei;
#SUBTITLETRANSLIT:;
#ARTISTTRANSLIT:Asaki;
#GENRE:;
#ORIGIN:;
#CREDIT:;
#BANNER:Tentei.png;
#BACKGROUND:Tentei-bg.png;
#PREVIEWVID:;
#JACKET:Tentei-jacket.png;
#CDIMAGE:;
#DISCIMAGE:;
#LYRICSPATH:;
#CDTITLE:;
#MUSIC:Tentei.mp3;
#OFFSET:-0.164;
#SAMPLESTART:71.020;
#SAMPLELENGTH:16.420;
#SELECTABLE:YES;
#BPMS:0.000=209.001;
#STOPS:;
#DELAYS:;
#WARPS:;
#TIMESIGNATURES:0.000=4=4;
#TICKCOUNTS:0.000=4;
#COMBOS:0.000=1;
#SPEEDS:0.000=1.000=0.000=0;
#SCROLLS:0.000=1.000;
#FAKES:;
#LABELS:0.000=Song Start;
#BGCHANGES:;
#KEYSOUNDS:;
#ATTACKS:
;

//---------------dance-single - ----------------
#NOTEDATA:;
#CHARTNAME:;
#STEPSTYPE:dance-single;
#DESCRIPTION:;
#CHARTSTYLE:;
#DIFFICULTY:Hard;
#METER:9;
#RADARVALUES:0.812,0.779,0.733,0.423,0.052,525.000,85.000,49.000,0.000,0.000,0.000,0.000,0.000,0.812,0.779,0.733,0.423,0.052,525.000,85.000,49.000,0.000,0.000,0.000,0.000,0.000;
#CREDIT:;
#NOTES:
0000
0000
0000
0000
,
0000
0000
0000
0000
,
0000
0000
0000
0000
,
0000
0000
0000
0000
,
1000
0100
0000
0012
0000
1000
1003
0000
,
0001
0100
1010
0000
0001
0010
0000
2100
,
0000
0001
3001
0000
1000
0010
0101
0000
,
1000
0001
0000
1200
0000
0001
0301
0000
,
0100
0010
0011
0000
0001
1000
0000
0201
,
0000
1000
1300
0000
0001
0100
0010
1000
,
0101
0000
1100
0000
0001
0011
0000
1010
,
0000
1000
0001
0100
0010
1000
1100
0000
,
0101
0001
0010
0100
1000
0010
0001
0010
,
0100
0001
1000
0100
0010
0001
1000
0010
,
0100
0010
0000
0000
0000
0000
0000
0000
,
1001
0000
1000
0100
0010
0001
0010
0100
,
1000
0010
0100
0001
0100
0010
1000
1000
,
0001
0000
1000
0010
0100
0001
0010
0100
,
1000
0001
0010
0100
1000
0010
0100
0001
,
1000
0100
0010
0001
1000
0010
1000
1000
,
0001
0001
1000
0010
0101
0000
1100
0000
,
0001
0011
0000
1010
0000
0001
1000
0010
,
0100
0001
1000
0100
0020
0000
0032
0000
,
1003
0000
0001
0100
1000
0100
0020
0000
,
0130
0000
0001
0011
0000
0110
0000
0100
,
1000
0001
1000
0100
0010
0001
1000
0010
,
0100
0001
1000
1000
0001
0001
0102
0000
,
0010
1003
1001
2100
,
0010
0000
3001
0000
1001
0000
0001
0100
,
0000
2010
0000
0100
0100
3100
0000
1100
,
0000
1000
0001
0010
0100
1000
0001
0100
,
0010
1000
0001
0001
1000
1000
0001
1000
,
1100
0000
0101
0000
1000
1010
0000
0011
,
0000
1000
0001
0100
0010
1000
0001
0010
,
0100
1000
0010
0100
0001
0010
0001
1000
,
0100
0010
0001
1000
0010
0100
0001
1000
,
0010
0100
0001
0010
0100
1000
0001
0010
,
0001
0100
0010
1000
0100
0010
0001
0001
,
1000
1000
0002
0000
0010
0000
0103
0000
,
1001
2010
0100
3010
,
1001
0000
1000
0010
0000
0102
0000
1000
,
1000
1003
0000
1001
0000
0001
1000
0010
,
0100
0001
1100
0000
0011
0000
0101
0000
,
1010
0000
1000
0001
0011
0000
1010
0000
,
0001
0101
0000
1100
0000
0001
1000
0010
,
0100
0001
1000
0100
0010
0001
0100
0010
,
1000
0100
1000
0001
0010
0100
1000
0001
,
0100
0010
1000
0001
0100
0010
1000
0100
,
0010
0001
1000
0100
1000
0010
0100
0001
,
0010
0100
1000
1000
0001
0001
2000
0000
,
0010
0001
0100
0001
,
3010
2100
3010
0102
,
0010
0100
1000
0010
,
0103
0000
2001
0000
3010
0000
1000
0010
,
0101
0000
1100
0000
0001
1010
0000
0011
,
0000
1000
0002
0000
0103
0000
1010
0000
,
0001
0101
0000
1100
0000
2001
0000
0010
,
3010
1010
0011
2100
,
0010
0000
0100
0100
0100
0000
0010
0000
,
3001
2010
3100
0012
,
0010
0000
0000
0100
0000
0000
1003
0000
0000
0001
0100
0010
,
1000
0000
0010
0000
0100
0000
0002
0000
0000
0000
0000
0000
0000
0000
0000
0003
0000
0000
2100
0000
0000
0000
0000
0000
,
0010
0000
3100
0000
1000
0002
0010
0000
,
0103
0001
1000
0100
0001
0100
2000
0000
,
0010
0000
3001
0000
1000
0002
0010
0000
,
0100
0000
1003
0001
0100
0010
2000
0000
,
0100
0000
3001
0000
1000
0100
0010
0000
,
1001
0000
0000
0000
0001
0000
0000
0100
0000
0000
0010
0000
2000
0000
0000
0000
,
0010
0000
3100
0000
1000
0002
0010
0000
,
0100
0000
1003
0001
1000
0100
0020
0000
,
0100
0000
1030
0000
0001
0200
0010
0000
,
1000
0000
0301
1000
0100
0010
0002
0000
,
0010
0000
0103
0000
0001
0100
0010
0000
,
1010
0101
0011
1200
,
0010
0301
0101
1100
,
1010
0110
0102
1003
,
2100
0000
0010
0000
3100
0000
1000
0100
,
0001
0000
0100
0000
1000
0000
0000
0010
0000
0000
0100
0000
0001
0000
0010
0000
,
0011
0000
0010
0100
1000
0002
0000
1000
,
1003
0000
0001
0100
0010
1000
0001
0100
,
0101
0000
0001
0010
0100
2000
0000
0001
,
3001
0000
1000
0010
0001
0010
1000
0000
,
0100
0001
0000
1000
0000
0010
0001
0000
,
0011
0101
0110
1020
,
0100
0000
0031
0000
0010
2000
0100
0000
,
0010
0000
3001
1000
0010
0100
0002
0000
,
0010
0013
0000
0001
0010
2100
0000
0001
,
3001
0000
1000
0010
0100
0001
2000
0000
,
0100
3100
0000
1000
0100
0012
0000
1000
,
1003
0000
0001
0100
0010
1000
0001
0000
,
0010
1000
0000
0001
0000
0100
1000
0000
,
1100
0011
0102
1003
,
2100
3001
0101
2010
,
3001
0000
0000
0010
0100
0010
0001
1000
0001
0100
0010
0100
,
0002
2000
0000
0000
0000
0000
0000
0000
,
3003
0000
0000
0000
;

//---------------dance-single - ----------------
#NOTEDATA:;
#CHARTNAME:;
#STEPSTYPE:dance-single;
#DESCRIPTION:;
#CHARTSTYLE:;
#DIFFICULTY:Easy;
#METER:5;
#RADARVALUES:0.442,0.410,0.009,0.147,0.000,341.000,1.000,17.000,0.000,0.000,0.000,0.000,0.000,0.442,0.410,0.009,0.147,0.000,341.000,1.000,17.000,0.000,0.000,0.000,0.000,0.000;
#CREDIT:;
#NOTES:
0000
0000
0000
0000
,
0000
0000
0000
0000
,
0000
0000
0000
0000
,
0000
0000
0000
0000
,
1000
0100
0010
0100
,
1000
1000
0001
0100
,
0010
0100
0001
0001
,
1000
0100
0001
0100
,
1000
1000
0001
0100
,
1000
0100
0001
1000
,
0001
0100
0010
1000
,
0010
0100
0001
0010
,
0100
1000
0010
0100
,
0001
1000
0100
0010
,
0001
0000
0000
0000
,
0000
1000
0010
0100
,
0010
1000
0100
0010
,
0100
1000
0010
0100
,
0001
0100
0010
1000
,
0100
0010
0001
0010
,
0100
1000
0010
0100
,
0010
1000
0100
0010
,
0100
1000
0001
0010
,
0001
0100
0010
1000
,
0100
0010
0010
0001
,
0001
0100
0100
0010
,
0010
1000
1000
0002
,
0000
0000
0103
0020
,
0000
0000
1030
0001
,
0010
0100
1000
0010
,
0100
0001
0010
0100
,
0100
0010
0010
0001
,
0100
0010
1000
0010
,
0100
0001
1000
0001
,
0010
0100
1000
0001
,
0100
1000
0100
0010
,
1000
0100
0001
0100
,
0010
0001
1000
0100
,
1000
0020
0000
0000
,
0130
0002
0000
0000
,
0013
0100
1000
0010
,
0100
0001
0010
0001
,
0100
0010
0010
0100
,
0100
0001
0010
0100
,
1000
0010
0100
1000
,
0100
0010
1000
0100
,
0010
0001
0010
0100
,
1000
0010
0100
0001
,
0010
0100
1000
0001
,
0010
0001
0100
0020
,
0100
0100
0100
0100
,
0130
0002
1003
0200
,
0010
0010
0010
0010
,
0310
0002
1003
0001
,
0100
0000
0010
0000
0000
1000
0000
0001
,
0000
1000
0100
0010
,
0001
0010
0100
1000
,
0010
0100
0001
2000
,
3000
0020
0030
0200
,
0300
0002
0003
2000
,
3000
0200
0300
0010
,
0001
2002
3003
1000
,
0010
1000
0010
0001
,
0010
0001
0010
1000
,
0100
1000
0100
0001
,
0100
0001
0100
1000
,
0010
0100
0010
1000
,
0100
0010
0100
1000
,
0010
0100
0001
1000
,
0100
0010
0001
1000
,
0100
0001
0100
0010
,
0001
1000
0010
0001
,
0010
0100
0001
0100
,
1000
0100
0010
1000
,
0100
0010
0001
0010
,
1000
0010
0100
1000
,
0010
0001
0010
0100
,
0001
1000
1000
0001
,
0010
1000
0010
0100
,
1000
0010
0001
0010
,
0100
0001
0100
1000
,
0100
0010
1000
0100
,
0010
0001
0010
1000
,
0010
0100
1000
0010
,
0100
0001
0010
0001
,
0100
0010
1000
0100
,
0010
0001
0010
0100
,
1000
0010
0100
0001
,
0100
0010
1000
0100
,
0010
0001
0010
0100
,
1000
0010
0001
0010
,
0100
0001
0010
0100
,
1000
0010
0100
0001
,
0001
0010
0010
0100
,
0200
0000
0000
0000
,
0300
0000
0000
0000
;

//---------------dance-single - ----------------
#NOTEDATA:;
#CHARTNAME:;
#STEPSTYPE:dance-single;
#DESCRIPTION:;
#CHARTSTYLE:;
#DIFFICULTY:Medium;
#METER:7;
#RADARVALUES:0.642,0.615,0.423,0.336,0.009,433.000,49.000,39.000,0.000,0.000,0.000,0.000,0.000,0.642,0.615,0.423,0.336,0.009,433.000,49.000,39.000,0.000,0.000,0.000,0.000,0.000;
#CREDIT:;
#NOTES:
0000
0000
0000
0000
,
0000
0000
0000
0000
,
0000
0000
0000
0000
,
0000
0000
0000
0000
,
1000
0100
0000
1000
0000
0001
0100
0000
,
0001
0000
1001
0000
1000
0010
0000
1000
,
0000
0001
0010
0000
0001
0000
1001
0000
,
1000
0010
0000
0100
0000
0001
0100
0000
,
0010
0000
1001
0000
1000
0100
0000
0010
,
0000
0001
0100
0010
0100
0010
0001
0000
,
0101
0000
0101
0000
0001
1000
0000
1000
,
0000
0100
1000
0000
0010
0000
0110
0000
,
0110
0000
0001
0100
0001
0000
1000
0100
,
1000
0000
0001
0010
0001
0000
1000
0001
,
1000
0001
0000
0000
0000
0000
0000
0000
,
1001
0000
1000
0010
1000
0000
0010
0000
,
0100
0001
0000
0100
0000
0010
2000
0000
,
3001
1000
1100
0001
,
0101
0000
1000
0001
1000
0001
0020
0000
,
0130
0011
1100
0101
,
1010
0000
0001
0100
0001
0000
0100
0000
,
0010
1000
0000
0010
0000
0100
0002
0000
,
1003
0001
0011
1000
,
1010
0000
0001
1000
0001
1000
0200
0000
,
0310
1100
0011
1010
,
0101
0000
1000
0010
0100
0000
0001
0010
,
0100
0000
1000
0001
1000
0001
2000
0000
,
0010
3100
1000
0002
,
0010
0000
0103
0000
0001
0000
1000
0010
,
0000
0100
0000
0001
0000
0100
0000
0010
,
0000
1000
0001
0000
1000
0000
1100
0000
,
1100
0000
0101
0000
0101
0000
1000
0010
,
1000
0000
0010
0000
0100
0001
0000
0100
,
0000
0010
2000
0000
3001
0000
1000
0000
,
1100
0000
0001
0000
0101
0000
1000
0001
,
1000
0001
0020
0000
0130
0000
0001
0100
,
0000
0010
0000
1000
0001
0000
1000
0100
,
1000
0000
0001
0100
0001
0000
1000
0001
,
1000
0001
2000
0000
0100
0000
3010
0000
,
1000
0002
0100
0013
,
0001
0000
1000
0010
0000
0001
0000
0010
,
0000
0100
0000
0001
0000
1000
0001
1000
,
0001
0101
1010
0011
,
1100
0000
0001
0100
0001
0000
0100
0000
,
0010
1000
0000
0010
0000
0100
0002
0000
,
1003
0001
0011
1000
,
1010
0000
0001
1000
0001
1000
0200
0000
,
0310
0000
1000
0010
0000
0100
0000
0001
,
1000
0000
0001
0010
0100
0000
1000
0010
,
0100
0000
0001
1000
0001
1000
0002
0000
,
0010
0010
0100
0100
,
1003
0002
0103
2000
,
0010
0010
0100
0100
,
3001
0000
0200
0000
0310
0000
1000
0100
,
1000
0000
0011
0000
0001
0100
0000
1010
,
0000
0001
2000
0000
3001
0000
1000
0000
,
0100
0001
0000
0100
0000
1000
0002
0000
,
0010
0100
1003
2010
,
0010
0100
0010
0001
,
3010
0002
1003
0020
,
0100
0000
0000
0130
0000
0000
1001
0000
0000
1000
0000
0010
,
0000
0100
0000
0002
0000
0000
0003
0000
0000
2000
0000
0000
,
0100
0010
0100
0001
,
3100
0000
0010
1000
0001
1000
0002
0000
,
0010
0100
0010
1000
,
0010
0000
1003
0001
0100
0010
2000
0000
,
0010
3100
1001
0002
,
0010
0103
1001
1000
,
0010
0001
0010
1000
,
0100
0000
0010
0001
1000
0010
0200
0000
,
0010
0001
0010
1000
,
0010
0000
0301
0100
0001
1000
0020
0000
,
0100
1000
0001
0130
,
0101
1010
0011
2100
,
0010
3100
2000
3020
,
0032
0023
0230
0302
,
0010
0100
1003
0001
,
1001
0000
1000
0100
0010
0001
1000
1000
,
0010
0000
0100
0000
0001
1000
0000
1000
,
0001
0000
0010
0010
0100
0000
1000
1000
,
0001
0000
0100
0000
0010
1000
0000
1000
,
0001
0000
0010
0100
0010
0000
0001
0000
,
0010
1000
0000
0010
0000
0001
1000
0000
,
0010
0100
0001
0102
,
0010
0103
1001
2100
,
0010
3100
1001
1000
,
0010
0100
0000
0001
0000
0100
0000
0010
,
0010
1000
1001
1000
,
0100
0010
0000
0001
0000
0010
0000
0100
,
0100
0000
1000
0000
1001
0000
1000
0010
,
1000
0000
0010
0000
0100
0001
0000
0100
,
0000
0010
2000
0000
3001
0000
1000
0100
,
1000
0000
0001
0100
0001
0000
1000
0010
,
1000
0000
0001
0010
1000
0010
0001
0100
,
0020
0000
0000
0000
,
0030
0000
0000
0000
;
