#TITLE:Strike Back of PSYCO;
#SUBTITLE:;
#ARTIST:Iceman;
#TITLETRANSLIT:;
#SUBTITLETRANSLIT:;
#ARTISTTRANSLIT:;
#GENRE:;
#CREDIT:;
#BANNER:Strike Back of PSYCO.png;
#BACKGROUND:Strike Back of PSYCO-bg.png;
#LYRICSPATH:;
#CDTITLE:;
#MUSIC:Strike Back of PSYCO.mp3;
#OFFSET:-0.069;
#SAMPLESTART:55.280;
#SAMPLELENGTH:17.020;
#SELECTABLE:YES;
#BPMS:0.000=95.020
,5.000=380.119
;
#STOPS:305.000=0.158,
305.500=0.158
;
#BGCHANGES:;
#KEYSOUNDS:;
#ATTACKS:;

//---------------dance-single - Blank----------------
#NOTES:
     dance-single:
     :
     Hard:
     10:
     1.000,1.000,0.511,1.000,0.000,687.000,52.000,154.000,0.000,0.000,0.000,1.000,1.000,0.511,1.000,0.000,687.000,52.000,154.000,0.000,0.000,0.000:
0000
0000
0000
0000
,
0000
1000
0100
0010
,
0001
0000
0010
0000
0100
1000
0000
0001
,
1000
0001
0100
0010
,
1000
0000
0010
0100
0000
0001
0000
1000
,
0001
1000
0100
0010
,
0001
0000
1000
0000
0010
0100
0000
0001
,
0100
0010
1000
0001
,
0100
0000
0001
0010
0100
1000
0000
0001
,
1000
0001
0010
0100
,
1000
0000
0100
0000
0010
0001
0000
1000
,
0001
1000
0010
0100
,
0001
0000
0100
0010
0000
1000
0000
0001
,
1000
0001
0010
0100
,
1000
0000
0001
0000
0100
0010
0000
1000
,
0010
0100
0001
1000
,
0010
0000
1000
0100
0010
0001
1000
0010
,
0100
0001
1000
0000
0010
0000
0001
0000
,
0010
0000
0100
0000
0001
1000
0000
0001
,
1000
0001
0010
1000
,
0010
0000
0100
1000
0000
0001
0000
0100
,
0010
1000
0100
0001
,
0100
0000
0010
0000
0001
1000
0000
0001
,
1000
0001
0100
1000
,
0100
0000
0010
1000
0001
0100
0000
0001
,
1000
0001
0100
1000
,
0100
0000
0010
0000
1000
0001
0000
1000
,
0001
1000
0100
0001
,
0100
0000
0010
0001
0000
1000
0000
0010
,
0100
0001
0010
1000
,
0010
0000
0100
0000
1000
0001
0000
1000
,
0001
1000
0010
0001
,
0010
0000
0100
0001
1000
0010
0000
1000
,
0001
1001
0002
0203
,
0320
2030
3002
0023
,
0032
2003
3100
2000
,
3002
0103
0002
0023
,
0230
0000
1300
0010
0000
0000
0010
0100
,
0000
0000
0100
0001
0000
0000
0001
1000
,
0000
0000
1100
0000
0000
0101
0000
0000
,
1001
0000
0001
0010
0100
1000
0000
0001
,
1000
0001
2000
3200
,
0320
0032
0203
0320
,
2030
3002
0023
0130
,
1000
0000
0101
0000
0000
1100
0000
0000
,
1001
0001
0010
1000
,
0010
0000
0001
0000
1000
0100
0000
0001
,
0100
1000
0010
0001
,
0010
0000
1000
0100
0000
0001
0000
0100
,
1000
1001
2000
3020
,
0230
0302
2003
3200
,
2300
3002
0013
0002
,
2003
3010
2000
3200
,
0320
0000
0031
0100
0000
0000
0100
0010
,
0000
0000
0010
1000
0000
0000
1000
0001
,
0000
0000
0011
0000
0000
1010
0000
0000
,
1001
0000
1000
0100
0010
0001
0000
1000
,
0001
1000
0002
0023
,
0230
2300
3020
0230
,
0302
2003
3200
0320
,
0032
0000
1003
0010
0100
0001
0100
0010
,
1000
0001
1000
0000
0100
0000
0001
0000
,
0100
0000
1000
0000
0001
0010
0000
1000
,
0010
0001
0100
1000
,
0100
0000
0001
0010
0000
1000
0000
0010
,
0001
1000
0010
0001
,
0010
0000
1000
0000
0100
0001
0000
0100
,
1000
0001
0100
1000
,
0100
0000
0001
0010
0100
1000
0001
0100
,
0010
1000
0002
0000
0100
0000
0103
0000
,
0001
2000
0100
3100
,
1000
0002
0010
0013
,
0001
2000
0010
3010
,
1000
0000
0001
0100
0001
0000
1000
0010
,
1000
0000
0001
0010
0001
0000
1000
0100
,
1000
0001
0100
1000
,
0100
0000
0101
1100
1001
0000
0102
0000
,
0010
0013
0001
2000
,
0010
3010
1000
0002
,
0100
0103
0001
2000
,
0100
3100
1000
0002
,
0100
0103
1000
0002
,
0010
0000
0013
0000
1000
0000
0001
0010
,
0100
1000
0100
0010
0001
1000
0001
0100
,
0010
1000
0010
0100
0001
1000
0002
0000
,
0010
0013
0200
1000
,
1300
0002
1003
0020
,
0100
0130
0001
2000
,
0001
3001
0100
0010
,
2000
3200
0302
2003
,
3020
0031
2000
3020
,
0032
2003
3100
0002
,
1003
0020
0130
0002
,
0100
0103
0020
1000
,
1030
0002
1003
0200
,
0010
0310
0001
2000
,
0001
3001
0010
0100
,
2000
3020
0032
2003
,
3200
0301
2000
3200
,
0302
0000
2003
0000
3020
0000
0031
0100
,
0010
1000
0001
0010
0001
1000
0200
0000
,
0010
0310
0002
1000
,
1003
0020
0130
0002
,
0103
2000
3100
0002
,
0013
2000
3010
0002
,
0010
0013
0200
1300
,
0001
0002
0103
0020
,
1030
0001
0100
0002
,
0013
2000
3010
0200
,
1000
1300
0002
0100
,
0103
0020
1030
0002
,
0010
0013
0100
2000
,
0010
3010
0100
0001
,
2000
3020
0032
2003
,
3200
0301
2000
3200
,
0302
0000
2003
0000
3010
0000
0001
1000
,
0100
0010
0001
0010
0100
1000
1001
0000
,
1000
0100
1100
1000
,
0001
0101
0001
1000
,
1001
1000
0010
1010
,
1000
0001
0011
0001
,
1000
1001
0001
0100
,
0110
0010
1000
1100
,
0100
0101
0100
0120
,
0001
0031
1000
0101
,
0100
0010
1100
0010
,
0100
0011
0100
1000
,
1010
0100
0001
1001
,
0100
0010
1001
0100
,
0010
0110
0001
1000
,
0110
0000
1000
0000
0001
0000
1000
0010
,
0100
0001
1000
0001
0010
0100
1000
0001
,
1000
0010
0100
0001
1000
0010
2010
0000
,
3001
0010
0012
1003
,
0010
2001
3100
2100
,
3001
0100
0102
1003
,
0100
2001
3010
0102
,
0013
0100
2100
3010
,
0100
1002
0103
0011
,
0010
0000
0100
0000
1000
0000
0001
0100
,
1000
0100
0000
0010
0100
0000
0102
0000
,
1003
0100
2100
3001
,
0100
1002
0013
0012
,
1003
0010
2010
3001
,
0010
1002
0103
2010
,
0001
3100
0001
0012
,
0100
0000
1003
0000
0001
0000
1000
0100
,
0001
0100
0010
0001
1000
0100
1000
0010
,
0001
0010
0100
0001
1000
0010
2000
0000
,
3000
0200
0302
0203
,
0300
2000
3020
0030
,
0002
0023
0030
2000
,
3200
0320
0032
2003
,
3000
0020
0032
0023
,
0030
2000
3200
0300
,
0002
0203
2300
0002
,
0000
3003
0000
0000
;

//---------------dance-single - What is a PSYCO----------------
#NOTES:
     dance-single:
     :
     Medium:
     10:
     0.979,1.000,0.530,0.736,0.000,569.000,54.000,75.000,0.000,0.000,0.000,0.979,1.000,0.530,0.736,0.000,569.000,54.000,75.000,0.000,0.000,0.000: // measure 0
0000
0000
0000
0000
,  // measure 1
0000
1000
0001
1000
,  // measure 2
0100
0020
0000
0031
,  // measure 3
0200
0000
0301
0020
,  // measure 4
0000
0130
1000
0001
,  // measure 5
0010
0001
1000
0001
,  // measure 6
0100
0020
0000
1030
,  // measure 7
0200
0000
0310
0001
,  // measure 8
0100
0000
1000
0000
0100
0001
0000
0001
,  // measure 9
0000
0100
0001
1000
,  // measure 10
0010
2000
0000
3100
,  // measure 11
0020
0000
0130
2000
,  // measure 12
0000
3010
1000
0100
,  // measure 13
0001
0100
1000
0001
,  // measure 14
0010
0002
0000
0103
,  // measure 15
0020
0000
0130
0001
,  // measure 16
0010
0000
0100
1000
0100
1000
0001
1000
,  // measure 17
0001
1000
0010
0100
,  // measure 18
0010
0000
1000
0000
0001
0010
0000
0010
,  // measure 19
0001
0100
0010
1000
,  // measure 20
0001
0000
0100
0000
0010
1000
0000
1000
,  // measure 21
0010
1000
0100
0001
,  // measure 22
0100
0000
1000
0000
0010
0100
0000
0100
,  // measure 23
0010
2000
3001
0002
,  // measure 24
1003
0000
1001
0000
1000
0100
1000
0000
,  // measure 25
0001
0100
0001
0000
0010
0000
0100
0000
,  // measure 26
0010
0000
0001
0000
1000
0010
0000
0010
,  // measure 27
1000
0100
0010
0001
,  // measure 28
1000
0000
0100
0000
0010
0001
0000
0001
,  // measure 29
0010
0001
0100
1000
,  // measure 30
0100
0000
0001
0000
0010
0100
0000
0100
,  // measure 31
0010
0002
1003
2000
,  // measure 32
3001
0000
0100
0001
0100
0000
0010
1000
,  // measure 33
0010
1000
0100
0100
,  // measure 34
0010
0010
0001
0001
,  // measure 35
0100
0200
0310
1000
,  // measure 36
0200
0000
1300
0100
,  // measure 37
0010
0000
0001
0010
0000
0000
0100
1000
,  // measure 38
0000
0000
1000
0010
0000
0000
0100
0001
,  // measure 39
0000
0000
0101
0000
0000
1001
0000
0000
,  // measure 40
1100
0000
0110
0000
0010
0100
0000
1000
,  // measure 41
0100
0010
0001
0001
,  // measure 42
0100
0100
0010
0010
,  // measure 43
1000
2000
0010
0000
,  // measure 44
3100
0000
1100
0000
0000
1001
0000
0000
,  // measure 45
0101
0100
0001
1000
,  // measure 46
0100
0020
0000
0031
,  // measure 47
0200
0000
0301
0020
,  // measure 48
0000
0130
1000
0010
,  // measure 49
0001
0010
0100
0100
,  // measure 50
0001
0001
0010
0010
,  // measure 51
0100
0200
1300
0100
,  // measure 52
0020
0000
0031
0100
,  // measure 53
0010
0000
1000
0010
0000
0000
0100
0001
,  // measure 54
0000
0000
0001
0010
0000
0000
0100
1000
,  // measure 55
0000
0000
1010
0000
0000
1001
0000
0000
,  // measure 56
0011
0000
1001
0000
1000
0001
1000
0001
,  // measure 57
1000
0100
1000
1000
,  // measure 58
0010
0020
1030
0010
,  // measure 59
0100
0001
0001
1000
,  // measure 60
1000
0000
0011
0000
0000
1001
0000
0000
,  // measure 61
1010
0110
0001
0010
,  // measure 62
0100
2000
0000
3010
,  // measure 63
0002
0000
0013
2000
,  // measure 64
0000
3100
0010
0001
,  // measure 65
0001
1000
0010
0001
,  // measure 66
0010
2000
0000
3001
,  // measure 67
0200
0300
0010
1000
,  // measure 68
0001
0000
1000
0100
1000
0100
0010
0001
,  // measure 69
0010
0001
2000
0000
0000
0000
0000
0000
,  // measure 70
3001
0202
0000
0303
,  // measure 71
0100
0220
0000
0330
,  // measure 72
0010
2020
0000
0000
,  // measure 73
3030
1000
0100
0010
,  // measure 74
0001
0100
0010
1000
,  // measure 75
0100
0001
0100
1000
,  // measure 76
0010
0000
0210
0310
0010
0000
2002
0000
,  // measure 77
0000
3003
1000
2200
,  // measure 78
0000
3300
0100
0220
,  // measure 79
0000
0330
0010
0022
,  // measure 80
0000
0033
0001
0202
,  // measure 81
0000
0303
0001
2100
,  // measure 82
0000
0000
0100
0000
3000
0000
1000
0100
,  // measure 83
1000
0100
0010
0100
0010
0100
0010
0001
,  // measure 84
0010
0001
0100
0001
0100
0001
1000
0000
,  // measure 85
0100
0001
0100
1000
,  // measure 86
0010
0001
0010
1000
,  // measure 87
0100
0002
0003
1000
,  // measure 88
0010
0002
0003
1001
,  // measure 89
0001
0100
0100
0100
,  // measure 90
0001
0000
1000
0100
,  // measure 91
0100
0000
0100
0000
1000
0000
1000
0010
,  // measure 92
0000
0000
0100
0001
0000
0000
0001
0000
,  // measure 93
0100
1000
0100
0001
,  // measure 94
0010
1000
0010
0001
,  // measure 95
0100
2000
3000
0001
,  // measure 96
0010
2000
3000
1001
,  // measure 97
1000
0010
0010
0010
,  // measure 98
1000
0000
0001
0010
,  // measure 99
0010
0000
0010
0000
0001
0000
0010
0001
,  // measure 100
0000
0000
1000
0100
0000
0000
1000
0000
,  // measure 101
0010
0100
0001
0010
,  // measure 102
1000
0010
0100
1000
,  // measure 103
0010
0100
0001
1000
,  // measure 104
0010
0001
0010
2000
,  // measure 105
0000
3100
0002
0000
,  // measure 106
0013
1000
0000
1002
,  // measure 107
0000
0103
2000
0000
,  // measure 108
3010
0001
0000
0001
,  // measure 109
0100
1000
0001
0010
,  // measure 110
1000
0100
0010
0001
,  // measure 111
0100
1000
0000
0001
,  // measure 112
0010
1000
0000
0001
,  // measure 113
1000
0010
0010
0010
,  // measure 114
0100
0000
0001
0010
,  // measure 115
0010
0000
0010
0000
0100
0000
1000
0100
,  // measure 116
1000
0100
0010
0001
0010
0000
1100
0000
,  // measure 117
0000
0001
0101
0000
,  // measure 118
1000
1100
0000
0001
,  // measure 119
0011
0000
1000
1010
,  // measure 120
0000
0100
0101
0000
,  // measure 121
0100
1100
0000
0100
,  // measure 122
0110
0000
0010
1010
,  // measure 123
0000
0101
0000
2002
,  // measure 124
0000
3003
0000
2100
,  // measure 125
0000
3001
0102
0000
,  // measure 126
1003
1200
0000
0310
,  // measure 127
0012
0000
1003
1020
,  // measure 128
0000
0130
0102
0000
,  // measure 129
1003
2001
0000
3010
,  // measure 130
2010
0000
3001
1001
,  // measure 131
0000
0000
0110
0000
0000
0000
1000
0100
,  // measure 132
0010
0001
1000
0100
0010
0001
1000
0000
,  // measure 133
0001
0100
0001
1000
,  // measure 134
0010
0100
0000
0100
0010
0000
1000
0000
,  // measure 135
0100
0010
0001
0100
,  // measure 136
0010
0100
0000
0001
1000
0000
0001
0000
,  // measure 137
1000
0100
1000
0001
,  // measure 138
0100
0010
0000
0010
1000
0000
0100
0000
,  // measure 139
0001
0100
1000
0010
,  // measure 140
0100
0001
0000
1000
0010
0000
1020
0000
,  // measure 141
0000
0100
0000
0031
,  // measure 142
0010
1000
0000
0001
0010
0000
0021
0000
,  // measure 143
0000
0000
1000
0000
0030
0000
0010
0001
,  // measure 144
1000
0100
0000
0001
0100
0000
0110
0000
,  // measure 145
0100
0010
0000
1001
,  // measure 146
0010
0100
0000
1000
,  // measure 147
0100
0000
0010
0000
0001
0000
0100
0001
,  // measure 148
0100
0001
1000
0010
1000
0010
2000
0000
,  // measure 149
0000
3100
0010
0002
,  // measure 150
0000
0103
2000
0000
,  // measure 151
3001
0020
0000
1030
,  // measure 152
0100
0001
0100
2000
,  // measure 153
0000
3010
0100
0002
,  // measure 154
0000
0013
2000
0000
,  // measure 155
3100
1000
0010
0002
,  // measure 156
0000
0003
0000
0000
;

//---------------dance-single - Blank----------------
#NOTES:
     dance-single:
     :
     Easy:
     7:
     0.548,0.767,0.275,0.157,0.000,347.000,28.000,16.000,0.000,0.000,0.000,0.548,0.767,0.275,0.157,0.000,347.000,28.000,16.000,0.000,0.000,0.000:
0000
0000
0000
0000
,
0000
1000
0000
0100
,
0000
0010
0000
0001
,
0010
0000
0001
0010
,
0000
0100
0000
1000
,
0000
0001
0000
0100
,
0000
0010
0000
1000
,
0010
0000
1000
0010
,
0000
0100
0000
1001
,
0000
0001
0000
0010
,
0000
0100
0000
1000
,
0100
0000
1000
0100
,
0000
0010
0000
0001
,
0000
1000
0000
0010
,
0000
0100
0000
0001
,
0100
0000
0001
0100
,
0000
0010
0000
1001
,
0000
1000
0000
0100
,
0000
0010
0000
0001
,
1000
0000
0001
1000
,
0000
0010
0100
0010
,
0000
1000
0000
0100
,
0000
0010
0000
0001
,
1000
0000
0010
0100
,
0010
0100
0000
1001
,
0000
0001
0000
0010
,
0000
0100
0000
1000
,
0001
0000
1000
0001
,
0000
0100
0010
0100
,
0000
0001
0000
0010
,
0000
0100
0000
1000
,
0001
0000
0100
0010
,
0100
0010
0000
1001
,
0000
1000
0000
0100
,
0000
0001
0000
0100
,
0000
1000
0000
0010
,
0000
0001
0000
0010
,
0000
1000
0000
1100
,
0000
0001
0000
0101
,
0000
1000
0000
0010
,
0100
0010
0000
1001
,
0000
0001
0000
0010
,
0000
1000
0000
0010
,
0000
0001
0100
0001
,
0000
1000
0100
1000
,
0000
0001
0000
0010
,
0000
0100
0000
1000
,
0010
0000
1000
0010
,
0000
0100
0001
1000
,
0000
0001
0000
0010
,
0000
1000
0000
0010
,
0000
0001
0000
0100
,
0000
1000
0000
0100
,
0000
0001
0000
0011
,
0000
1000
0000
1010
,
0000
0001
0000
0100
,
0010
0100
0000
1001
,
0000
1000
0000
0100
,
0000
0001
0000
0100
,
0000
1000
0010
1000
,
0000
0001
0010
0001
,
0000
1000
0000
0100
,
0000
0010
0000
0001
,
0100
0000
0001
0100
,
0000
0010
1000
0001
,
0000
1000
0000
0100
,
0000
0010
0000
0001
,
1000
0000
0010
0100
,
0010
0100
0000
1001
,
0000
2000
0000
3000
,
0000
0200
0000
0300
,
0000
0020
0000
0030
,
0000
0002
0000
0003
,
0000
1000
0000
0010
,
0000
0001
0000
0010
,
0000
1000
0000
0001
,
0000
0000
2002
0003
3000
0000
0002
0000
,
0000
0003
0000
0200
,
0000
0300
0000
0020
,
0000
0030
0000
2000
,
0000
3000
0000
0200
,
0000
0300
0000
0020
,
0000
0030
0000
0001
,
0100
0001
0100
0010
,
1000
0010
1000
0001
,
0000
0010
0000
1000
,
0000
0010
0000
0001
,
0000
0100
0000
1000
,
0000
0100
0000
0010
,
0000
1000
0001
1000
,
0001
0000
0000
0100
,
0010
0100
0010
1000
,
0000
0001
0000
1000
,
0000
0100
0000
0001
,
0000
0100
0000
1000
,
0000
0010
0000
0001
,
0000
0010
0000
0100
,
0000
0001
1000
0001
,
1000
0000
0000
0010
,
0100
0010
0100
0001
,
0000
1000
0000
0001
,
0000
0100
0000
1000
,
0000
0010
0000
1000
,
0000
0100
0000
0001
,
0000
0010
0000
0001
,
0000
0100
0000
1000
,
0000
0010
0000
0001
,
0000
0100
0000
1000
,
0000
0010
0000
1000
,
0000
0100
0000
0010
,
0000
0001
0000
1000
,
0000
0010
0000
0100
,
0000
0001
0000
1000
,
0000
0001
0010
0001
,
0010
0000
0010
0100
,
1000
0100
1000
0001
,
0000
1000
0000
0001
,
0000
0000
0101
0000
,
0000
1000
0000
0000
,
1100
0000
0000
0001
,
0000
0000
0011
0000
,
0000
1000
0000
0000
,
1010
0000
0000
1001
,
0000
0110
0000
2002
,
0000
3003
0000
1100
,
0000
0000
0011
0000
,
0000
0101
0000
0000
,
1010
0000
0000
1100
,
0000
0000
0011
0000
,
0000
0101
0000
0000
,
1010
0000
0000
1000
,
0100
0010
0001
0010
,
0100
1000
0001
1000
,
0000
0010
0000
0100
,
0001
0100
0000
0001
,
0000
0010
0000
0100
,
1000
0100
0000
1000
,
0000
0010
0000
0100
,
0001
1000
0000
0001
,
0000
0010
0000
0100
,
1000
0001
0000
1000
,
0000
0010
0000
0100
,
0001
0010
0000
0100
,
0000
1000
0000
0010
,
1000
0100
0000
1000
,
0010
1000
0000
0001
,
0010
0001
0000
1000
,
0010
0100
0001
0100
,
0010
1000
0001
1000
,
0000
0100
0000
0010
,
0000
0001
0010
0000
,
0001
0010
0000
0100
,
0000
1000
0000
0001
,
0000
0100
0000
0010
,
0000
1000
0100
0000
,
0010
0000
0100
2002
,
0000
3003
0000
0000
;
