#TITLE:Spring of Life;
#SUBTITLE:;
#ARTIST:Perfume;
#TITLETRANSLIT:;
#SUBTITLETRANSLIT:;
#ARTISTTRANSLIT:;
#GENRE:;
#CREDIT:;
#BANNER:Spring of Life.png;
#BACKGROUND:Spring of Life-bg.png;
#JACKET:Spring of Life-jacket.png;
#LYRICSPATH:;
#CDTITLE:;
#MUSIC:Spring of Life.mp3;
#OFFSET:-0.148;
#SAMPLESTART:46.880;
#SAMPLELENGTH:16.420;
#SELECTABLE:YES;
#BPMS:0.000=132.000
;
#STOPS:
;
#BGCHANGES:;
#KEYSOUNDS:;
#ATTACKS:;

//---------------dance-single - ----------------
#NOTES:
     dance-single:
     :
     Hard:
     7:
     0.467,0.425,0.343,0.177,0.088,264.000,33.000,17.000,0.000,0.000,0.000,0.467,0.425,0.343,0.177,0.088,264.000,33.000,17.000,0.000,0.000,0.000:
0000
0000
0000
0000
,
0000
0000
0000
0000
0000
0000
1000
0001
,
0102
0100
0000
0010
,
0000
1000
0000
0203
,
0000
0010
0000
1000
,
0000
0000
0000
0000
0001
0000
0000
0000
0300
0000
0000
0100
0010
0000
0000
0000
,
2000
0001
0010
3100
,
0002
1000
0010
0103
,
0001
0000
0100
0000
0010
0000
0000
1000
0000
0000
0010
0000
0100
0000
0001
0000
,
1000
0000
0100
0000
0010
0001
0000
0010
0000
0100
1000
0000
0001
0000
1000
0000
,
1001
0000
0001
0100
0010
0000
0100
0002
,
0010
0000
0100
0000
1003
0000
0001
0100
,
0010
0000
0100
0010
1000
0000
0010
1000
,
0100
0000
1000
0100
0010
0000
0100
0010
,
0001
0000
1100
0000
0101
0000
1000
0020
,
0100
0000
1000
0000
0031
0000
0010
1000
,
0100
0000
1000
0100
0010
0000
0100
0010
,
0002
0000
0100
0000
1003
0000
0001
0100
,
0010
0000
1010
0000
0101
0000
1000
0100
,
0010
0000
0101
0000
1010
0000
0001
0100
,
1000
0000
0100
1000
0010
0000
1000
0010
,
0001
0000
0010
0001
0100
0000
0001
0100
,
0010
0000
1010
0000
0101
0000
1000
0200
,
0000
0320
0000
0031
0000
1000
0010
0100
,
0101
0000
0001
1001
0000
1100
0000
0120
,
0000
0001
0001
1000
1030
0000
0010
0001
,
0101
0000
1100
0000
1001
0000
1000
0100
,
0001
0100
1000
0001
1000
0000
0001
0010
,
0001
0000
0000
0000
1000
0000
0010
0000
1000
0000
0000
0001
0000
0000
0000
0000
,
1100
0000
0000
0000
0101
0000
0000
0000
1000
0000
0000
0001
0000
0000
0000
0000
,
1010
0000
0011
0000
1001
0000
1000
0010
,
0001
0010
1000
0001
1000
0000
0001
0100
,
0001
0000
1000
0100
2000
0000
3001
0000
,
1000
0010
0001
0100
1000
0001
1000
0000
,
1010
0000
0011
0000
1001
0000
0001
0010
,
1000
0010
0001
1000
0001
0000
1000
0100
,
1000
0000
0000
0000
0001
0000
0100
0000
0001
0000
0000
1000
0000
0000
0000
0000
,
0011
0000
0000
0000
1010
0000
0000
0000
0001
0000
0000
1000
0000
0000
0000
0000
,
0101
0000
1100
0000
1001
0000
0001
0100
,
1000
0100
0001
1000
0001
0000
1000
0010
,
1000
0000
0001
0010
0002
0000
1003
0000
,
0001
0100
1000
0010
0001
1000
0100
0001
,
0200
0010
0001
1300
,
0020
0000
0100
0000
1030
0010
1000
0001
,
0200
0000
0010
0010
0000
1000
1300
0000
,
1100
0000
0000
0000
0101
0000
0000
0000
0001
0000
0000
1000
0000
0000
0000
0000
,
0001
0000
0010
0000
0000
0100
0000
1000
0000
0000
0100
0000
0010
0000
0001
0000
,
1000
0000
0010
0000
0000
0100
0000
0001
0000
0000
0100
0000
0010
0000
1000
0000
,
0001
0000
0100
0000
0000
1000
0000
0100
0000
0000
0010
0000
1000
0000
0001
0000
,
1000
0000
0100
0010
0100
0000
0100
0000
1000
0000
0010
0000
0100
0000
0001
0000
,
2002
0000
0000
0000
,
3003
0000
0000
0000
;

//---------------dance-single - ----------------
#NOTES:
     dance-single:
     :
     Easy:
     3:
     0.250,0.239,0.021,0.104,0.000,156.000,2.000,10.000,0.000,0.000,0.000,0.250,0.239,0.021,0.104,0.000,156.000,2.000,10.000,0.000,0.000,0.000:
0000
0000
0000
0000
,
0000
0000
0000
0000
,
2000
3000
0002
0003
,
0200
0300
0020
0030
,
2000
3000
0002
0003
,
0020
0030
0200
0300
,
1000
1000
1000
1000
,
0001
0001
0001
0001
,
0100
0100
0100
0100
,
0010
0010
0010
0010
,
1000
0000
1000
0000
,
0100
0000
0100
0000
,
0010
0000
0010
0000
,
0001
0000
0001
0000
,
1000
0000
1000
0000
,
0010
0000
0010
0000
,
0100
0000
0100
0000
,
0001
0000
0001
0000
,
1000
0000
0100
0000
,
0010
0000
0001
0000
,
0010
0000
0100
0000
,
1000
0000
0001
0000
,
1000
0000
0010
0000
,
0100
0000
0001
0000
,
0010
0010
0100
0100
,
1000
0001
1000
1001
,
1000
0010
1000
0010
,
0100
0001
0100
0001
,
1000
0100
1000
0100
,
1000
0001
1000
0000
,
0001
0010
0001
0010
,
0100
1000
0100
1000
,
0001
0100
0001
0100
,
0010
1000
0001
0001
,
1000
0100
0010
0001
,
0010
0100
1000
0001
,
1000
0010
0100
0001
,
0100
0010
1000
1000
,
0001
0100
0010
1000
,
0010
0100
0001
1000
,
0001
0010
0100
1000
,
0001
0001
1000
1000
,
0001
0010
0001
0001
,
1000
0010
1000
1000
,
0001
0100
0001
0001
,
1000
0100
1000
1000
,
0001
0010
0100
0100
,
1000
0010
0100
0100
,
0001
0100
0010
0010
,
1000
0100
0010
0001
,
2002
0000
0000
0000
,
3003
0000
0000
0000
;

//---------------dance-single - ----------------
#NOTES:
     dance-single:
     :
     Medium:
     5:
     0.401,0.372,0.323,0.198,0.000,220.000,31.000,19.000,0.000,0.000,0.000,0.401,0.372,0.323,0.198,0.000,220.000,31.000,19.000,0.000,0.000,0.000:
0000
0000
0000
0000
,
0000
0000
0000
0000
,
2000
0100
0000
0100
,
0000
0010
0000
0010
,
0000
0001
0000
0001
,
0000
0100
3000
1001
,
0002
0010
0010
0013
,
2000
0010
0010
3010
,
0002
0100
0100
0103
,
2000
0100
3100
1001
,
1000
0000
0010
0000
0100
0000
0001
0100
,
0001
0010
0100
1000
,
0010
0000
0100
0000
0001
0000
1000
0010
,
1000
0001
0010
0100
,
1000
0000
0010
0000
0100
0000
0001
0100
,
0001
0010
0100
1000
,
0001
0000
0100
0000
0010
0000
1000
0001
,
1000
0000
0100
0000
0010
0000
0001
1000
,
0001
0000
0100
0000
0010
0000
1000
0100
,
0010
0000
0100
0000
1000
0000
0010
0100
,
0001
0000
0100
0000
0010
0000
1000
0001
,
0010
0000
0001
0000
0100
0000
0010
1000
,
0001
0000
1000
0000
0100
0000
0010
0001
,
1000
0000
0001
0000
0100
0000
0010
1000
,
0001
0000
0000
1100
0000
0101
0000
1001
,
0000
0010
0010
0010
0010
0000
1001
0000
,
1100
0101
1001
0001
,
1000
0010
1000
0000
0020
0000
0130
0000
,
0002
0013
2000
3010
,
0011
0000
1010
0000
0001
1000
0001
0000
,
1010
0011
1001
0100
,
1000
0010
0100
0000
0002
0000
1003
0000
,
0002
0103
2000
3100
,
0001
1000
0001
1000
0010
0010
0010
0000
,
0011
1010
1001
1000
,
0001
0100
0001
0000
0200
0000
0310
0000
,
2000
3100
0002
0103
,
1100
0000
0101
0000
1000
0001
1000
0000
,
0101
1100
1001
0010
,
0001
0100
0010
0000
2000
0000
3001
0000
,
2000
3010
0002
0013
,
1000
0001
1000
0001
0100
0100
0010
0010
,
1000
0000
1100
0000
1000
0010
0100
0000
,
0001
0000
0011
0000
0001
0010
0100
0000
,
1000
0000
1001
0000
1000
0010
0100
0000
,
0101
0000
1100
0000
0001
1000
0001
0000
,
1000
0000
0110
0000
0001
0100
0010
0000
,
1000
0000
0110
0000
1000
0100
0010
0000
,
0001
0000
0110
0000
1000
0100
0001
0000
,
0100
0010
0001
0000
0100
0010
1000
0000
,
2002
0000
0000
0000
,
3003
0000
0000
0000
;
