#TITLE:SUMMERTIME;
#SUBTITLE:;
#ARTIST:HINOIチーム;
#TITLETRANSLIT:;
#SUBTITLETRANSLIT:;
#ARTISTTRANSLIT:HINOI Team;
#GENRE:;
#CREDIT:BNM;
#BANNER:SUMMERTIME.png;
#BACKGROUND:SUMMERTIME-bg.png;
#JACKET:SUMMERTIME-jacket.png;
#LYRICSPATH:;
#CDTITLE:;
#MUSIC:SUMMERTIME.mp3;
#OFFSET:-0.408;
#SAMPLESTART:61.860;
#SAMPLELENGTH:18.020;
#SELECTABLE:YES;
#BPMS:0.000=156.000
;
#STOPS:
;
#BGCHANGES:;
#KEYSOUNDS:;
#ATTACKS:;

//---------------dance-single - ----------------
#NOTES:
     dance-single:
     :
     Hard:
     8:
     0.581,0.613,0.454,0.515,0.000,307.000,45.000,51.000,0.000,0.000,0.000,0.581,0.613,0.454,0.515,0.000,307.000,45.000,51.000,0.000,0.000,0.000:
0000
0000
0000
0000
,
0000
0000
0000
0000
,
0000
0000
0000
0000
,
0000
0000
0000
0000
,
2000
3200
0320
0032
,
2003
3020
0230
0302
,
2000
0000
0000
0000
,
0000
0000
0000
3003
,
1001
0000
1000
0100
0001
0000
1000
0100
,
0001
0000
1000
0100
0001
0000
1000
0100
,
0001
0000
1000
0100
0001
0000
1000
0100
,
0001
0102
1003
2100
,
3001
0000
1000
0010
0001
0000
1000
0010
,
0001
0000
1000
0010
0001
0000
1000
0010
,
0001
0000
1000
0010
0001
0000
1000
0010
,
0002
0000
1003
1000
0010
0010
0100
0100
,
0101
0000
1100
0000
0001
0010
0100
2000
,
0000
0010
0000
0100
0000
0001
3001
0100
,
0010
0000
1010
0000
0101
0000
0001
0020
,
0000
0230
0000
2300
0000
0001
3001
0000
,
1010
0000
0011
0000
1000
0100
0010
0002
,
0000
0100
0000
0010
0000
1000
1003
0010
,
0100
0000
0101
0000
1000
0100
0001
0100
,
1000
0010
0001
0010
2000
0000
3001
0000
,
1001
0000
1000
0100
0000
0010
0000
0001
,
0000
0010
0100
2000
0000
0001
3001
0000
,
1001
0000
0001
0100
0000
0010
0000
1000
,
0000
0010
0000
0200
0000
0001
0301
0000
,
1001
0000
1000
0100
0000
0001
0000
0100
,
0000
0010
0001
2000
0000
0001
3001
0000
,
1000
0010
0000
0001
0000
0010
0000
0100
,
0000
0001
1000
0002
0000
0100
0103
0000
,
0001
0000
0010
1000
0000
0001
0000
0100
,
1000
0000
1001
0000
2000
0000
0010
0010
,
0000
0100
3100
0000
1000
0001
0000
0200
,
0000
0010
0310
0000
1000
1000
0001
0000
,
1000
0000
0100
0001
0000
1000
0000
0010
,
0001
0000
1001
0000
0002
0000
0100
0100
,
0000
0010
0013
0000
0001
0000
1000
0010
,
1000
0200
0000
0320
0000
0032
0000
0003
,
1001
0001
0101
0000
0001
0100
0010
2000
,
0000
0100
3100
0010
0002
0000
1003
0000
,
1001
1000
1100
0000
1000
0000
0001
2000
,
0000
3010
0000
0002
0000
0010
0013
0000
,
1010
1000
1001
0000
1000
0010
0100
0002
,
0000
0010
0013
0100
2000
0000
3001
0000
,
0011
0001
1001
0000
2000
0000
3010
2000
,
0000
3200
0000
0302
0000
0100
0103
0000
,
1001
0010
0110
0000
1000
0010
0100
0002
,
0000
0103
0010
1000
0200
0000
0310
0000
,
0011
0100
1010
0000
1000
0000
0001
2000
,
0000
3100
0000
0002
0000
0013
1000
0000
,
0101
0010
1100
0000
0001
0100
0010
2000
,
0000
3010
0100
0001
0020
0000
0130
0000
,
1100
0010
0101
0000
1010
0000
1100
1100
,
0000
0011
0000
1010
0000
1001
1001
0000
,
1010
0000
0011
0000
1000
0100
0010
0002
,
0000
0100
0000
0010
0000
1000
1003
0010
,
0100
0000
0101
0000
1010
0000
1000
0200
,
0000
0320
0000
0032
0000
1000
1003
0000
,
0101
0000
1100
0000
0001
0010
0100
2000
,
0000
0010
0000
0100
0000
0001
3001
0100
,
0010
0000
1010
0000
0001
0010
1000
0010
,
0001
0000
0100
0000
1000
0000
0200
0000
0002
0000
0000
0000
0300
0000
0000
0003
;

//---------------dance-single - ----------------
#NOTES:
     dance-single:
     :
     Easy:
     4:
     0.313,0.258,0.020,0.050,0.000,210.000,2.000,5.000,0.000,0.000,0.000,0.313,0.258,0.020,0.050,0.000,210.000,2.000,5.000,0.000,0.000,0.000:
0000
0000
0000
0000
,
0000
0000
0000
0000
,
0000
0000
0000
0000
,
0000
0000
0000
0000
,
1000
0100
0010
0001
,
0010
0100
1000
0001
,
2002
0000
0000
0000
,
0000
0000
0000
3003
,
1000
0001
0000
0100
,
0000
0010
0000
1000
,
0000
0100
0000
0010
,
0000
0001
0100
0010
,
0000
1000
0000
0100
,
0000
0010
0000
0001
,
0000
0100
0000
0010
,
2002
0000
0000
3003
,
1000
0100
0010
0001
,
0010
1000
0010
0100
,
1000
0010
0001
0010
,
0100
0001
1000
1000
,
0001
0010
1000
0010
,
0100
1000
0001
0100
,
0010
0001
0010
1000
,
0010
0100
0001
0000
,
1000
0100
0010
0001
,
0010
0100
1000
0001
,
1000
0010
0100
0001
,
0100
0010
1000
0000
,
0001
0010
0100
1000
,
0100
0010
0001
1000
,
0001
0100
0010
1000
,
0010
0100
0001
0001
,
1000
0100
1000
0100
,
0001
0100
0001
0100
,
1000
0010
1000
0010
,
0001
0010
0001
0010
,
1000
0010
0001
0010
,
1000
0100
0000
0001
,
0100
1000
0010
0100
,
0001
0001
1000
1000
,
0001
0010
1000
0010
,
0100
1000
0001
0000
,
1000
0010
0001
0010
,
0100
0100
0010
0010
,
1000
0100
0001
0100
,
0010
0001
1000
0000
,
0001
0100
1000
0100
,
0010
0010
0100
0100
,
0001
0010
1000
0010
,
0100
1000
0001
0000
,
1000
0010
0001
0010
,
0100
0100
0001
0001
,
1000
0100
0001
0100
,
1000
0010
0100
0000
,
0001
0010
0100
1000
,
0001
0001
1000
1000
,
1000
0100
0010
0001
,
0010
1000
0010
0100
,
1000
0010
0001
0010
,
0100
0001
1000
1000
,
0001
0010
1000
0010
,
0100
1000
0001
0100
,
0010
0001
0010
1000
,
0010
0100
0002
0000
,
0003
0000
0000
0000
;

//---------------dance-single - ----------------
#NOTES:
     dance-single:
     :
     Medium:
     6:
     0.538,0.515,0.262,0.686,0.000,279.000,26.000,68.000,0.000,0.000,0.000,0.538,0.515,0.262,0.686,0.000,279.000,26.000,68.000,0.000,0.000,0.000:
0000
0000
0000
0000
,
0000
0000
0000
0000
,
0000
0000
0000
0000
,
0000
0000
0000
0000
,
2000
3200
0320
0032
,
2003
3020
0230
0302
,
2000
0000
0000
0000
,
0000
0000
0000
3003
,
1001
0000
0001
0100
0001
0000
0001
0010
,
0001
0000
0001
1000
0001
0000
0001
0100
,
0001
0000
0001
1000
0001
0000
0001
0010
,
0001
0101
1000
1100
,
0001
0000
1000
0010
1000
0000
1000
0001
,
1000
0000
1000
0100
1000
0000
1000
0001
,
1000
0000
1000
0010
1000
0000
1000
0001
,
2000
3020
0230
0301
,
1001
0000
1001
0000
0001
0010
0001
0010
,
0000
0100
0000
1000
0000
0001
1000
0000
,
0002
0203
0320
2030
,
3020
0230
0302
1003
,
1001
0000
1001
0000
1000
0100
1000
0100
,
0000
0010
0000
0001
0000
1000
0001
0000
,
2000
3020
0230
0302
,
1003
0100
0010
0001
2000
0000
3001
0000
,
1000
0010
0001
0010
,
0100
0010
0100
0000
0001
0000
0001
0000
,
1000
0100
0001
0100
,
0010
0001
2000
3001
,
1001
0100
1000
0100
,
0010
0100
0010
0000
1000
0000
1000
0000
,
0001
0010
1000
0010
,
0100
1000
0002
1003
,
0002
0203
0320
2030
,
3002
0023
0230
2300
,
3002
0023
2030
3020
,
0031
1000
0001
1000
0001
1000
0001
0000
,
2000
3020
0230
0302
,
2003
3200
0320
0032
,
2003
3200
0302
0203
,
1300
0001
0000
0200
0000
0020
0000
0330
,
0010
1000
0100
0000
0010
0000
0001
0000
,
1000
0100
1000
0100
0020
0000
0031
0000
,
1000
0010
0100
0000
0001
0000
1000
0000
,
0101
0101
1100
1100
,
0001
0010
0100
0000
1000
0000
0010
0000
,
0100
0001
0100
0001
0020
0000
0130
0000
,
1000
0001
1000
0000
0010
0000
0100
0000
,
0101
1010
0011
1100
,
0100
0001
0010
0000
0100
0000
1000
0000
,
0001
0010
0001
0010
0200
0000
1300
0000
,
0001
0100
0010
0000
1000
0000
0001
0000
,
1010
1010
0011
0011
,
1000
0100
0010
0000
0001
0000
0100
0000
,
0010
1000
0010
1000
0200
0000
0310
0000
,
0001
1000
0001
0000
0100
0000
0010
1000
,
0000
1010
0000
0101
0000
0001
1000
0000
,
1001
0000
1001
0000
0001
0010
0001
0010
,
0000
0100
0000
1000
0000
0001
1000
0000
,
0002
0203
0320
2030
,
3020
0230
0302
1003
,
1001
0000
1001
0000
1000
0100
1000
0100
,
0000
0010
0000
0001
0000
1000
0001
0000
,
2000
3020
0230
0302
,
1003
0100
0010
0001
2000
0000
3001
0000
;
