#TITLE:少年リップルズ;
#SUBTITLE:;
#ARTIST:常盤ゆう;
#TITLETRANSLIT:SHOUNEN RIPPLES;
#SUBTITLETRANSLIT:;
#ARTISTTRANSLIT:Yuu Tokiwa;
#GENRE:;
#CREDIT:;
#BANNER:SHOUNEN RIPPLES.png;
#BACKGROUND:SHOUNEN RIPPLES-bg.png;
#JACKET:SHOUNEN RIPPLES-jacket.png;
#LYRICSPATH:;
#CDTITLE:;
#MUSIC:SHOUNEN RIPPLES.mp3;
#OFFSET:-0.235;
#SAMPLESTART:66.480;
#SAMPLELENGTH:17.820;
#SELECTABLE:YES;
#BPMS:0.000=210.000
;
#STOPS:
;
#BGCHANGES:;
#KEYSOUNDS:;
#ATTACKS:;

//---------------dance-single - ----------------
#NOTES:
     dance-single:
     :
     Hard:
     8:
     0.760,0.705,0.742,0.440,0.000,479.000,86.000,51.000,0.000,0.000,0.000,0.760,0.705,0.742,0.440,0.000,479.000,86.000,51.000,0.000,0.000,0.000:
0000
0000
0000
0000
,
0000
0000
0000
0000
,
0000
0000
0000
0000
,
0000
0000
0000
0000
,
1000
0100
0010
0001
2000
0000
3001
0100
,
0010
1000
0002
0000
0013
0010
0100
0000
,
1000
0010
0100
0001
2000
0000
3001
0010
,
0100
1000
0002
0000
0103
0100
0010
0000
,
1000
1000
0000
0010
0010
0000
0100
0100
,
0000
0001
0001
0000
1000
1000
0001
0000
,
1000
1000
0000
0100
0100
0000
0010
0010
,
0001
0100
0010
1000
0001
0001
1000
1000
,
0001
0101
1001
0011
,
1001
0000
0001
0100
0000
0100
0010
0000
,
1000
0000
0011
0000
1010
0000
0001
0100
,
0001
0000
1000
0100
2000
0000
3001
0000
,
1000
1010
1001
1100
,
1001
0000
1000
0010
0000
0010
0100
0000
,
0001
1100
0102
1003
,
0010
0100
0100
0000
0001
0010
0100
1000
,
0001
0000
1000
0000
0001
0100
0000
0010
,
1000
0001
1100
0101
,
2000
0000
0010
0000
3100
1000
0010
0100
,
0002
1003
0011
1010
,
0002
0000
0010
0000
0103
0001
0010
0100
,
2000
3001
1010
0101
,
1002
0000
0100
0000
0013
0001
0100
1010
,
0000
0011
0000
1001
0001
0100
1000
0100
,
0001
0000
0011
0000
1000
0010
0000
0010
,
0200
0301
1100
0110
,
0012
0000
1003
0000
0001
0100
1000
0100
,
0020
0130
1010
0110
,
0102
0000
1003
0000
0001
0010
1000
0010
,
0200
0310
0011
1100
,
1002
0000
0100
0000
0013
0001
0100
0010
,
1000
1100
0011
0101
,
2010
0000
0100
0100
0000
0001
3001
0000
,
1000
0100
0001
0100
0010
0010
0001
0000
,
0102
0000
0010
0010
0000
1000
1003
0000
,
0001
0100
1000
0100
0010
0010
1000
0000
,
2100
0000
0010
0010
0000
0001
3001
0000
,
1000
0010
0001
0010
0100
0100
0001
0000
,
1000
0100
0001
0100
0000
1000
0010
0001
,
0020
0130
0101
1100
,
1002
0000
0103
0000
0001
0010
0000
1000
,
0010
0000
0001
0100
0010
1000
0000
0001
,
2000
0000
3001
0000
1000
0100
0000
0001
,
0200
0310
0011
1010
,
1002
0000
0103
0000
0001
0010
0000
1000
,
0010
0000
0110
0000
1000
0100
0000
0001
,
0200
0000
0310
0000
1001
0000
0001
0100
,
0000
1000
0100
0000
0110
0000
1001
0000
,
0001
0001
0000
0010
0010
0000
0100
0100
,
0000
1000
1000
0000
1010
0000
0010
0100
,
0002
0000
2003
0000
0010
3010
0000
1010
,
0000
0110
0000
0102
0000
1000
1003
0000
,
0002
0010
0000
0100
0000
1000
1000
1003
,
0000
0001
0100
0010
1000
1000
0001
0001
,
0101
0000
1100
0000
0001
1000
0001
0000
,
1000
0010
0000
0001
0011
0000
1010
0000
,
1001
0000
1000
0100
0001
0100
0010
0001
,
1000
0100
0000
1000
1010
0000
0011
0000
,
1001
0000
0001
0100
1000
0100
0001
0000
,
1000
0100
0001
0100
2000
0000
3001
0000
,
0012
0000
0100
0000
1003
0001
0100
0010
,
2000
3001
1100
0101
,
1000
0000
0010
0001
0000
1000
0000
0100
,
0002
0000
1003
0000
0001
0010
0100
1000
,
0001
0000
0100
1000
0000
0001
0000
0010
,
2000
3001
1100
0101
,
1001
0000
1000
0010
0000
0001
0010
0000
,
1000
0100
0000
0001
0100
0000
1000
0000
,
0002
0000
0010
0000
0103
0001
0010
0100
,
2000
0000
3010
0000
0100
0100
0001
0000
,
1001
0000
1000
0200
0000
0301
0000
0101
,
0000
1100
0000
1000
0002
0000
1003
0000
,
0001
0010
1000
0010
0000
0100
1000
0010
,
0001
0010
0000
0100
0001
0001
1000
0000
,
1001
0000
0001
0010
1000
0010
0001
0000
,
1000
0100
0001
0100
2000
0000
3001
0000
,
2002
0000
3003
0000
0000
0110
0110
0220
,
0000
0000
0330
0000
0000
0001
1000
0000
,
2100
0000
0010
0000
0001
0001
3001
0000
,
0102
0000
0010
0000
1000
1000
1003
0000
,
1010
0101
0011
1100
,
0001
0100
1000
0100
0010
0010
0100
0000
,
0012
0000
0100
0000
1003
0001
0100
0010
,
2000
0000
0010
0000
3001
1000
0010
0100
,
0002
0000
0100
0000
1003
0001
0100
1010
,
0000
0011
0000
2100
0000
0001
3001
0000
,
1000
0100
0000
0001
0100
0000
0010
0001
,
0000
1000
0100
0000
1010
0000
0101
0000
,
1000
0010
0000
0001
0010
0000
0100
0001
,
0000
1000
0100
0000
0010
0010
0001
0000
,
2000
0000
0000
0000
,
0000
0000
0000
0000
,
3000
0000
0000
0000
;

//---------------dance-single - Blank----------------
#NOTES:
     dance-single:
     :
     Easy:
     5:
     0.386,0.332,0.000,0.026,0.000,310.000,0.000,3.000,0.000,0.000,0.000,0.386,0.332,0.000,0.026,0.000,310.000,0.000,3.000,0.000,0.000,0.000:
0000
0000
0000
0000
,
0000
0000
0000
0000
,
0000
0000
0000
0000
,
0000
0000
0000
0000
,
1000
0000
0001
0000
,
1000
0010
0100
0001
,
1000
0000
0001
0000
,
1000
0100
0010
0001
,
1000
1000
0010
0010
,
0001
0001
0010
0100
,
0001
0001
0100
0100
,
0010
1000
0001
0100
,
0001
0000
0010
0000
,
0100
0000
1000
0000
,
0001
0000
0100
0000
,
0010
1000
0001
1000
,
0100
0000
0010
0000
,
0001
0000
1000
0000
,
0100
0000
1000
0000
,
0010
0100
0001
1000
,
0001
0000
0010
0000
,
0100
0000
1000
0000
,
0001
0000
0100
0000
,
0010
0000
1000
0000
,
0001
0000
0100
0000
,
1000
0000
0100
0000
,
0001
0000
1000
0000
,
0001
0010
0100
1000
,
0001
0000
0010
0000
,
0001
1000
0100
1000
,
0001
0000
1000
0000
,
0010
0100
0001
1000
,
0001
0000
0010
0000
,
0100
1000
0001
1000
,
0010
0000
0100
0000
,
0001
0001
1000
1000
,
0001
0010
0001
0010
,
0100
1000
0100
1000
,
0001
0100
0001
0100
,
0010
1000
0010
1000
,
0001
0010
0001
0010
,
0100
1000
0100
1000
,
0001
0100
0010
1000
,
0001
0000
0100
0100
,
0001
0010
0100
1000
,
0001
0000
1000
0000
,
0001
0100
0010
1000
,
0001
0000
1000
0000
,
0001
0010
1000
0010
,
0001
0100
1000
0100
,
0001
0000
1000
0000
,
0001
0010
0100
1000
,
0001
0001
0100
0100
,
0010
0010
1000
0001
,
1000
1000
0100
0100
,
0010
0010
0001
1000
,
0001
0100
1000
0100
,
0010
0010
0100
0100
,
0001
0010
0100
1000
,
0001
0100
0010
0010
,
0100
0001
1000
0100
,
0010
0001
0100
0100
,
0001
0010
0100
1000
,
0001
0100
0010
1000
,
0001
0000
0010
0100
,
1000
0000
0001
0001
,
1000
0010
0001
0010
,
0200
0000
0301
0001
,
1000
0100
0001
0100
,
0020
0000
0031
0001
,
1000
0010
0001
0010
,
1000
0100
0001
0100
,
1000
1000
1000
0010
,
0100
0100
0100
0001
,
1000
0100
0010
0001
,
1000
0010
0100
0100
,
0010
1000
0001
0010
,
0100
1000
0010
0010
,
1000
0100
0010
0001
,
1000
0010
0100
0001
,
1000
0000
0001
0010
,
0100
0000
1000
1000
,
0001
0100
1000
0100
,
0010
0100
0001
1000
,
0001
0010
1000
0010
,
0100
0010
0001
1000
,
0001
0001
0001
0100
,
0010
0010
0010
1000
,
0100
0100
0100
1000
,
0001
0010
1000
0010
,
0001
0001
1000
1000
,
0100
0100
1000
0010
,
0100
0100
0001
0001
,
1000
1000
0010
0100
,
0002
0000
0000
0000
,
0000
0000
0000
0000
,
0003
0000
0000
0000
;

//---------------dance-single - Blank----------------
#NOTES:
     dance-single:
     :
     Medium:
     7:
     0.607,0.663,0.406,0.294,0.000,411.000,47.000,34.000,0.000,0.000,0.000,0.607,0.663,0.406,0.294,0.000,411.000,47.000,34.000,0.000,0.000,0.000: // measure 0
0000
0000
0000
0000
,  // measure 1
0000
0000
0000
0000
,  // measure 2
0000
0000
0000
0000
,  // measure 3
0000
0000
0000
0000
,  // measure 4
2000
0100
3100
0002
,  // measure 5
0100
0000
0103
0000
1000
0001
1000
0000
,  // measure 6
0002
0010
0013
2000
,  // measure 7
0010
0000
3010
0000
0001
1000
0001
0000
,  // measure 8
1000
0100
0000
1000
0100
0000
0001
0100
,  // measure 9
0000
0001
0100
0000
2000
0000
3001
0000
,  // measure 10
1000
0010
0000
1000
0010
0000
0001
0000
,  // measure 11
0010
1000
0010
1000
0001
0100
0001
0100
,  // measure 12
0001
0010
1000
0010
,  // measure 13
0001
0100
1000
0100
,  // measure 14
0010
0100
0001
0010
,  // measure 15
0100
0000
1000
0001
0200
0000
0301
0000
,  // measure 16
1000
0100
0001
0100
,  // measure 17
1000
0010
0001
0010
,  // measure 18
0100
0010
1000
0100
,  // measure 19
0010
0001
0001
0000
1000
0001
1000
0100
,  // measure 20
0010
0001
0100
0001
,  // measure 21
0010
1000
0010
0100
,  // measure 22
1000
0010
0001
0010
,  // measure 23
0100
0001
1000
0100
,  // measure 24
1000
0010
0001
0010
,  // measure 25
0100
0001
0010
1000
,  // measure 26
0010
0100
1000
0010
,  // measure 27
0100
0000
0001
0000
1000
0100
0010
0001
,  // measure 28
1000
1010
1000
1010
,  // measure 29
0001
0011
0001
0011
,  // measure 30
1000
1100
1000
1100
,  // measure 31
0001
0101
0001
0101
,  // measure 32
0010
1001
0010
1001
,  // measure 33
0100
1001
0100
1001
,  // measure 34
1000
0010
0100
0000
0001
0100
0010
0000
,  // measure 35
1100
1100
0101
0101
,  // measure 36
2000
0010
0100
3001
,  // measure 37
1000
0010
0100
0000
0001
0001
0001
0000
,  // measure 38
2000
0100
0010
3001
,  // measure 39
1000
0100
0010
0000
0001
0001
0001
0000
,  // measure 40
0200
0010
1000
0301
,  // measure 41
0100
0010
1000
0000
0001
0001
0001
0000
,  // measure 42
1000
0100
0010
0001
0000
1000
0001
2000
,  // measure 43
0000
3100
1100
0101
,  // measure 44
1000
0010
0001
0010
,  // measure 45
0100
0000
0001
0000
1000
0001
1000
0001
,  // measure 46
1000
0010
0001
0010
,  // measure 47
0100
0000
0001
0000
1000
0001
1000
0000
,  // measure 48
0101
0001
0010
1000
,  // measure 49
0010
0000
0100
0000
1000
0001
1000
0000
,  // measure 50
0020
0100
0001
1030
,  // measure 51
0200
0001
1000
0310
,  // measure 52
1000
0100
0000
1000
0100
0000
0010
0001
,  // measure 53
0000
0010
0001
0000
2000
0000
3100
0000
,  // measure 54
1000
0010
0000
1000
0010
0000
0100
0001
,  // measure 55
0000
0100
0001
0000
2000
0000
3001
0000
,  // measure 56
1000
0100
0000
0001
0000
0100
0000
1000
,  // measure 57
0000
0001
0100
0000
0010
0000
1001
0000
,  // measure 58
0101
1100
0001
1000
,  // measure 59
0001
0010
0000
0100
2000
0000
3001
0000
,  // measure 60
1010
0011
1000
0001
,  // measure 61
1000
0010
0000
0100
0002
0000
1003
0000
,  // measure 62
0001
0000
1000
0100
0000
1000
0100
0000
,  // measure 63
0001
0100
0000
0001
0100
0000
1000
0000
,  // measure 64
0002
0010
0013
0001
,  // measure 65
2000
0010
3010
1000
,  // measure 66
0001
0000
0010
1000
0000
0010
0000
0001
,  // measure 67
2000
3100
0002
0103
,  // measure 68
1000
0000
0010
0001
0000
0010
0000
1000
,  // measure 69
0002
0013
2000
3010
,  // measure 70
0001
0000
0100
0010
0000
0100
0010
0000
,  // measure 71
1000
0001
0000
1000
0001
0000
0100
0000
,  // measure 72
0020
0100
0130
0001
,  // measure 73
2000
0000
3001
0000
0100
0010
0100
0000
,  // measure 74
0001
0000
0010
1000
0000
0010
0000
0100
,  // measure 75
0000
1000
0000
0001
1000
0000
1001
0000
,  // measure 76
0001
0000
0100
1000
0000
0100
0001
0000
,  // measure 77
0010
0100
0000
1000
0001
0000
1001
0000
,  // measure 78
0001
0000
1000
0010
0000
0001
0010
0000
,  // measure 79
1000
0100
0000
0001
0100
0000
1000
0000
,  // measure 80
0002
0000
0003
0000
0000
0100
0100
0200
,  // measure 81
0000
0000
0300
0000
0000
0001
1000
0000
,  // measure 82
0011
0011
0012
0103
,  // measure 83
1010
1010
2010
3100
,  // measure 84
0101
0101
0102
0013
,  // measure 85
1100
1100
2100
3010
,  // measure 86
0102
0010
1003
0001
,  // measure 87
2100
0010
3001
1000
,  // measure 88
0102
0010
1003
0001
,  // measure 89
1010
1010
0011
1001
,  // measure 90
0001
0100
0000
0010
1000
0000
0001
0010
,  // measure 91
0000
0100
1000
0000
0001
0000
1001
0000
,  // measure 92
1000
0010
0000
0100
0001
0000
1000
0100
,  // measure 93
0000
0010
0001
0000
1000
0000
1001
0000
,  // measure 94
0020
0000
0000
0000
,  // measure 95
0000
0000
0000
0000
,  // measure 96
0030
0000
0000
0000
;
