#TITLE:恋愛レボリューション21;
#SUBTITLE:;
#ARTIST:モーニング娘;
#TITLETRANSLIT:Renai Revolution 21;
#SUBTITLETRANSLIT:;
#ARTISTTRANSLIT:Morning Musume;
#GENRE:;
#CREDIT:;
#BANNER:Renai Revolution 21.png;
#BACKGROUND:Renai Revolution 21-bg.png;
#JACKET:Renai Revolution 21-jacket.png;
#LYRICSPATH:;
#CDTITLE:;
#MUSIC:Renai Revolution 21.mp3;
#OFFSET:-1.017;
#SAMPLESTART:76.760;
#SAMPLELENGTH:14.640;
#SELECTABLE:YES;
#BPMS:0.000=133.000
;
#STOPS:
;
#BGCHANGES:;
#KEYSOUNDS:;
#ATTACKS:;

//---------------dance-single - ----------------
#NOTES:
     dance-single:
     :
     Hard:
     6:
     0.495,0.431,0.219,0.265,0.059,326.000,24.000,29.000,0.000,0.000,0.000,0.495,0.431,0.219,0.265,0.059,326.000,24.000,29.000,0.000,0.000,0.000:
0000
0000
0000
0000
,
0000
0000
0000
0000
,
0000
0000
0000
0000
,
1000
0000
0000
0010
0000
0000
0100
0000
0001
0000
0000
0000
1001
0000
0000
0000
,
0001
1000
0100
1000
0000
0001
0100
0001
,
0000
0000
1000
0000
0010
0000
1000
0000
0001
0000
0000
0010
0000
0000
0100
0000
,
1000
0001
0100
0001
0000
1000
0100
1000
,
0000
0000
0001
0000
0010
0000
0001
0000
1000
0000
0000
0010
0000
0000
0100
0000
,
0001
1000
0100
1000
0000
0001
0010
0001
,
0000
0000
1000
0000
0010
0000
1000
0000
0001
0000
0000
0010
0000
0000
0100
0000
,
1000
0001
0100
0001
0000
1000
0010
1000
,
0001
0000
0000
0001
0000
0000
0010
0000
0100
0000
0000
0100
0000
0000
1000
0000
,
2002
0000
0000
0000
0000
0000
3003
0002
,
0000
0103
0010
1000
0010
0100
0001
0001
,
0000
1000
0100
0010
0001
0010
0100
1000
,
0001
0000
1100
0000
0102
0000
1003
0020
,
0000
1030
0100
0010
0001
1000
1000
0200
,
0000
0310
0001
1000
0010
0100
0001
0001
,
0000
0010
0100
1000
0001
0100
0010
1000
,
0001
0000
1010
0000
0012
0000
1000
0203
,
0000
1300
0010
0100
0001
1000
1001
0000
,
0001
0010
0100
1000
0002
0000
0103
0010
,
1000
1010
0001
0011
,
1000
0100
0010
0001
2000
0000
3010
0100
,
0001
1010
0001
0011
,
0001
0100
0010
1000
0002
0000
0013
0100
,
1000
1100
0001
0101
,
1000
0010
0100
0001
1000
0100
0010
0001
,
2000
3020
0230
0302
,
1003
0100
0010
0000
0001
0001
0001
0000
,
1000
0010
0100
0001
1000
1000
1000
0000
,
0001
0010
0100
0000
1000
1000
1000
0000
,
0001
0100
0010
1000
0001
0001
0001
0000
,
1000
0100
0001
0000
0100
0100
0100
0000
,
0010
0001
1000
0100
1000
1000
1000
0000
,
0001
0010
1000
0000
0010
0010
0010
0000
,
0001
0100
0010
1000
0001
0001
0001
0000
,
2010
0100
0010
3100
,
0102
0000
0000
0000
0013
0000
0000
0000
0001
0000
0000
0100
0000
0000
0010
0000
,
1000
2000
0010
0000
0001
0000
3100
1000
,
0001
0000
0000
0001
0000
0000
0100
0000
0010
0000
0000
0010
0000
0000
1000
0000
,
2002
0000
0000
0000
3003
0100
0010
0000
,
1000
0100
0010
0001
2000
0000
3001
0000
,
1000
0010
0100
0001
2000
0000
3001
0000
,
1000
0100
0001
0100
0020
0000
0130
0000
,
0011
1010
1002
0103
,
0001
0010
0100
1000
0002
0000
1003
0000
,
0001
0100
0010
1000
0002
0000
1003
0000
,
0001
0100
1000
0100
0020
0000
0130
0000
,
0101
1100
0110
1001
,
0001
1000
0100
0010
0000
0001
0010
0100
,
0000
0000
1000
0000
0010
0000
0100
0000
0001
0000
0000
1000
0000
0000
0100
0000
,
1000
0001
0100
0010
0000
1000
0010
0100
,
0000
0000
0001
0000
0010
0000
0100
0000
1000
0000
0000
0010
0000
0000
1000
0000
,
0001
1000
0010
0100
0000
0001
0100
0010
,
0000
0000
1000
0000
0100
0000
0010
0000
0001
0000
0000
1000
0000
0000
0010
0000
,
1000
0010
0100
0001
0000
0100
0010
1000
,
0001
0000
0000
0010
0000
0000
0100
0000
1000
0000
0000
0000
2002
0000
0000
0000
,
0000
0000
0000
0000
,
3003
0000
0000
0000
;

//---------------dance-single - Blank----------------
#NOTES:
     dance-single:
     :
     Easy:
     3:
     0.266,0.323,0.064,0.174,0.000,178.000,7.000,19.000,0.000,0.000,0.000,0.266,0.323,0.064,0.174,0.000,178.000,7.000,19.000,0.000,0.000,0.000: // measure 0
0000
0000
0000
0000
,  // measure 1
0000
0000
0000
0000
,  // measure 2
0000
0000
0000
0000
,  // measure 3
0000
0000
0000
0000
,  // measure 4
1000
0000
0001
0000
,  // measure 5
1000
0100
0010
0001
,  // measure 6
1000
0000
0001
0000
,  // measure 7
1000
0010
0100
0001
,  // measure 8
1000
0000
0100
0000
,  // measure 9
0001
0100
1000
0001
,  // measure 10
1000
0000
0001
0000
,  // measure 11
1000
0010
0001
0010
,  // measure 12
2002
0000
0000
3003
,  // measure 13
1000
0010
0100
0000
,  // measure 14
0001
0100
0010
1000
,  // measure 15
0001
0001
0001
0000
,  // measure 16
1000
1000
1000
0000
,  // measure 17
0001
0010
0100
0000
,  // measure 18
1000
0100
0010
0001
,  // measure 19
1000
1000
1000
0000
,  // measure 20
0001
0001
0001
0000
,  // measure 21
1000
0010
0100
0001
,  // measure 22
1000
1000
0001
0001
,  // measure 23
1000
0100
0010
0001
,  // measure 24
1000
1000
0001
0001
,  // measure 25
1000
0100
0001
0100
,  // measure 26
1000
1000
0001
0001
,  // measure 27
1000
0010
0001
0010
,  // measure 28
1000
1000
0001
0001
,  // measure 29
0010
0010
0001
1000
,  // measure 30
0010
0010
1000
0001
,  // measure 31
0100
0100
0001
1000
,  // measure 32
0100
0100
1000
0001
,  // measure 33
1000
1000
0010
0001
,  // measure 34
0010
0010
0100
0001
,  // measure 35
1000
1000
0100
0001
,  // measure 36
0100
0100
0010
0001
,  // measure 37
2000
3000
0020
0030
,  // measure 38
0200
0300
0001
1000
,  // measure 39
0002
0003
0020
0030
,  // measure 40
0100
1000
0010
0100
,  // measure 41
2002
0000
3003
0110
,  // measure 42
1000
0010
0200
0300
,  // measure 43
0001
0100
0020
0030
,  // measure 44
1000
0100
0010
0001
,  // measure 45
1000
1000
2000
3000
,  // measure 46
0001
0100
0020
0030
,  // measure 47
2000
3010
0200
0300
,  // measure 48
0001
0010
0100
1000
,  // measure 49
1001
1001
2002
3003
,  // measure 50
1000
0000
0001
0000
,  // measure 51
1000
0100
0010
0001
,  // measure 52
1000
0000
0001
0000
,  // measure 53
1000
0010
0100
0001
,  // measure 54
1000
0000
0100
0000
,  // measure 55
0001
0100
1000
0001
,  // measure 56
1000
0000
0001
0000
,  // measure 57
1000
0010
0100
2002
,  // measure 58
0000
0000
0000
0000
,  // measure 59
3003
0000
0000
0000
;

//---------------dance-single - Blank----------------
#NOTES:
     dance-single:
     :
     Medium:
     5:
     0.393,0.431,0.274,0.228,0.005,246.000,30.000,25.000,0.000,0.000,0.000,0.393,0.431,0.274,0.228,0.005,246.000,30.000,25.000,0.000,0.000,0.000: // measure 0
0000
0000
0000
0000
,  // measure 1
0000
0000
0000
0000
,  // measure 2
0000
0000
0000
0000
,  // measure 3
0000
0000
0000
0000
,  // measure 4
1000
0100
0001
0100
,  // measure 5
1000
0000
0010
0000
0100
0000
0001
1000
,  // measure 6
0001
0010
1000
0010
,  // measure 7
0001
0000
0100
0000
0010
0000
1000
0001
,  // measure 8
1000
0100
0001
0100
,  // measure 9
1000
0000
0010
0000
0100
0000
0001
1000
,  // measure 10
0001
0010
1000
0010
,  // measure 11
0011
1100
0101
1010
,  // measure 12
2002
0000
0000
3003
,  // measure 13
1000
0000
0010
0000
0100
0001
0100
0000
,  // measure 14
0010
0000
1000
0000
0001
0010
0001
0000
,  // measure 15
0100
0010
1001
0000
,  // measure 16
0010
0100
1001
0000
,  // measure 17
0001
0000
0100
0000
0010
1000
0001
0000
,  // measure 18
1000
0000
0100
0000
0010
0001
1000
0000
,  // measure 19
0010
0100
0101
0000
,  // measure 20
0010
0100
1000
1001
,  // measure 21
1000
0010
0100
0000
0001
0000
1000
0000
,  // measure 22
0002
0013
2000
3010
,  // measure 23
0001
0100
0010
0000
1000
0000
0001
0000
,  // measure 24
2000
3100
0002
0103
,  // measure 25
1000
0010
0001
0000
0010
0000
0100
0000
,  // measure 26
0002
0103
2000
3100
,  // measure 27
0001
0100
0010
1000
0010
0100
0001
1000
,  // measure 28
0002
0023
0230
2300
,  // measure 29
3001
0100
0001
0000
1000
0100
1000
0000
,  // measure 30
0001
0010
0001
0000
1000
0010
1000
0000
,  // measure 31
0001
0010
0001
0000
1000
0010
1000
0000
,  // measure 32
0001
0100
0001
0000
1000
0100
1000
0000
,  // measure 33
1000
0010
0100
0000
0001
0100
0010
0000
,  // measure 34
1000
0100
0010
0000
0001
0010
0100
0000
,  // measure 35
1000
0001
0010
0000
0001
1000
0010
0000
,  // measure 36
1000
0001
0100
0000
0001
1000
0100
0000
,  // measure 37
2000
0010
0100
3001
,  // measure 38
0002
0010
0100
1003
,  // measure 39
2000
0100
0010
3001
,  // measure 40
1010
0101
0011
1100
,  // measure 41
2002
0000
3003
0110
,  // measure 42
1000
0010
0100
0000
0002
0000
1003
0000
,  // measure 43
0001
0010
0100
0000
2000
0000
3001
0000
,  // measure 44
1010
1010
0011
0011
,  // measure 45
1001
0110
1002
0103
,  // measure 46
0001
0100
0010
0000
2000
0000
3001
0000
,  // measure 47
1000
0100
0010
0000
0002
0000
1003
0000
,  // measure 48
0101
0101
1100
1100
,  // measure 49
1001
0110
2001
3010
,  // measure 50
1000
0100
0001
0100
,  // measure 51
1000
0000
0010
0000
0100
0000
0001
1000
,  // measure 52
0001
0010
1000
0010
,  // measure 53
0001
0000
0100
0000
0010
0000
1000
0001
,  // measure 54
1000
0100
0001
0100
,  // measure 55
1000
0000
0010
0000
0100
0000
0001
1000
,  // measure 56
0001
0010
1000
0010
,  // measure 57
0001
0000
0000
0010
0000
0000
0100
0000
1000
0000
0000
0000
2002
0000
0000
0000
,  // measure 58
0000
0000
0000
0000
,  // measure 59
3003
0000
0000
0000
;
