#VERSION:0.81;
#TITLE:Red Rocket Rising;
#SUBTITLE:;
#ARTIST:BeForU;
#TITLETRANSLIT:;
#SUBTITLETRANSLIT:;
#ARTISTTRANSLIT:;
#GENRE:;
#ORIGIN:;
#CREDIT:;
#BANNER:Red Rocket Rising.png;
#BACKGROUND:Red Rocket Rising-bg.png;
#PREVIEWVID:;
#JACKET:Red Rocket Rising-jacket.png;
#CDIMAGE:;
#DISCIMAGE:;
#LYRICSPATH:;
#CDTITLE:;
#MUSIC:Red Rocket Rising.mp3;
#OFFSET:0.294;
#SAMPLESTART:34.500;
#SAMPLELENGTH:12.000;
#SELECTABLE:YES;
#BPMS:0.000=155.000,
174.000=77.500,
192.000=155.000;
#STOPS:;
#DELAYS:;
#WARPS:;
#TIMESIGNATURES:0.000=4=4;
#TICKCOUNTS:0.000=4;
#COMBOS:0.000=1;
#SPEEDS:0.000=1.000=0.000=0;
#SCROLLS:0.000=1.000;
#FAKES:;
#LABELS:0.000=Song Start;
#BGCHANGES:;
#KEYSOUNDS:;
#ATTACKS:
;

//---------------dance-single - ----------------
#NOTEDATA:;
#CHARTNAME:;
#STEPSTYPE:dance-single;
#DESCRIPTION:;
#CHARTSTYLE:;
#DIFFICULTY:Easy;
#METER:4;
#RADARVALUES:0.308,0.293,0.134,0.008,0.000,241.000,16.000,1.000,0.000,0.000,0.000,0.000,0.000,0.308,0.293,0.134,0.008,0.000,241.000,16.000,1.000,0.000,0.000,0.000,0.000,0.000;
#CREDIT:;
#NOTES:
0000
0000
0000
0000
,
0000
0000
0000
0000
,
0000
0000
0000
0000
,
0000
0000
0000
0000
,
0000
0000
0000
0000
,
1000
0100
0010
0001
,
0010
0100
1000
0000
,
0001
0100
0010
1000
,
0010
0100
0001
0000
,
1000
0010
0100
0001
,
0010
0100
1000
0000
,
0001
0001
1000
1000
,
0010
0100
1001
0000
,
0001
0010
1000
0010
,
0001
1000
0001
0000
,
1000
0100
0001
0100
,
1000
0001
1000
0000
,
0001
0100
0010
1000
,
0010
0001
0010
0000
,
1000
0100
0001
0100
,
0010
0010
0001
0001
,
0100
0100
0010
0010
,
1000
1000
0001
1001
,
0001
0100
1000
0100
,
0001
1000
0001
0000
,
1000
0100
0001
0100
,
1000
0001
1000
0000
,
0010
0010
0101
0000
,
0001
0010
0100
1000
,
0001
0100
1000
0100
,
0001
1000
0010
1001
,
1000
0010
0001
0010
,
1000
0001
1000
0000
,
0001
0010
1000
0010
,
0001
1000
0001
0000
,
0100
0100
1010
0000
,
1000
0100
0010
0001
,
1000
0010
0001
0010
,
1000
1000
0001
0001
,
1001
0001
0100
0001
,
1000
0001
1000
0001
,
1000
1000
0100
0100
,
0010
0010
0001
0001
,
2000
0000
3001
0100
,
0001
0010
0001
0100
,
0001
1001
1000
0100
,
1000
0010
1000
0001
,
1000
0000
0100
0000
0010
0010
0001
0001
,
1000
1000
0001
1001
,
0001
0001
0010
0010
,
0100
0100
1000
1000
,
0010
0010
0100
0100
,
0001
1000
1001
0000
,
0010
0010
0101
0000
,
0001
0010
0100
1000
,
0001
0100
1000
0100
,
0001
1000
0010
1001
,
1000
0010
0001
0010
,
1000
0001
1000
0000
,
0001
0010
1000
0010
,
0001
1000
0001
0000
,
0100
0100
1010
0000
,
1000
0100
0010
0001
,
1000
0010
0001
0010
,
1000
1000
0001
0001
,
1001
0000
1000
0010
,
0100
0000
0001
0010
,
0100
0000
1000
0100
,
0010
0010
0100
0100
,
1100
0001
0101
1000
,
1001
0000
0000
0000
;

//---------------dance-single - ----------------
#NOTEDATA:;
#CHARTNAME:;
#STEPSTYPE:dance-single;
#DESCRIPTION:;
#CHARTSTYLE:;
#DIFFICULTY:Medium;
#METER:6;
#RADARVALUES:0.502,0.439,0.268,0.259,0.042,357.000,32.000,31.000,0.000,0.000,0.000,0.000,0.000,0.502,0.439,0.268,0.259,0.042,357.000,32.000,31.000,0.000,0.000,0.000,0.000,0.000;
#CREDIT:;
#NOTES:
0000
0000
0000
0000
,
0000
0000
0000
0000
,
0000
0000
0000
0000
,
0000
0000
0000
0000
,
0000
0000
0000
0000
,
1000
0001
1000
0000
0010
0000
0100
0000
,
0001
0000
0010
0100
0010
0000
0011
0000
,
1000
0001
1000
0000
0100
0000
0010
0000
,
0001
0000
0100
0010
0100
0000
0101
0000
,
0001
0100
1000
0000
0100
0000
0001
0000
,
1000
0000
0001
0010
1000
0000
0010
0000
,
0101
0101
1100
1100
,
0001
0000
0100
0010
0100
0000
1001
0000
,
2000
0001
0010
0100
,
3001
0000
1000
0010
0100
0000
1001
0000
,
0002
1000
0010
0100
,
1003
0000
0001
0100
0010
0000
1001
0000
,
1000
0000
0010
0001
0010
0000
1010
0000
,
0001
0000
0100
1000
0100
0000
0101
0000
,
1000
0000
0010
0000
0100
0001
0010
0100
,
1000
1100
0001
0101
,
1000
0010
0100
0001
1000
0000
0001
0000
,
0100
0010
0110
0000
0010
1000
0100
0010
,
0001
0000
0001
0100
0010
0000
0010
1000
,
0001
0000
0001
0010
0100
0000
1100
0000
,
1000
0000
1000
0010
0100
0000
0100
0001
,
0010
0000
0010
0100
1000
0000
1100
0000
,
0102
1003
2100
3001
,
1000
0000
1000
0010
0001
0000
0001
0010
,
0100
0000
0100
0001
0010
0000
0010
1000
,
0010
0001
0100
0010
1000
0100
0010
0001
,
1000
0000
1000
0010
0100
0000
0100
0001
,
1000
0000
1000
0100
0010
0000
0011
0000
,
0001
0000
0001
0100
0010
0000
0010
1000
,
0100
0000
0100
0010
0001
0000
0011
0000
,
2010
3001
0012
1003
,
0001
0000
0001
0100
1000
0000
1000
0100
,
0010
0000
1001
0000
1000
0000
0010
0100
,
0002
0023
0230
2300
,
3001
1000
0001
1000
0001
1000
0001
0000
,
0100
0010
0100
0010
0100
0010
0100
0000
,
0002
0023
0230
2300
,
3002
0000
0203
0000
0320
0000
1030
0002
,
0000
0000
0000
0003
1000
0010
0100
0001
,
0100
0010
1000
0000
0001
0010
0100
1000
,
0100
0010
0001
0000
1000
0100
0001
0100
,
1000
0001
1000
0000
0001
0100
1000
0100
,
0001
0010
1000
0010
0002
0000
0000
0003
,
1000
0001
1001
0000
1000
0010
0100
0001
,
1000
0000
0000
1000
0000
0000
1000
0000
0100
0000
0000
0100
0000
0000
0100
0000
,
0010
0000
0000
0010
0000
0000
0010
0000
0001
0000
0000
0001
0000
0000
0001
0000
,
1000
0000
0000
1000
0000
0000
1000
0000
0010
0000
0000
0010
0000
0000
0010
0000
,
0100
0000
0000
0001
0000
0000
0010
0000
0200
0000
0000
0000
1300
0000
0000
0000
,
0102
1003
2100
3001
,
1000
0000
1000
0010
0001
0000
0001
0010
,
0100
0000
0100
0001
0010
0000
0010
1000
,
0010
0001
0100
0010
1000
0100
0010
0001
,
1000
0000
1000
0010
0100
0000
0100
0001
,
1000
0000
1000
0100
0010
0000
0011
0000
,
0001
0000
0001
0100
0010
0000
0010
1000
,
0100
0000
0100
0010
0001
0000
0011
0000
,
2010
3001
0012
1003
,
0001
0000
0001
0100
1000
0000
1000
0100
,
0010
0000
0010
1000
0100
0000
0100
0001
,
0100
0010
0001
0100
0010
0000
1010
0000
,
0012
0000
1003
0000
0001
0100
0010
1000
,
0002
0000
1003
0000
0001
0010
0100
1000
,
0020
0000
0130
0000
0001
0010
1000
0010
,
0002
0203
0320
2030
,
3001
0000
0000
0001
0000
0000
0100
0000
0010
0000
0000
0010
0000
0000
1000
0001
;

//---------------dance-single - ----------------
#NOTEDATA:;
#CHARTNAME:;
#STEPSTYPE:dance-single;
#DESCRIPTION:;
#CHARTSTYLE:;
#DIFFICULTY:Hard;
#METER:8;
#RADARVALUES:0.589,0.764,0.251,0.351,0.402,421.000,30.000,42.000,0.000,0.000,0.000,0.000,0.000,0.589,0.764,0.251,0.351,0.402,421.000,30.000,42.000,0.000,0.000,0.000,0.000,0.000;
#CREDIT:;
#NOTES:
0000
0000
0000
0000
,
0000
0000
0000
0000
,
0000
0000
0000
0000
,
1000
0100
0010
0001
0010
0100
1000
0001
,
1000
0000
0000
1001
0000
0000
0001
0000
0100
0010
0000
0100
0000
0000
0001
0000
,
1000
0000
0100
0000
0010
0000
0001
0000
0010
0000
0000
0100
0000
0000
1000
0000
,
0001
0000
0000
0100
0000
0000
0010
0000
2000
0000
0000
0000
3001
0000
0000
0000
,
1000
0000
0010
0000
0100
0000
0001
0000
0100
0000
0000
0010
0000
0000
1000
0000
,
0001
0000
0000
0010
0000
0000
0100
0000
2000
0000
0000
0000
3001
0000
0000
0000
,
1000
0000
0010
0000
0001
0000
0010
0000
1000
0000
0000
0001
0000
0000
0100
0000
,
1000
0000
0000
0100
0000
0000
0010
0000
2000
0000
0000
0000
3001
0000
0000
0000
,
2100
0000
0000
0000
3001
0000
0000
0000
0102
0000
0000
1003
0000
0000
0001
0000
,
1000
0000
0000
0010
0000
0000
0100
0000
0002
0000
0000
0000
1003
0000
0000
0000
,
0102
0000
0013
0000
0001
0100
0010
1000
,
0100
0000
0000
0001
0000
0000
0100
0000
0020
0000
0000
0000
0031
0000
0000
0000
,
2010
0000
3100
0000
1000
0010
0100
0001
,
0010
0000
0000
1000
0000
0000
0010
0000
0200
0000
0000
0000
1300
0000
0000
0000
,
1001
0000
0000
0001
0000
0000
0100
0000
0020
0000
0000
0000
0130
0000
0000
0000
,
0001
0000
0000
1000
0000
0000
0100
0000
0020
0000
0000
0000
0130
0000
0000
0000
,
1000
0000
0000
0010
0000
0000
0001
0000
1000
0000
0100
0000
0001
0000
0100
0000
,
0010
0000
0000
1010
0000
0000
1000
0000
0100
0000
0000
0110
0000
0000
0010
0000
,
0001
0000
0100
0000
1000
0000
0100
0000
0001
1000
0000
0001
1000
0000
0010
0000
,
0110
0110
0110
0000
0010
1000
0100
1000
,
1001
0000
0000
0001
0000
0000
0010
0000
1000
0000
0000
0010
0000
0000
0001
0000
,
0100
0000
0000
1000
0000
0000
0100
0000
0020
0000
0000
0000
1030
0000
0001
0000
,
1000
0000
0000
0001
0000
0000
0100
0000
1000
0000
0000
0100
0000
0000
0001
0000
,
0010
0000
0000
1000
0000
0000
0010
0000
0100
0000
0000
0000
0101
0000
0000
0000
,
2100
0000
0010
0010
0010
0000
3001
0000
,
1000
0000
0000
0010
0000
0000
0100
0000
0001
0000
0000
0010
0000
0000
1000
0000
,
0010
0000
0000
0100
0000
0000
1000
0000
0010
0000
0000
0001
0000
0000
0010
0000
,
0100
0000
0000
0001
0000
0000
1000
0000
0001
0000
0010
0000
0100
0000
1000
0000
,
0001
0000
0000
0100
0000
0000
1000
0000
0100
0000
0000
0010
0000
0000
1000
0000
,
0100
0000
0000
0001
0000
0000
0100
0000
0020
0000
0000
0000
0031
0000
0000
0000
,
1000
0000
0000
0010
0000
0000
0001
0000
0010
0000
0000
0100
0000
0000
0001
0000
,
0010
0000
0000
1000
0000
0000
0010
0000
0200
0000
0000
0000
1300
0000
0000
0000
,
0012
0000
0100
0100
0100
0000
1003
0000
,
0001
0000
0000
0100
0000
0000
0010
0000
1000
0000
0000
0100
0000
0000
0001
0000
,
0200
0000
0000
0000
1300
0000
0000
0000
0001
0000
0000
0100
0000
0000
0010
0000
,
1100
0011
0101
1010
,
0001
0100
1000
0100
0001
0100
0010
0100
,
0001
0010
1000
0010
0001
0010
0100
0010
,
0001
0100
1000
0100
0001
0010
1000
0010
,
0001
1000
0000
0000
0100
0000
0010
0001
0000
0010
0001
0000
1000
0000
2002
0000
,
0000
0000
0000
0000
3003
0000
1000
0000
0001
0000
0010
0000
0100
0000
1000
0001
,
1000
0000
0000
0010
0000
0000
0100
0000
0002
0000
0000
0000
1003
0000
0000
0000
0001
0000
0000
0010
0000
0000
1000
0000
0010
0000
0000
0001
0000
0000
0100
0000
,
1000
0000
0000
0100
0000
0000
0010
0000
2000
0000
0000
0000
3001
0000
0000
0000
1100
0000
0000
0000
0101
0000
0000
0000
1001
0000
0000
0000
0001
0000
0010
0000
,
0001
0000
0000
0100
0000
0000
0010
0000
2000
0000
0000
0000
3001
0000
0000
0000
1000
0000
0000
0100
0000
0000
0001
0000
0100
0000
0000
0010
0000
0000
0001
0000
,
0010
0000
0000
1000
0000
0000
0010
0000
0100
0000
0000
1000
0000
0000
0002
0000
2000
0000
0000
0000
0000
0000
0000
0000
0000
0000
0000
0000
3003
0000
0000
0000
,
0110
0110
0110
0000
0010
0001
0100
0001
,
2000
0000
0000
0010
0000
0000
3010
0000
0200
0000
0000
0001
0000
0000
0301
0000
,
2000
0000
0000
0100
0000
0000
3100
0000
0020
0000
0000
0001
0000
0000
0031
0000
,
1000
0000
0000
0100
0000
0000
0001
0000
1000
0000
0000
0010
0000
0000
0001
0000
,
1000
0000
0000
0100
0000
0000
0001
0000
0020
0000
0000
0000
1030
0000
0000
0000
,
0012
0000
0100
0100
0100
0000
1003
0000
,
0001
0000
0000
0100
0000
0000
0010
0000
1000
0000
0000
0100
0000
0000
0001
0000
,
0100
0000
0000
0010
0000
0000
0001
0000
0100
0000
0000
1000
0000
0000
0100
0000
,
0010
0000
0000
1000
0000
0000
0001
0000
1000
0000
0100
0000
0010
0000
0001
0000
,
1000
0000
0000
0010
0000
0000
0001
0000
0010
0000
0000
0100
0000
0000
0001
0000
,
0010
0000
0000
1000
0000
0000
0010
0000
0200
0000
0000
0000
1300
0000
0000
0000
,
0001
0000
0000
0100
0000
0000
1000
0000
0100
0000
0000
0010
0000
0000
1000
0000
,
0100
0000
0000
0001
0000
0000
0100
0000
0020
0000
0000
0000
0031
0000
0000
0000
,
2100
0000
0010
0010
0010
0000
3001
0000
,
1000
0000
0000
0010
0000
0000
0100
0000
0001
0000
0000
0010
0000
0000
1000
0000
,
0000
0010
0000
0000
0000
0000
0000
0000
0000
0000
0000
0000
0000
0000
0000
0000
0000
0000
0000
0000
0000
0000
0000
0000
0000
0000
0000
0000
0000
0000
0000
0000
0000
0000
0000
0000
0100
0000
0000
0000
0000
0000
0000
0000
0000
0000
0000
0000
0000
0000
0000
0000
0000
0000
0000
0000
0000
0000
0000
0000
0000
0000
0000
0000
0000
0000
0000
0000
0000
0000
0000
0000
1000
0000
0000
0000
0000
0000
0000
0000
0000
0000
0000
0000
0000
0000
0000
0000
0000
0000
0000
0000
0000
0000
0000
0000
0100
0000
0000
0000
0000
0000
0000
0000
0000
0000
0000
0000
0000
0000
0000
0000
0000
0000
0000
0000
0000
0000
0000
0000
0000
0000
0000
0000
0000
0000
0000
0000
0000
0000
0000
0000
0001
0000
0000
0000
0000
0000
0000
0000
0000
0000
0000
0000
0000
0000
0000
0000
0000
0000
0000
0000
0000
0000
0000
0000
0000
0000
0000
0000
0000
0000
0000
0000
0000
0000
0000
0000
0100
0000
0000
0000
0000
0000
0000
0000
0000
0000
0000
0000
0000
0000
0000
0000
0000
0000
0000
0000
0000
0000
0000
0000
,
0010
0000
0000
0001
0000
0000
0100
0000
0010
0000
0000
0000
1010
0000
0000
0000
,
0102
0000
0000
0000
1003
0000
0100
0000
0001
0000
0000
0100
0000
0000
1000
0000
,
0002
0000
0000
0000
1003
0000
0010
0000
0001
0000
0000
0010
0000
0000
1000
0000
,
0002
0000
0000
0000
1003
0000
0100
0000
0001
0000
0000
0100
0000
0000
1000
0000
,
0002
0203
0320
2030
,
3001
0010
0000
0001
0010
0000
0100
0010
0100
0010
0000
0100
1000
0000
0001
2000
,
0000
3000
0000
0000
;
