#TITLE:Queen's Paradise;
#SUBTITLE:;
#ARTIST:Nanako;
#TITLETRANSLIT:;
#SUBTITLETRANSLIT:;
#ARTISTTRANSLIT:;
#GENRE:;
#CREDIT:;
#BANNER:Queen's Paradise.png;
#BACKGROUND:Queen's Paradise-bg.png;
#JACKET:Queen's Paradise-bg.png;
#LYRICSPATH:;
#CDTITLE:;
#MUSIC:Queen's Paradise.mp3;
#OFFSET:-0.071;
#SAMPLESTART:72.204;
#SAMPLELENGTH:15.849;
#SELECTABLE:YES;
#BPMS:0.000=157.000
;
#STOPS:
;
#BGCHANGES:;
#KEYSOUNDS:;
#ATTACKS:;

//---------------dance-single - ----------------
#NOTES:
     dance-single:
     :
     Hard:
     8:
     0.704,0.640,0.956,0.589,0.192,397.000,112.000,69.000,0.000,0.000,0.000,0.704,0.640,0.956,0.589,0.192,397.000,112.000,69.000,0.000,0.000,0.000: // measure 0
0000
0000
0000
0000
,  // measure 1
0000
0000
0000
0000
,  // measure 2
0000
0000
0000
0000
,  // measure 3
0000
0000
0000
0000
0000
0000
0000
1000
,  // measure 4
0002
0000
0103
0100
2000
0000
3100
0100
,  // measure 5
0002
1003
1100
0101
,  // measure 6
2010
0000
0100
0100
3002
0000
1003
0000
,  // measure 7
0101
0000
0000
0110
0000
0000
1010
0000
1000
0100
0010
0001
1000
0000
0001
0000
,  // measure 8
2000
0000
3100
0100
0002
0000
0103
0100
,  // measure 9
2000
3001
0101
1100
,  // measure 10
0002
0000
0013
0010
2000
0000
3010
0010
,  // measure 11
0001
0100
1000
0000
0001
0010
1000
0000
,  // measure 12
0002
0000
0013
0010
2000
0000
3010
0010
,  // measure 13
0002
1003
0101
1100
,  // measure 14
2001
0000
0001
0010
3200
0000
1300
0000
,  // measure 15
0101
0000
0000
0000
1100
0000
0000
0000
0001
0010
0100
1000
0002
0000
0000
0000
,  // measure 16
0003
0000
1000
0000
0010
0000
0000
0100
0001
0000
0001
0000
1000
0000
1000
0000
,  // measure 17
0000
0000
0001
0000
0010
0000
0000
0100
1000
0000
1000
0000
0001
0000
0001
0000
,  // measure 18
0101
0000
1010
0000
1001
0000
2000
0100
,  // measure 19
3100
0000
0002
0100
0103
0000
2002
0000
,  // measure 20
3003
0000
0001
0000
0100
0000
0000
0010
1000
0000
1000
0000
0001
0000
0001
0000
,  // measure 21
0000
0000
1000
0000
0100
0000
0000
0010
0001
0000
0001
0000
1000
0000
1000
0000
,  // measure 22
1010
0101
1100
0011
,  // measure 23
1010
0101
2001
3100
,  // measure 24
1010
0000
0000
0110
0000
0000
0102
0000
0000
0000
1000
0000
1003
0000
0000
0000
,  // measure 25
0011
0000
0000
0110
0000
0000
2100
0000
0000
0000
0001
0000
3001
0000
0000
0000
,  // measure 26
1010
0000
0000
0101
0000
0000
1002
0000
0000
0000
0010
0000
0013
0000
0000
0000
,  // measure 27
0101
0000
0000
1010
0000
0000
1001
0000
0000
0001
1000
0001
1000
0000
0000
0000
,  // measure 28
1001
0000
0000
0101
0000
0000
2100
0000
0000
0000
0001
0000
3001
0000
0000
0000
,  // measure 29
1001
0000
0000
1100
0000
0000
0102
0000
0000
0000
1000
0000
1003
0000
0000
0000
,  // measure 30
1001
0000
0000
0011
0000
0000
2010
0000
0000
0000
0001
0000
3001
0000
0000
0000
,  // measure 31
0000
0000
1100
0000
1100
0000
0000
0000
0001
0100
0000
0100
0002
0000
1000
0000
,  // measure 32
0003
0000
0001
0000
0100
0000
0000
1000
0100
0000
0010
0000
1000
0000
0001
0000
,  // measure 33
0000
0000
1000
0000
0100
0000
0000
0001
0100
0000
0010
0000
0001
0000
1000
0000
,  // measure 34
1010
0000
0101
0000
1100
0000
0020
0001
,  // measure 35
0031
0000
0020
1000
1030
0000
0022
0000
,  // measure 36
0033
0000
1000
0000
0010
0000
0000
0001
0010
0000
0100
0000
0001
0000
1000
0000
,  // measure 37
0000
0000
0001
0000
0010
0000
0000
1000
0010
0000
0100
0000
1000
0000
0001
0000
,  // measure 38
0101
1010
0011
1100
,  // measure 39
0101
1010
1002
0103
,  // measure 40
0101
0000
0000
0110
0000
0000
2010
0000
0000
0000
0001
0000
3001
0000
0000
0000
,  // measure 41
1100
0000
0000
0110
0000
0000
0012
0000
0000
0000
1000
0000
1003
0000
0000
0000
,  // measure 42
0101
0000
0000
1010
0000
0000
2001
0000
0000
0000
0100
0000
3100
0000
0000
0000
,  // measure 43
1010
0000
0000
0101
0000
0000
1001
0000
0000
1000
0001
1000
0001
0000
0000
0000
,  // measure 44
1001
0000
0000
1010
0000
0000
0012
0000
0000
0000
1000
0000
1003
0000
0000
0000
,  // measure 45
1001
0000
0000
0011
0000
0000
2010
0000
0000
0000
0001
0000
3001
0000
0000
0000
,  // measure 46
1001
0000
0000
1100
0000
0000
1000
0001
1000
0000
0000
1000
0010
0000
0100
0000
,  // measure 47
0000
0002
2003
3100
,  // measure 48
0011
0000
0001
0100
1010
0000
0001
0100
,  // measure 49
1000
0001
0010
1000
0000
0100
0010
0001
,  // measure 50
0101
0000
1000
0100
0011
0000
2000
0001
,  // measure 51
3001
1100
0011
0101
,  // measure 52
1010
0000
0001
0010
1100
0000
0001
0100
,  // measure 53
1000
0001
0010
1000
0000
0001
0100
0010
,  // measure 54
2010
3100
0012
0103
,  // measure 55
1001
0000
1001
0000
1000
0100
0010
0000
1001
0000
0001
0100
,  // measure 56
0010
0000
0000
1001
0000
0000
1001
0000
1000
0100
0010
0001
1000
0000
0001
0000
,  // measure 57
2000
0000
3100
0100
0002
0000
0103
0100
,  // measure 58
2000
3001
0101
1100
,  // measure 59
0002
0000
0013
0010
2000
0000
3010
0010
,  // measure 60
0001
0100
1000
0000
0001
0010
1000
0000
,  // measure 61
0002
0000
0013
0010
2000
0000
3010
0010
,  // measure 62
0002
1003
0101
1100
,  // measure 63
2001
0000
0001
0010
3200
0000
1300
0000
,  // measure 64
0101
0000
1010
0000
0101
0000
1100
1000
,  // measure 65
2001
0000
3100
0002
0000
0103
0000
2000
,  // measure 66
0000
0010
0010
3010
0200
0000
0301
1000
,  // measure 67
0002
0000
0013
2000
0000
3010
0000
0002
,  // measure 68
0000
0100
0100
0103
0020
0000
0130
0001
,  // measure 69
2000
0000
0100
3100
0000
1100
0000
0100
,  // measure 70
0011
0000
1010
0000
1002
0000
1003
0001
,  // measure 71
2000
0000
3100
0100
0002
0000
0103
0100
,  // measure 72
2000
3001
1100
0101
,  // measure 73
2001
0000
0000
0000
3001
0000
0100
0000
0001
0000
1000
0001
1000
0000
2002
0000
,  // measure 74
0000
0000
0000
0000
,  // measure 75
3003
0000
0000
0000
;

//---------------dance-single - ----------------
#NOTES:
     dance-single:
     :
     Easy:
     3:
     0.325,0.320,0.145,0.256,0.000,220.000,17.000,30.000,0.000,0.000,0.000,0.325,0.320,0.145,0.256,0.000,220.000,17.000,30.000,0.000,0.000,0.000:
0000
0000
0000
0000
,
0000
0000
0000
0000
,
0000
0000
0000
0000
,
0000
0000
0000
0000
,
1000
0100
0001
0100
,
1000
0100
0001
0100
,
1000
0010
0001
0010
,
1000
0000
0000
1000
0000
0000
1001
0000
,
0001
0100
0010
0100
,
0001
0010
0100
0010
,
0001
0100
1000
0100
,
0010
0000
1001
0000
,
1000
0100
0010
0100
,
1000
0010
0100
0010
,
1000
0100
0001
0100
,
1000
1000
0001
1001
,
0000
0001
0100
0001
,
0000
1000
0100
1000
,
0001
0001
0001
0000
,
1000
1000
1000
0000
,
0000
0001
0010
0100
,
0000
1000
0010
0100
,
0001
0001
0010
0010
,
0100
0100
1000
1000
,
0002
0003
0200
0300
,
0020
0030
2000
3000
,
0200
0300
0020
0030
,
0002
0003
2000
3000
,
0200
0300
2000
3000
,
0020
0030
0200
0300
,
0002
0003
0020
0030
,
0200
0300
1000
1001
,
0000
1000
0010
1000
,
0000
0001
0010
0001
,
1000
1000
1000
0000
,
0001
0001
0001
0000
,
0000
1000
0100
0010
,
0000
0001
0100
0010
,
1000
1000
0100
0100
,
0010
0010
0001
0001
,
2000
3000
0020
0030
,
0200
0300
0002
0003
,
0020
0030
0200
0300
,
2000
3000
0002
0003
,
0020
0030
0002
0003
,
0200
0300
0020
0030
,
2000
3000
0200
0300
,
0000
0010
0001
0100
,
1010
0000
0011
0000
,
1000
0001
1000
0000
,
0101
0000
1100
1000
,
0000
0001
0100
0010
,
1010
0000
0101
0000
,
0001
0010
0100
1000
,
1100
0000
0011
0000
,
1000
1000
0010
0010
,
0100
0000
0000
0100
0000
0000
0000
0000
,
0001
0100
0010
0100
,
0001
0010
0100
0010
,
0001
0100
1000
0100
,
0010
0000
1001
0000
,
1000
0100
0010
0100
,
1000
0010
0100
0010
,
1000
0100
0001
0100
,
1000
1000
0001
1001
,
1000
0100
0001
0100
,
0010
0010
0010
0000
,
0001
0100
1000
0100
,
0010
0010
0010
0000
,
1000
0100
0010
0001
,
1001
1001
1001
0000
,
1000
0010
0001
0010
,
0100
0001
1000
0100
,
0001
0000
0100
0000
0010
0000
0001
2000
,
0000
0000
0000
0000
,
3000
0000
0000
0000
;

//---------------dance-single - ----------------
#NOTES:
     dance-single:
     :
     Medium:
     6:
     0.556,0.608,0.853,0.444,0.094,304.000,100.000,52.000,0.000,0.000,0.000,0.556,0.608,0.853,0.444,0.094,304.000,100.000,52.000,0.000,0.000,0.000:
0000
0000
0000
0000
,
0000
0000
0000
0000
,
0000
0000
0000
0000
,
0000
0000
0000
0000
,
2000
3100
0002
0203
,
2300
3001
0101
1100
,
2001
3100
1002
0103
,
1000
0000
0000
1000
0000
0000
1000
0000
0001
0000
0001
0000
1001
0000
0000
0000
,
0102
1003
2100
3001
,
1002
0103
0011
1010
,
1002
0013
2001
3010
,
1000
0010
0100
0000
0001
0010
0100
0000
,
2010
3001
0012
1003
,
2001
3100
1100
0101
,
0012
0103
2010
3100
,
1001
0000
0110
0000
1000
1000
1000
0000
,
0000
0001
0010
0000
0100
0000
0100
0000
,
0000
1000
0010
0000
0100
0000
0100
0000
,
0101
1100
0101
0000
,
1010
0011
2010
3001
,
0000
1000
0100
0000
0010
0000
0010
0000
,
0000
0001
0100
0000
0010
0000
0010
0000
,
1010
1010
0101
0101
,
0011
0011
1100
1100
,
0001
0000
0000
0001
0000
0000
0001
0000
0000
0000
0000
0000
1100
0000
0000
0000
,
1000
0000
0000
1000
0000
0000
1000
0000
0000
0000
0000
0000
0101
0000
0000
0000
,
1000
0000
0000
1000
0000
0000
1000
0000
0000
0000
0000
0000
0011
0000
0000
0000
,
0001
0000
0000
0001
0000
0000
0001
0000
0000
0000
0000
0000
1010
0000
0000
0000
,
1000
0000
0000
0010
0000
0000
0100
0000
0000
0000
0000
0000
1001
0000
0000
0000
,
0001
0000
0000
0010
0000
0000
0100
0000
0000
0000
0000
0000
1001
0000
0000
0000
,
1000
0000
0000
0010
0000
0000
0100
0000
0001
0000
0000
0010
0000
0000
0100
0000
,
1000
0001
0001
0000
0100
0010
1001
0000
,
0000
1000
0100
0000
0001
0000
0100
0000
,
0000
1000
0010
0000
0001
0000
0010
0000
,
1010
0101
1010
0000
,
0011
1100
0012
0103
,
0000
0001
0100
0000
1000
0000
0100
0000
,
0000
0001
0010
0000
1000
0000
0010
0000
,
0011
0011
1100
1100
,
0101
0101
1010
1010
,
0001
0000
0000
0001
0000
0000
0001
0000
0000
0000
0000
0000
1100
0000
0000
0000
,
1000
0000
0000
1000
0000
0000
1000
0000
0000
0000
0000
0000
0101
0000
0000
0000
,
1000
0000
0000
1000
0000
0000
1000
0000
0000
0000
0000
0000
0011
0000
0000
0000
,
0001
0000
0000
0001
0000
0000
0001
0000
0000
0000
0000
0000
1010
0000
0000
0000
,
1000
0000
0000
0010
0000
0000
0100
0000
0000
0000
0000
0000
1001
0000
0000
0000
,
0001
0000
0000
0010
0000
0000
0100
0000
0000
0000
0000
0000
1001
0000
0000
0000
,
1000
0000
0000
0010
0000
0000
0100
0000
0001
0000
0000
0010
0000
0000
0100
0000
,
0000
2000
3200
0310
,
0102
1003
2100
3001
,
1000
0010
1000
0000
0001
0010
0001
0000
,
2010
3001
0012
1003
,
0001
1100
0101
1100
,
0102
0013
2100
3010
,
1000
0010
0001
0000
0001
0010
1000
0000
,
0102
0013
2100
3010
,
1000
0000
0100
0000
0010
0000
0001
0000
0010
0000
0100
0000
,
1000
0000
0000
1000
0000
0000
1000
0000
0001
0000
0100
0000
1001
0000
0000
0000
,
0102
1003
2100
3001
,
1002
0103
0011
1010
,
1002
0013
2001
3010
,
1000
0010
0100
0000
0001
0010
0100
0000
,
2010
3001
0012
1003
,
2001
3100
1100
0101
,
0012
0103
2010
3100
,
1001
0000
0110
0000
1000
1000
1000
0000
,
0002
0000
0103
2000
3000
0100
0000
0002
,
0000
1000
1003
0000
0001
0000
1010
0000
,
2000
0000
3010
0002
0000
0013
0000
2000
,
0000
0001
3001
0000
0100
0000
1010
0000
,
1000
0000
0100
0001
0000
1000
0000
0010
,
0002
2003
3100
1001
,
2010
3100
0012
0103
,
2001
3010
1010
0011
,
2001
0000
3100
0000
1000
0010
0100
2002
,
0000
0000
0000
0000
,
3003
0000
0000
0000
;
