#TITLE:NOW AND FOREVER;
#SUBTITLE:;
#ARTIST:HINOIチーム;
#TITLETRANSLIT:;
#SUBTITLETRANSLIT:;
#ARTISTTRANSLIT:HINOI Team;
#GENRE:;
#CREDIT:;
#BANNER:NOW AND FOREVER.png;
#BACKGROUND:NOW AND FOREVER-bg.png;
#LYRICSPATH:;
#CDTITLE:;
#MUSIC:NOW AND FOREVER.mp3;
#OFFSET:-0.952;
#SAMPLESTART:70.000;
#SAMPLELENGTH:16.420;
#SELECTABLE:YES;
#BPMS:0.000=158.000
;
#STOPS:
;
#BGCHANGES:;
#KEYSOUNDS:;
#ATTACKS:;

//---------------dance-single - ----------------
#NOTES:
     dance-single:
     :
     Hard:
     7:
     0.524,0.485,0.349,0.365,0.116,356.000,42.000,44.000,0.000,0.000,0.000,0.524,0.485,0.349,0.365,0.116,356.000,42.000,44.000,0.000,0.000,0.000:
0000
0000
0000
0000
,
0000
0000
0000
0000
,
0000
0000
0000
0000
,
0000
0000
0000
0000
,
0000
0000
0000
0000
,
0000
0000
0000
0000
,
2002
0000
0000
0000
3003
0000
1000
1100
,
0000
0101
0000
0001
2000
0000
3001
0000
,
1001
0000
0100
0001
0000
1000
0000
0010
,
0002
1003
1001
0110
,
0001
0000
0100
1000
0000
0100
0000
0010
,
0200
0301
0101
1100
,
0001
0000
0010
1000
0000
0001
0000
0100
,
2000
3001
1100
0101
,
1000
0010
0100
0001
0100
0010
1000
0002
,
2000
0000
0000
3003
,
1000
0000
0000
0100
0000
0000
0010
0000
0000
0000
0002
0000
0010
0000
0000
0000
,
0100
0000
1000
0000
0103
0001
0000
0100
,
0010
0000
0000
1000
0000
0000
0001
0000
0000
0000
2000
0000
0010
0000
0000
0000
,
0100
0000
0001
0000
3100
1000
0000
0001
,
1000
0000
0000
0010
0000
0000
0100
0000
0001
0000
0000
0100
0000
0000
0010
0000
,
1000
0000
0000
0100
0000
0000
0010
0000
0001
0000
0000
0010
0000
0000
0100
0000
,
1000
0000
0000
0010
0000
0000
0100
0000
0002
0000
0000
0000
0010
0000
0000
0000
,
0100
0000
0010
0000
1003
0001
0000
1000
,
0001
0000
0000
0100
0000
0000
0010
0000
1000
0000
0000
0001
0000
0000
0010
0000
,
0100
0000
0000
1000
0000
0000
0010
0000
0100
0000
0000
0001
0000
0000
1000
0000
,
0100
0000
0000
0010
0000
0000
0002
0000
0000
0000
1003
0000
0000
0000
0020
0000
,
0000
0000
0100
0000
0000
0000
0130
0000
0001
0000
0000
0010
0000
0000
0100
0000
,
1000
0000
1001
0000
1000
0100
0010
0000
,
0001
0100
0010
1000
0001
0010
0100
1000
,
0001
0000
0000
0010
0000
0000
0100
0000
0000
0000
2000
0000
0100
0000
0000
0000
,
0010
0000
0001
0000
3010
1000
0000
0010
,
0100
0000
0000
0001
0000
0000
1000
0000
0000
0000
0002
0000
0100
0000
0000
0000
,
0010
0000
1000
0000
0013
0001
0000
1000
,
0001
0000
0000
0100
0000
0000
0010
0000
1000
0000
0000
0010
0000
0000
0100
0000
,
0001
0000
0000
0010
0000
0000
0100
0000
1000
0000
0000
0100
0000
0000
0010
0000
,
0001
0000
0000
0100
0000
0000
0010
0000
2000
0000
0000
0000
0100
0000
0000
0000
,
0010
0000
0100
0000
3001
1000
0000
0001
,
1000
0000
0000
0010
0000
0000
0100
0000
0001
0000
0000
1000
0000
0000
0100
0000
,
0010
0000
0000
0001
0000
0000
0100
0000
0010
0000
0000
1000
0000
0000
0001
0000
,
0010
0100
2000
0000
3010
0100
0002
0000
,
0013
0000
0100
0000
2000
0000
0000
0000
3001
0000
0000
0100
0000
0000
0010
0000
,
1000
0000
1001
0000
1000
0100
0010
0000
,
0001
0000
0100
0000
0010
0000
0000
0000
1000
0000
0000
0010
0000
0000
0100
0000
,
0001
0000
0101
0000
0001
0010
0100
1100
,
0000
0101
0000
0001
2000
0000
3001
0000
,
1000
0000
0010
0001
0000
1000
0000
0100
,
0002
1003
1100
0101
,
1000
0010
0100
0002
0000
0023
0000
0230
,
0000
1000
1300
0000
1010
0000
0011
0000
,
1000
0000
0010
0001
0000
1000
0000
0100
,
0002
0000
0000
0000
1003
0000
0000
0000
0001
0000
0000
0010
0000
0000
0100
0000
,
2000
0000
0010
0000
0100
0000
0001
0001
,
3002
1003
0101
1100
,
0001
0000
0010
1000
0000
0001
0000
0100
,
2000
0000
0010
0000
3100
0000
1000
0010
,
0001
1000
0100
0002
0000
0023
0000
0100
,
0230
1300
1100
0101
,
1000
0000
0010
0001
0000
1000
0000
0100
,
0002
0000
0000
0000
1003
0000
0000
0000
0001
0000
0000
0100
0000
0000
0010
0000
,
2000
0000
0010
0000
0100
0000
0001
0001
,
3002
1003
0101
1100
,
1001
0000
0100
0001
0000
1000
0000
0010
,
0002
1003
1001
0110
,
0001
0000
0100
1000
0000
0100
0000
0010
,
0200
0301
0101
1100
,
0001
0000
0010
1000
0000
0001
0000
0100
,
2000
3001
1100
0101
,
1002
0000
0010
0010
0000
0100
0000
1000
,
2003
3001
1100
0101
,
1001
0000
0010
1000
0000
0001
0000
0100
,
2000
3001
1001
0110
,
1000
0000
0010
0001
0000
0010
0000
0100
,
0020
1030
1010
0011
,
1000
0000
0100
0001
0000
1000
0000
0010
,
0002
1003
0011
1010
,
0001
0010
1000
0010
0001
0100
1000
0200
,
0002
0000
0000
0000
,
0303
0000
0000
0000
;

//---------------dance-single - ----------------
#NOTES:
     dance-single:
     :
     Easy:
     2:
     0.187,0.194,0.000,0.075,0.000,149.000,0.000,9.000,0.000,0.000,0.000,0.187,0.194,0.000,0.075,0.000,149.000,0.000,9.000,0.000,0.000,0.000:
0000
0000
0000
0000
,
0000
0000
0000
0000
,
0000
0000
0000
0000
,
0000
0000
0000
0000
,
0000
0000
0000
0000
,
0000
0000
0000
0000
,
2000
0000
0000
0000
,
0002
0000
0000
3003
,
0001
0000
0100
0000
,
0010
0000
1000
0000
,
0001
0000
0010
0000
,
0100
0000
1000
0000
,
0001
0000
0100
0000
,
0010
0000
1000
0001
,
2000
0000
0000
0000
,
0002
0000
0000
3003
,
1000
0000
1000
0000
,
0010
0000
0010
0000
,
0100
0000
0100
0000
,
0001
0000
0001
0000
,
1000
0000
1000
0000
,
0100
0000
0100
0000
,
0010
0000
0010
0000
,
0001
0000
0001
0000
,
1000
0000
0010
0000
,
0100
0000
0001
0000
,
1000
0000
0100
0000
,
0010
0000
0001
0000
,
1000
0000
0010
0000
,
0100
0000
0001
0000
,
1000
0000
1000
0000
,
0100
0000
0100
0000
,
0010
0000
0010
0000
,
0001
0000
0001
0000
,
0100
0000
0100
0000
,
0010
0000
0010
0000
,
1000
0000
1000
0000
,
0001
0000
0001
0000
,
0100
0000
0010
0000
,
1000
0000
0100
0000
,
0010
0000
0001
0000
,
1000
0000
0100
0000
,
1000
0000
0010
0000
,
0100
0000
0001
0000
,
1000
0000
0100
0000
,
0010
0000
0001
1000
,
0001
0000
0100
0100
,
0100
0000
1000
0001
,
1000
0000
0100
0100
,
0100
0000
0001
1000
,
0001
0000
0010
0010
,
0010
0000
0100
1000
,
0002
0000
0000
0000
,
2000
0000
0000
3003
,
1000
0000
0100
0100
,
0100
0000
1000
0001
,
0100
0000
0001
0001
,
0001
0000
1000
0001
,
0010
0000
0100
0100
,
0100
0000
1000
0001
,
2000
0000
0000
0000
,
0002
0000
0000
3003
,
1000
0000
1000
0000
,
0010
0000
0010
0000
,
0100
0000
0100
0000
,
0001
0000
0001
0000
,
1000
0000
1000
0000
,
0100
0000
0100
0000
,
0010
0000
0010
0000
,
0001
0000
0001
0000
,
1000
0000
1000
0000
,
0010
0000
0010
0000
,
0100
0000
0100
0000
,
0001
0000
0001
0000
,
1000
0000
1000
0000
,
0100
0000
0100
0000
,
0010
0000
0010
0000
,
0200
0000
0000
0000
,
0300
0000
0000
0000
;

//---------------dance-single - ----------------
#NOTES:
     dance-single:
     :
     Medium:
     6:
     0.392,0.421,0.075,0.108,0.000,309.000,9.000,13.000,0.000,0.000,0.000,0.392,0.421,0.075,0.108,0.000,309.000,9.000,13.000,0.000,0.000,0.000:
0000
0000
0000
0000
,
0000
0000
0000
0000
,
0000
0000
0000
0000
,
0000
0000
0000
0000
,
0000
0000
0000
0000
,
0000
0000
0000
0000
,
2000
0000
0000
0000
0000
0000
0000
0001
,
0002
0000
0000
3003
,
1000
0000
0010
0100
0000
0010
0000
0100
,
0001
0010
0100
1000
,
0001
0000
0100
0010
0000
0100
0000
0010
,
1000
0100
0010
0001
,
1000
0000
0010
0100
0000
0001
0000
0100
,
0010
1000
0001
0100
,
0010
1000
0010
0000
0100
0001
0100
0000
,
0020
0000
0000
0130
,
0001
0010
0100
1000
,
0010
0000
0100
0000
0001
0000
1000
0001
,
1000
0001
0010
0100
,
1000
0000
0010
0000
0100
0000
0001
1000
,
0001
0001
0010
0010
,
0100
0100
1000
1000
,
0001
0100
0010
1000
,
0010
0000
0100
0000
0001
0000
1000
0001
,
1000
1000
0100
0100
,
0010
0010
0001
0001
,
1000
0010
0100
0001
,
1000
0000
0100
0000
0010
0000
0001
1000
,
0001
0100
0010
1000
,
0001
0001
0001
0000
1000
1000
1000
0000
,
0001
0010
0100
1000
,
0010
0000
0100
0000
0001
0000
1000
0001
,
0100
0001
0010
0100
,
1000
0000
0010
0000
0100
0000
0001
1000
,
0010
0010
0100
0100
,
0001
0001
0010
0010
,
0100
1000
0010
0100
,
0001
0000
0010
0000
0100
0000
1000
0001
,
0010
0010
0100
0100
,
1000
1000
0010
0010
,
0100
0001
0100
0000
0001
0010
0001
0000
,
0010
0100
0010
0000
0100
1000
0100
0000
,
1000
0010
0100
0001
,
1000
0000
0100
0000
0010
0000
0001
1000
,
0100
0000
0010
0000
0001
0000
1000
0010
,
0000
0100
0000
0001
0010
0000
0100
0000
,
1000
0100
0010
0001
,
2000
3001
0101
1100
,
0001
0010
0100
1000
,
0002
1003
0011
1010
,
0001
0010
0100
1000
,
0002
0000
1003
0000
0020
0000
0130
0001
,
2000
0000
0000
0000
0000
0000
0001
0002
,
0000
3003
1100
0101
,
1000
0010
0001
0010
,
0100
0000
0001
0000
1000
0001
1000
0000
,
0001
0010
1000
0010
,
0100
0000
1000
0000
0001
1000
0001
0000
,
1000
0010
0001
0100
,
1000
0000
0001
0000
1000
0000
0010
0100
,
0002
0000
0000
0000
0000
0000
1000
2000
,
0000
3003
1100
0101
,
1000
0000
0010
0100
0000
0010
0000
0100
,
0001
0010
0100
1000
,
0001
0000
0100
0010
0000
0100
0000
0010
,
1000
0100
0010
0001
,
1000
0000
0010
0100
0000
0001
0000
0100
,
0010
1000
0001
0100
,
0010
1000
0010
0000
0100
0001
0100
0000
,
1000
0100
1000
0000
0001
1000
0001
1000
,
0001
0000
0100
0010
0000
0100
0000
0010
,
1000
0100
0010
0001
,
1000
0000
0010
0100
0000
0010
0000
0100
,
0001
0010
0100
1000
,
0001
0000
0100
0010
0000
1000
0000
0010
,
0100
0001
1000
0010
,
0100
0001
0100
0000
0010
1000
0010
0000
,
2002
0000
0000
0000
,
3003
0000
0000
0000
;
