#VERSION:0.81;
#TITLE:Mynarco;
#SUBTITLE:;
#ARTIST:positive MAD-crew;
#TITLETRANSLIT:;
#SUBTITLETRANSLIT:;
#ARTISTTRANSLIT:;
#GENRE:;
#ORIGIN:;
#CREDIT:;
#BANNER:Mynarco.png;
#BACKGROUND:Mynarco-bg.png;
#PREVIEWVID:;
#JACKET:Mynarco-jacket.png;
#CDIMAGE:;
#DISCIMAGE:;
#LYRICSPATH:;
#CDTITLE:;
#MUSIC:Mynarco.mp3;
#OFFSET:-0.111;
#SAMPLESTART:31.880;
#SAMPLELENGTH:16.420;
#SELECTABLE:YES;
#BPMS:0.000=181.000;
#STOPS:;
#DELAYS:;
#WARPS:;
#TIMESIGNATURES:0.000=4=4;
#TICKCOUNTS:0.000=4;
#COMBOS:0.000=1;
#SPEEDS:0.000=1.000=0.000=0;
#SCROLLS:0.000=1.000;
#FAKES:;
#LABELS:0.000=Song Start;
#BGCHANGES:;
#KEYSOUNDS:;
#ATTACKS:
;

//---------------dance-single - ----------------
#NOTEDATA:;
#CHARTNAME:;
#STEPSTYPE:dance-single;
#DESCRIPTION:;
#CHARTSTYLE:;
#DIFFICULTY:Hard;
#METER:8;
#RADARVALUES:0.732,0.596,0.641,0.354,0.000,431.000,67.000,37.000,0.000,0.000,0.000,0.000,0.000,0.732,0.596,0.641,0.354,0.000,431.000,67.000,37.000,0.000,0.000,0.000,0.000,0.000;
#CREDIT:;
#NOTES:
0000
0000
0000
0000
,
0000
0000
0000
0000
,
0000
0000
0000
0000
,
0000
0000
0000
0000
,
1000
0000
0010
0100
0002
0000
1000
1003
,
0000
0001
0100
1000
0001
0010
1000
0000
,
0001
0000
0010
0100
2000
0000
0001
3001
,
1000
0100
0010
0001
1000
0010
0100
0001
,
2000
0000
0010
0010
0000
0100
3100
0000
,
0002
0000
0010
0010
0000
0100
0103
0000
,
0020
0000
1000
1000
0000
0001
0031
0000
,
1000
0100
0010
0001
0010
0100
1000
1000
,
0002
0000
0100
0100
0000
0010
0013
0000
,
2000
0000
0100
0100
0000
0010
3010
0000
,
0200
0000
0001
0001
0000
1000
1300
0000
,
0001
0100
0010
1000
0010
0100
0001
1000
,
0020
0000
0100
0100
0000
0001
0031
0000
,
2000
0000
0010
0010
0000
0001
3001
0000
,
0020
0000
0100
0100
0000
0001
0031
0000
,
0010
0001
0100
0010
1000
0100
0010
0001
,
0200
0000
1000
1000
0000
0001
0301
0000
,
0020
0000
1000
1000
0000
0001
0031
0000
,
0010
1000
0100
0001
0100
0010
0001
0100
,
1000
0100
0010
1000
0100
0001
0100
1000
,
2100
3001
1010
0011
,
1002
0010
0103
0110
,
0102
1003
0011
1010
,
1000
0010
0100
0001
0100
0010
1000
0001
,
0012
1003
0101
1100
,
2001
0100
3010
0110
,
2010
3001
0012
1003
,
0001
0100
1000
0100
0001
0010
1000
0010
,
0012
0103
1010
0101
,
2100
0010
3001
1100
,
2010
3100
0110
1001
,
0001
0010
0100
1000
0001
0100
0010
1000
,
2010
3010
0101
1010
,
0012
0103
1001
0110
,
1000
0100
0001
0100
0010
0001
1000
0100
,
1000
0010
0001
0010
0100
0001
1000
0010
,
2000
0000
3100
0100
0020
0000
0031
0001
,
2000
0000
3010
0100
0001
0001
1000
1000
,
0001
0010
0100
1000
0001
0100
0010
1000
,
1001
0000
0000
0100
,
0110
0000
1000
0100
0001
0100
1000
0000
,
0001
0100
1000
0100
0001
0000
1000
0100
,
0001
0100
1000
0000
0001
0100
1000
0100
,
0001
0000
1000
0100
0001
0010
1000
0000
,
1001
0000
0001
0010
1000
0010
0001
0000
,
1000
0010
0001
0010
1000
0000
0001
0010
,
1000
0010
0001
0000
1000
0010
0001
0010
,
1000
0000
0001
0010
1000
0100
0001
0000
,
1001
0000
0001
0100
1000
0100
0010
0000
,
1000
0100
0001
0100
0010
0000
0001
0100
,
1000
0100
0010
0000
1000
0100
0001
0100
,
0010
0000
0001
0100
1000
0010
0001
0000
,
1001
0000
0001
0010
1000
0010
0100
0000
,
1000
0010
0001
0010
0100
0000
0001
0010
,
1000
0010
0100
0000
1000
0010
0001
0010
,
0100
0000
0001
0010
1000
0100
0001
0000
,
1000
0100
0010
0001
2000
0000
3001
0100
,
0010
1000
0001
0010
0100
1000
0001
1000
,
2100
3001
1010
0011
,
1002
0010
0103
0110
,
0101
1100
0011
1010
,
1000
0100
0001
0100
0010
0001
1000
0010
,
0101
1010
0011
1100
,
2001
0100
3010
0110
,
2010
3001
0012
1003
,
0001
0100
1000
0100
0001
0010
1000
0010
,
0012
0103
1010
0101
,
2100
0010
3001
1100
,
1010
0011
0110
1001
,
0001
0010
1000
0010
0100
1000
0001
0100
,
1010
0101
0011
1100
,
1002
0103
0110
1001
,
1000
0100
0001
0100
0010
0001
1000
0010
,
0001
0010
0100
1000
0100
0001
0010
0100
;

//---------------dance-single - Blank----------------
#NOTEDATA:;
#CHARTNAME:;
#STEPSTYPE:dance-single;
#DESCRIPTION:Blank;
#CHARTSTYLE:;
#DIFFICULTY:Easy;
#METER:4;
#RADARVALUES:0.354,0.298,0.048,0.077,0.000,246.000,5.000,8.000,0.000,0.000,0.000,0.000,0.000,0.354,0.298,0.048,0.077,0.000,246.000,5.000,8.000,0.000,0.000,0.000,0.000,0.000;
#CREDIT:;
#NOTES:
0000
0000
0000
0000
,
0000
0000
0000
0000
,
0000
0000
0000
0000
,
0000
0000
0000
0000
,
1000
0000
0100
0000
,
0010
0000
0001
0000
,
1000
0000
0010
0000
,
0100
0001
1000
0001
,
0100
0001
0100
0000
,
0010
1000
0010
0000
,
1000
0100
1000
0000
,
0001
0010
0001
0000
,
1000
0010
0100
0000
,
0001
0100
0010
0000
,
1000
0100
0010
0000
,
0001
0010
0100
1000
,
0001
0100
0010
0000
,
1000
0010
0100
0000
,
0001
0010
0100
0000
,
1000
0100
0010
0000
,
0001
0100
1000
0000
,
0001
0010
1000
0000
,
0001
0010
0100
1000
,
0001
0100
0010
1000
,
0001
0000
0010
0100
,
2000
0000
3001
0000
,
1000
0000
0010
0100
,
0001
0001
1000
1000
,
0100
0000
0010
0001
,
2000
0000
3001
0000
,
1000
1000
0010
0010
,
0100
0100
0001
0001
,
0010
0000
0100
1000
,
0002
0000
0103
0000
,
0001
0010
0100
1000
,
0020
0000
0130
0000
,
0001
0100
0010
1000
,
0001
0010
0100
1000
,
0001
0001
0100
0100
,
0010
0010
1000
1000
,
1001
0000
0110
0000
,
1001
0000
0110
0000
,
1000
0100
0010
0001
,
1001
0000
0000
0000
,
1000
0100
0010
0010
,
0001
0010
0010
0100
,
0010
0010
1000
0010
,
0010
0001
1000
0100
,
1000
0010
1000
1000
,
0100
1000
1000
0010
,
1000
1000
0001
1000
,
1000
0100
0010
0001
,
1000
0100
0010
0010
,
0001
0010
0010
0100
,
0010
0010
1000
0010
,
0010
0001
0100
0010
,
1000
0010
0100
0100
,
0001
0100
0100
0010
,
0100
0100
1000
0100
,
0100
0010
1000
0001
,
1000
0100
0001
0100
,
1000
0010
0001
0010
,
1000
0000
0100
0010
,
0002
0000
1003
0000
,
0001
0000
0100
0010
,
1000
1000
0001
0001
,
0010
0000
0100
1000
,
0002
0000
1003
0000
,
0001
0001
0100
0100
,
0010
0010
1000
1000
,
0100
0000
0010
0001
,
2000
0000
3010
0000
,
1000
0100
0010
0001
,
0200
0000
0310
0000
,
1000
0010
0100
0001
,
1000
0100
0010
0001
,
1000
1000
0010
0010
,
0100
0100
0001
0001
;

//---------------dance-single - Blank----------------
#NOTEDATA:;
#CHARTNAME:;
#STEPSTYPE:dance-single;
#DESCRIPTION:Blank;
#CHARTSTYLE:;
#DIFFICULTY:Medium;
#METER:7;
#RADARVALUES:0.607,0.596,0.584,0.057,0.000,377.000,61.000,6.000,0.000,0.000,0.000,0.000,0.000,0.607,0.596,0.584,0.057,0.000,377.000,61.000,6.000,0.000,0.000,0.000,0.000,0.000;
#CREDIT:;
#NOTES:
// measure 0
0000
0000
0000
0000
,  // measure 1
0000
0000
0000
0000
,  // measure 2
0000
0000
0000
0000
,  // measure 3
0000
0000
0000
0000
,  // measure 4
1000
0000
0001
0100
0001
0000
1000
0010
,  // measure 5
0000
0100
0001
0000
1000
0000
1001
0000
,  // measure 6
1000
0000
0001
0010
0001
0000
1000
0000
,  // measure 7
0001
0100
0010
1000
0010
0100
0001
1000
,  // measure 8
0001
0100
0010
1010
,  // measure 9
1000
0010
0100
0101
,  // measure 10
0001
0010
0100
1100
,  // measure 11
1000
0100
0010
0000
0001
0010
0100
0000
,  // measure 12
1000
0010
0100
0101
,  // measure 13
0001
0010
0100
1100
,  // measure 14
1000
0010
0100
1001
,  // measure 15
0001
0010
0100
0000
1000
0010
0100
0000
,  // measure 16
1000
0010
0100
0101
,  // measure 17
0001
0100
0010
1010
,  // measure 18
1000
0100
0010
0011
,  // measure 19
0001
0010
0100
0000
1000
0100
0010
0000
,  // measure 20
0001
0100
0010
1010
,  // measure 21
1000
0100
0010
0011
,  // measure 22
0001
0100
0010
1001
,  // measure 23
1000
0100
0010
0001
1000
0010
0100
0001
,  // measure 24
1000
1010
1000
1010
,  // measure 25
0001
0011
0001
0011
,  // measure 26
1000
1100
1000
1100
,  // measure 27
0001
0010
0001
0100
0001
0010
0001
0100
,  // measure 28
0001
0011
0001
0011
,  // measure 29
1000
1010
1000
1010
,  // measure 30
0001
0101
0001
0101
,  // measure 31
1000
0010
1000
0100
1000
0010
1000
0100
,  // measure 32
1000
0101
1000
0101
,  // measure 33
0001
1100
0001
1100
,  // measure 34
0010
1001
0010
1001
,  // measure 35
1000
0010
0100
0001
1000
0010
0100
0001
,  // measure 36
1000
0011
1000
0011
,  // measure 37
0001
1010
0001
1010
,  // measure 38
0001
0100
0010
0000
1000
0010
0100
0000
,  // measure 39
0001
0010
0100
0000
1000
0100
0010
0000
,  // measure 40
0012
0103
2010
3100
,  // measure 41
0102
0013
2100
3010
,  // measure 42
1000
0010
0100
0001
1000
0100
0010
0001
,  // measure 43
1000
0000
0000
0001
,  // measure 44
1000
0000
0001
0000
0100
0010
0100
0000
,  // measure 45
0001
0000
0010
0100
0010
0000
0001
0000
,  // measure 46
0100
0010
0100
0000
0001
0000
0010
0100
,  // measure 47
0010
0000
0001
1000
0001
1000
1000
0000
,  // measure 48
0001
0000
1000
0000
0010
0100
0010
0000
,  // measure 49
1000
0000
0100
0010
0100
0000
1000
0000
,  // measure 50
0010
0100
0010
0000
1000
0000
0100
0010
,  // measure 51
0100
0000
1000
0001
1000
0001
0001
0000
,  // measure 52
1000
0000
0010
0000
0100
0001
0100
0000
,  // measure 53
0001
0000
0010
0001
0010
0000
0001
0000
,  // measure 54
0010
0100
0010
0000
0100
0000
1000
0100
,  // measure 55
1000
0000
0001
1000
0001
0100
0100
0000
,  // measure 56
0001
0000
0010
0000
0100
1000
0100
0000
,  // measure 57
1000
0000
0001
0100
0001
0000
1000
0000
,  // measure 58
0010
1000
0010
0000
1000
0000
0001
0010
,  // measure 59
0001
0000
1000
0001
1000
0010
0010
0000
,  // measure 60
2000
3010
0200
0301
,  // measure 61
1000
0100
0010
0001
0010
0100
1000
0001
,  // measure 62
1000
1010
1000
1010
,  // measure 63
0001
0011
0001
0011
,  // measure 64
1000
1100
1000
1100
,  // measure 65
0001
0010
0001
0100
0001
0010
0001
0100
,  // measure 66
0001
0011
0001
0011
,  // measure 67
1000
1010
1000
1010
,  // measure 68
0001
0101
0001
0101
,  // measure 69
1000
0010
1000
0100
1000
0010
1000
0100
,  // measure 70
1000
0101
1000
0101
,  // measure 71
0001
1100
0001
1100
,  // measure 72
0010
1001
0010
1001
,  // measure 73
1000
0010
0100
0001
1000
0010
0100
0001
,  // measure 74
1000
0011
1000
0011
,  // measure 75
0001
1010
0001
1010
,  // measure 76
0001
0100
0010
0000
1000
0010
0100
0000
,  // measure 77
0001
0010
0100
1000
0001
0100
0010
1000
;
