#VERSION:0.81;
#TITLE:まるでマトリョーシカ;
#SUBTITLE:;
#ARTIST:seiya-murai feat. ALT;
#TITLETRANSLIT:MARUDE MATORYOUSHKA;
#SUBTITLETRANSLIT:;
#ARTISTTRANSLIT:;
#GENRE:;
#ORIGIN:;
#CREDIT:;
#BANNER:MARUDE MATORYOUSHKA.png;
#BACKGROUND:MARUDE MATORYOUSHKA-bg.png;
#PREVIEWVID:;
#JACKET:MARUDE MATORYOUSHKA-jacket.png;
#CDIMAGE:;
#DISCIMAGE:;
#LYRICSPATH:;
#CDTITLE:;
#MUSIC:MARUDE MATORYOUSHKA.mp3;
#OFFSET:-0.144;
#SAMPLESTART:75.980;
#SAMPLELENGTH:12.000;
#SELECTABLE:YES;
#BPMS:0.000=155.000;
#STOPS:;
#DELAYS:;
#WARPS:;
#TIMESIGNATURES:0.000=4=4;
#TICKCOUNTS:0.000=4;
#COMBOS:0.000=1;
#SPEEDS:0.000=1.000=0.000=0;
#SCROLLS:0.000=1.000;
#FAKES:;
#LABELS:0.000=Song Start;
#BGCHANGES:;
#KEYSOUNDS:;
#ATTACKS:
;

//---------------dance-single - ----------------
#NOTEDATA:;
#CHARTNAME:;
#STEPSTYPE:dance-single;
#DESCRIPTION:;
#CHARTSTYLE:;
#DIFFICULTY:Hard;
#METER:8;
#RADARVALUES:0.724,0.829,0.609,0.782,0.241,381.000,63.000,81.000,0.000,0.000,0.000,0.000,0.000,0.724,0.829,0.609,0.782,0.241,381.000,63.000,81.000,0.000,0.000,0.000,0.000,0.000;
#CREDIT:;
#NOTES:
// measure 0
0000
0000
0000
0000
,  // measure 1
0000
0000
0000
0000
,  // measure 2
0000
0000
0000
0000
,  // measure 3
0000
0000
0000
0000
,  // measure 4
1000
0000
0002
0010
0013
0000
0200
1000
,  // measure 5
1300
0000
0002
0100
0103
0000
0020
1000
,  // measure 6
1030
0000
0000
0000
0002
0000
1000
0000
1003
0000
0000
0000
0010
0000
0000
0100
,  // measure 7
0001
0000
0010
0000
0100
0000
1000
0000
0001
0100
0001
0000
1000
0100
1000
0000
,  // measure 8
0002
0000
0013
0100
2000
0000
3010
0100
,  // measure 9
0002
0203
0320
2030
,  // measure 10
3002
0000
0013
0100
1000
0001
1000
0000
,  // measure 11
0101
1100
2001
3100
,  // measure 12
2000
0000
3100
0010
0002
0000
0103
0010
,  // measure 13
2000
3020
0230
0301
,  // measure 14
1001
0000
0000
0001
0100
0000
1000
0000
0100
0000
0010
0000
1000
0000
0000
0000
,  // measure 15
0001
0010
1000
0100
0001
0000
1001
0000
,  // measure 16
2000
0000
0000
0000
3010
0000
0000
0010
0200
0000
0000
0000
0301
0000
0000
0001
,  // measure 17
2000
0000
0000
0000
3100
0000
0000
0100
0020
0000
0000
0000
0031
0000
0000
0000
,  // measure 18
2000
0000
0000
0000
3010
0000
0000
0010
0002
0000
0000
0000
0013
0000
0000
0000
,  // measure 19
2000
0000
0000
0000
3100
0000
0000
0100
0002
0000
0000
0000
0103
0000
0000
0000
,  // measure 20
2000
0000
0000
0000
3010
0000
0000
0010
0200
0000
0000
0000
0301
0000
0000
0001
,  // measure 21
2000
0000
0000
0000
3100
0000
0000
0100
0020
0000
0000
0000
0031
0000
0000
0000
,  // measure 22
2000
0000
0000
0000
3100
0000
0000
0100
0002
0000
0000
0000
0103
0000
0000
0000
,  // measure 23
1100
0000
0000
0000
0101
0000
0000
0001
2000
0000
0000
0000
3001
0000
0000
0000
,  // measure 24
1010
0000
1020
0000
0000
0000
0130
0000
0101
0000
0101
0000
0001
1000
0001
0000
,  // measure 25
0011
0000
0021
0000
0000
0000
0130
0000
1100
0000
1100
0000
1000
0001
1000
0000
,  // measure 26
0001
0000
0000
0001
0100
0000
0000
0100
1000
0000
0000
1000
0010
0000
0000
0010
,  // measure 27
0002
0000
1003
0100
1000
1000
0001
0001
,  // measure 28
0101
0000
0201
0000
0000
0000
0310
0000
1010
0000
1010
0000
1000
0001
1000
0000
,  // measure 29
1100
0000
1200
0000
0000
0000
0310
0000
0011
0000
0011
0000
0001
1000
0001
0000
,  // measure 30
1000
0000
0000
1000
0100
0000
0000
0100
0001
0000
0000
0001
0010
0000
0000
0010
,  // measure 31
2000
0000
3001
0100
0110
0110
1001
0000
,  // measure 32
0002
0000
0000
0000
0103
0000
0000
0100
0020
0000
0000
0000
1030
0000
0000
1000
,  // measure 33
0002
0000
0000
0000
0013
0000
0000
0010
0200
0000
0000
0000
1300
0000
0000
0000
,  // measure 34
0002
0000
0000
0000
0103
0000
0000
0100
2000
0000
0000
0000
3100
0000
0000
0000
,  // measure 35
0002
0000
0000
0000
0013
0000
0000
0010
2000
0000
0000
0000
3010
0000
0000
0000
,  // measure 36
0002
0000
0000
0000
0103
0000
0000
0100
0020
0000
0000
0000
1030
0000
0000
1000
,  // measure 37
0002
0000
0000
0000
0013
0000
0000
0010
0200
0000
0000
0000
1300
0000
0000
0000
,  // measure 38
0002
0000
0000
0000
0013
0000
0000
0010
2000
0000
0000
0000
3010
0000
0000
0000
,  // measure 39
0011
0000
0000
0000
1010
0000
0000
1000
0002
0000
0000
0000
1003
0000
0000
0000
,  // measure 40
0101
0000
0201
0000
0000
0000
0310
0000
1010
0000
1010
0000
1000
0001
1000
0000
,  // measure 41
1100
0000
1200
0000
0000
0000
0310
0000
0011
0000
0011
0000
0001
1000
0001
0000
,  // measure 42
1000
0000
0000
1000
0010
0000
0000
0010
0001
0000
0000
0001
0100
0000
0000
0100
,  // measure 43
2000
0000
3001
0010
0001
0001
1000
1000
,  // measure 44
1010
0000
1020
0000
0000
0000
0130
0000
0101
0000
0101
0000
0001
1000
0001
0000
,  // measure 45
0011
0000
0021
0000
0000
0000
0130
0000
1100
0000
1100
0000
1000
0001
1000
0000
,  // measure 46
0001
0000
0000
0001
0010
0000
0000
0010
1000
0000
0000
1000
0100
0000
0000
0100
,  // measure 47
0001
0100
1000
0100
0001
0100
1000
0100
,  // measure 48
0002
0000
1003
0000
0110
0110
0110
0000
,  // measure 49
1002
0000
0103
0010
2000
0000
3100
0010
,  // measure 50
0002
0203
0320
1030
,  // measure 51
1001
0000
1000
0010
0100
0100
0100
0000
,  // measure 52
1010
0000
0011
0000
1000
1000
0001
0001
,  // measure 53
2001
0000
3010
0100
0002
0000
0013
0100
,  // measure 54
2000
3020
0230
0301
,  // measure 55
1001
0000
0000
0001
0010
0000
1000
0000
0010
0000
0100
0000
1000
0000
0000
0000
,  // measure 56
0001
0100
1000
0010
0001
0000
1001
0000
,  // measure 57
0102
0000
0013
0100
2000
0000
3010
1000
,  // measure 58
0002
0023
0230
1300
,  // measure 59
1020
0000
0130
0001
0010
0010
0010
0000
,  // measure 60
1100
0000
0101
0000
1000
1000
0001
0001
,  // measure 61
0012
0000
0103
0010
2000
0000
3100
1000
,  // measure 62
0002
0023
0230
1300
,  // measure 63
1001
0000
0000
0001
0100
0000
1000
0000
0100
0000
0010
0000
1000
0000
0000
0000
,  // measure 64
0001
0010
1000
0100
0001
0000
1000
0100
,  // measure 65
0001
0010
1000
0000
1100
0000
0101
0000
,  // measure 66
1001
0000
0000
0000
;

//---------------dance-single - Blank----------------
#NOTEDATA:;
#CHARTNAME:;
#STEPSTYPE:dance-single;
#DESCRIPTION:Blank;
#CHARTSTYLE:;
#DIFFICULTY:Easy;
#METER:4;
#RADARVALUES:0.337,0.510,0.251,0.010,0.000,217.000,26.000,1.000,0.000,0.000,0.000,0.000,0.000,0.337,0.510,0.251,0.010,0.000,217.000,26.000,1.000,0.000,0.000,0.000,0.000,0.000;
#CREDIT:;
#OFFSET:-0.180;
#BPMS:0.000=155.000
;
#STOPS:;
#DELAYS:;
#WARPS:;
#TIMESIGNATURES:0.000=4=4
;
#TICKCOUNTS:0.000=4
;
#COMBOS:0.000=1
;
#SPEEDS:0.000=1.000=0.000=0
;
#SCROLLS:0.000=1.000
;
#FAKES:;
#LABELS:0.000=Song Start
;
#NOTES:
0000
0000
0000
0000
,
0000
0000
0000
0000
,
0000
0000
0000
0000
,
0000
0000
0000
0000
,
1000
0100
0001
0100
,
1000
0010
0001
0010
,
1000
0100
0001
0010
,
1000
0001
0100
0100
,
0001
0000
0010
0000
,
0100
1000
0001
1000
,
0100
0000
1000
0000
,
0010
0010
0010
0000
,
0100
0000
0001
0000
,
0010
0100
0010
0001
,
1000
0010
0100
0001
,
1001
1001
1001
0000
,
0001
0010
0100
1000
,
0100
0010
0001
0000
,
1000
0010
1000
0000
,
0001
0010
0001
0000
,
1000
0010
0100
0001
,
0100
0010
1000
0000
,
0001
0100
0001
0000
,
1001
1001
1001
0000
,
0001
0001
0010
0000
,
1000
1000
0010
0000
,
0001
0100
0010
1000
,
0001
0010
0100
1000
,
0001
0001
0100
0000
,
1000
1000
0100
0000
,
0001
0010
0100
1000
,
0001
1000
1001
1001
,
1000
0100
0010
0001
,
0010
0100
1000
0000
,
0001
0100
0001
0000
,
1000
0100
1000
0000
,
0001
0100
0010
1000
,
0010
0100
0001
0000
,
1000
0010
1000
0000
,
1001
1001
1001
0000
,
1000
1000
0100
0000
,
0001
0001
0100
0000
,
1000
0010
0100
0001
,
1000
0100
0010
0001
,
1000
1000
0010
0000
,
0001
0001
0010
0000
,
1000
0100
0010
0001
,
1000
0100
0001
0010
,
2000
3000
0101
1100
,
0001
0010
1000
0010
,
0100
1000
0010
0100
,
0001
0010
1000
0010
,
0100
1000
1001
0000
,
1000
0010
0001
0010
,
0100
0001
0010
1000
,
0010
0001
0100
0010
,
1001
1001
1001
0000
,
0001
0100
1000
0100
,
0010
1000
0100
0001
,
0100
0010
0001
1000
,
0100
1000
0010
0000
,
0100
0001
0010
1000
,
0010
0100
1000
0001
,
0100
0010
1000
0001
,
0101
0101
0101
1100
,
1100
1100
0110
0110
,
1001
0000
0000
0000
;

//---------------dance-single - Blank----------------
#NOTEDATA:;
#CHARTNAME:;
#STEPSTYPE:dance-single;
#DESCRIPTION:Blank;
#CHARTSTYLE:;
#DIFFICULTY:Medium;
#METER:6;
#RADARVALUES:0.564,0.510,0.261,0.937,0.000,285.000,27.000,97.000,0.000,0.000,0.000,0.000,0.000,0.564,0.510,0.261,0.937,0.000,285.000,27.000,97.000,0.000,0.000,0.000,0.000,0.000;
#CREDIT:;
#NOTES:
0000
0000
0000
0000
,
0000
0000
0000
0000
,
0000
0000
0000
0000
,
0000
0000
0000
0000
,
1000
0000
0001
0100
0001
0000
1000
0100
,
1000
0000
0001
0010
0001
0000
1000
0010
,
1000
0000
0001
1000
0001
0000
0100
0000
,
0001
0010
0100
1000
0001
0001
1000
1000
,
0002
0103
0020
1030
,
0002
0023
0230
2300
,
3002
0103
0020
1030
,
1010
0101
2002
3003
,
2000
3000
0100
0000
0020
0000
0031
0000
,
2000
3020
0230
0301
,
0101
0000
1100
0000
0001
0001
0001
0000
,
1000
0010
0100
0001
1000
0000
1001
0000
,
0002
0013
2000
3010
,
0002
0203
0320
1030
,
0002
0203
2300
3100
,
0020
2030
3002
0103
,
0002
0103
2000
3100
,
0002
0023
0230
1300
,
0002
0013
2000
3010
,
1001
0110
2002
3003
,
1000
2000
0000
3000
0010
0010
0000
0000
,
0100
0200
0000
0300
0001
0001
0000
0000
,
2000
3200
0302
0023
,
2030
0000
3001
0000
0100
0010
0100
0000
,
0001
0002
0000
0003
0100
0100
0000
0000
,
0010
0020
0000
0030
1000
1000
0000
0000
,
0002
0023
2030
3200
,
0302
0000
1003
0000
0010
0100
1001
0000
,
2000
3100
0002
0103
,
2000
3020
0230
0301
,
2000
3020
0032
0013
,
0200
0302
2003
3010
,
2000
3010
0002
0013
,
2000
3200
0320
0031
,
2000
3100
0002
0103
,
1001
0110
2002
3003
,
0001
0002
0000
0003
0100
0100
0000
0000
,
0010
0020
0000
0030
1000
1000
0000
0000
,
0002
0023
2030
3200
,
0302
0000
1003
0000
0010
0100
0010
0000
,
1000
2000
0000
3000
0010
0010
0000
0000
,
0100
0200
0000
0300
0001
0001
0000
0000
,
2000
3200
0302
0023
,
1030
0001
1000
0001
1000
0001
1000
0001
,
2000
0000
0000
0000
0100
0100
3100
0000
,
1000
0000
0010
0100
0001
0000
0100
0010
,
2000
3200
0320
0031
,
1000
0000
0010
0100
0001
1000
0001
0000
,
0011
1100
1002
0103
,
0001
0000
0100
0010
1000
0000
0010
0100
,
0002
0023
0230
1300
,
1100
0000
0101
0000
1000
1000
1000
0000
,
0001
0010
0100
1000
0001
0000
1001
0000
,
0001
0000
0100
0010
1000
0000
0010
0100
,
0002
0023
0230
1300
,
0001
0000
0100
0010
1000
0001
1000
0000
,
1100
0011
2001
3010
,
1000
0000
0010
0100
0001
0000
0100
0010
,
2000
3200
0320
0031
,
0011
0000
1010
0000
0001
0001
0001
0000
,
1000
0100
0010
0001
1000
0000
0001
0100
,
0010
1000
0001
0000
1100
0000
0101
0000
,
1001
0000
0000
0000
;
