#VERSION:0.81;
#TITLE:ルカルカ★ナイトフィーバー;
#SUBTITLE:;
#ARTIST:samfree;
#TITLETRANSLIT:Luka Luka★Night Fever;
#SUBTITLETRANSLIT:;
#ARTISTTRANSLIT:;
#GENRE:;
#ORIGIN:;
#CREDIT:;
#BANNER:Luka Luka Night Fever.png;
#BACKGROUND:Luka Luka Night Fever-bg.png;
#PREVIEWVID:;
#JACKET:Luka Luka Night Fever-jacket.png;
#CDIMAGE:;
#DISCIMAGE:;
#LYRICSPATH:;
#CDTITLE:;
#MUSIC:Luka Luka Night Fever.mp3;
#OFFSET:-0.301;
#SAMPLESTART:49.760;
#SAMPLELENGTH:16.600;
#SELECTABLE:YES;
#BPMS:0.000=160.000;
#STOPS:;
#DELAYS:;
#WARPS:;
#TIMESIGNATURES:0.000=4=4;
#TICKCOUNTS:0.000=4;
#COMBOS:0.000=1;
#SPEEDS:0.000=1.000=0.000=0;
#SCROLLS:0.000=1.000;
#FAKES:;
#LABELS:0.000=Song Start;
#BGCHANGES:;
#KEYSOUNDS:;
#ATTACKS:
;

//---------------dance-single - ----------------
#NOTEDATA:;
#CHARTNAME:;
#STEPSTYPE:dance-single;
#DESCRIPTION:;
#CHARTSTYLE:;
#DIFFICULTY:Hard;
#METER:8;
#RADARVALUES:0.651,0.562,0.499,0.425,0.042,342.000,47.000,40.000,0.000,0.000,0.000,0.000,0.000,0.651,0.562,0.499,0.425,0.042,342.000,47.000,40.000,0.000,0.000,0.000,0.000,0.000;
#CREDIT:;
#NOTES:
// measure 0
0000
0000
0000
0000
,  // measure 1
1000
0000
0010
0000
0100
0000
0001
2000
0000
0000
3000
0000
0100
0000
0100
0000
,  // measure 2
1000
1000
0010
0010
0100
0100
0001
0001
,  // measure 3
1000
0000
0100
0000
0010
0000
0001
2000
0000
0000
3000
0000
0010
0000
0010
0000
,  // measure 4
1000
0100
0001
0100
1100
0000
0101
0000
,  // measure 5
0001
0000
0100
0000
0010
0000
1000
0002
0000
0000
0003
0000
0010
0000
0010
0000
,  // measure 6
0001
0001
0100
0100
0010
0010
1000
1000
,  // measure 7
0001
0000
0010
0000
0100
0000
1000
0002
0000
0000
0003
0000
0100
0000
0100
0000
,  // measure 8
0001
0010
1000
0010
0011
0000
1010
0000
,  // measure 9
0001
0100
0100
0000
0010
0010
0000
1000
,  // measure 10
0001
0010
1000
0000
0020
0000
0130
0000
,  // measure 11
1000
0010
0010
0000
0100
0100
0000
0002
,  // measure 12
0000
0100
0103
0000
2000
0000
3100
0000
,  // measure 13
0010
1000
1000
0000
0001
0001
0000
0010
,  // measure 14
0001
0100
1000
0000
0200
0000
0310
0010
,  // measure 15
2000
0000
3200
0000
0320
0000
0031
0002
,  // measure 16
0000
1000
1003
0000
0101
0000
1100
0000
,  // measure 17
1000
0010
0010
0000
0100
0100
0000
0001
,  // measure 18
1000
0100
0001
0000
0200
0000
0310
0000
,  // measure 19
0001
0100
0100
0000
0010
0010
0000
1000
,  // measure 20
0001
0010
1000
0000
0020
0000
0130
0000
,  // measure 21
0010
0001
0001
0000
1000
1000
0000
0100
,  // measure 22
1000
0010
0001
0000
0020
0000
0130
0000
,  // measure 23
0002
0000
0023
0000
0230
0000
1300
2000
,  // measure 24
0000
0001
3001
0000
1010
0000
0011
0001
,  // measure 25
0101
0000
0011
0000
1001
0000
0001
1000
,  // measure 26
1100
0000
1010
0000
1001
0000
1000
0001
,  // measure 27
1000
0100
0100
0000
0001
0100
0100
0000
,  // measure 28
1000
0010
0100
0001
1000
0100
0010
0001
,  // measure 29
1001
0000
0002
0000
0023
0000
0130
0100
,  // measure 30
0200
0000
2300
0000
3020
0000
0130
0001
,  // measure 31
1000
0000
0100
1000
0001
0000
0010
0012
,  // measure 32
0000
0010
0010
0100
0103
0000
1001
0000
,  // measure 33
0001
0100
0101
0000
1000
0100
1100
0000
,  // measure 34
0001
0010
1000
0010
0002
0000
1003
0000
,  // measure 35
0001
0010
0011
0000
1000
0010
1010
0000
,  // measure 36
0001
0100
0010
1000
0001
0001
1000
1000
,  // measure 37
0000
0001
0010
1000
0010
0100
0000
1000
,  // measure 38
0010
0001
0010
0000
0200
0000
0301
0000
,  // measure 39
0011
0000
0110
0000
1100
0000
1000
0020
,  // measure 40
0000
0230
0000
0301
0101
0000
1100
0000
,  // measure 41
0001
0010
1100
0000
0001
0100
1010
0000
,  // measure 42
0001
0100
1000
0100
0020
0000
1030
0000
,  // measure 43
0001
0100
1010
0000
0001
0010
1100
0000
,  // measure 44
0001
0010
1000
0010
0100
0100
1000
1000
,  // measure 45
0000
0001
0100
1000
0100
0010
0000
1000
,  // measure 46
0100
0001
0100
0000
0020
0000
0031
0000
,  // measure 47
2000
0000
3020
0000
0230
0000
0301
1001
,  // measure 48
0000
1100
1100
0101
0101
0000
1001
0000
,  // measure 49
0001
0000
0100
0000
0010
0000
1000
0002
0000
0000
0003
0000
0010
0000
0010
0000
,  // measure 50
0001
0001
0100
0100
0010
0010
1000
1000
,  // measure 51
0001
0000
0010
0000
0100
0000
1000
0002
0000
0000
0003
0000
0100
0000
0100
0000
,  // measure 52
0001
0010
1000
0010
0011
0000
1010
0000
,  // measure 53
1000
0000
0010
0000
0100
0000
0001
2000
0000
0000
3000
0000
0100
0000
0100
0000
,  // measure 54
1000
1000
0010
0010
0100
0100
0001
0001
,  // measure 55
1000
0000
0100
0000
0010
0000
0001
2000
0000
0000
3000
0000
0010
0000
0010
0000
,  // measure 56
1000
0100
0001
0100
1100
0000
0101
0000
,  // measure 57
2002
0000
0000
0000
0000
0000
3003
0110
,  // measure 58
0000
1100
1100
0101
0101
0000
1001
0000
;

//---------------dance-single - Blank----------------
#NOTEDATA:;
#CHARTNAME:;
#STEPSTYPE:dance-single;
#DESCRIPTION:Blank;
#CHARTSTYLE:;
#DIFFICULTY:Easy;
#METER:4;
#RADARVALUES:0.322,0.281,0.096,0.021,0.000,201.000,9.000,2.000,0.000,0.000,0.000,0.000,0.000,0.322,0.281,0.096,0.021,0.000,201.000,9.000,2.000,0.000,0.000,0.000,0.000,0.000;
#CREDIT:;
#NOTES:
0000
0000
0000
0000
,
1000
0010
0100
0001
,
1000
1000
0001
0001
,
1000
0100
0010
0001
,
1000
1000
0001
1001
,
0001
0010
1000
0010
,
0100
0100
0010
0010
,
0001
0100
1000
0100
,
0010
0010
0100
1001
,
0001
0000
0010
0000
,
0100
1000
0001
0000
,
1000
0000
0010
0000
,
0100
0001
1000
0000
,
0001
0000
0100
0000
,
0010
1000
0001
0000
,
1000
0100
0010
0001
,
1000
0010
0100
0100
,
0001
0000
1000
0000
,
0010
0100
0001
0000
,
1000
0000
0001
0000
,
0010
0100
1000
0000
,
0100
0000
0010
0000
,
0001
1000
0010
0000
,
0100
0001
0010
1000
,
0010
0001
1000
1000
,
0001
0100
0101
0000
,
1000
0100
1100
0000
,
0001
0001
1000
1000
,
0010
0010
0100
0100
,
0001
0010
1000
0010
,
0001
0100
1000
0100
,
0010
0010
0100
0100
,
0001
1000
1001
0000
,
1000
1000
0001
0001
,
0010
0100
0010
0000
,
0001
0001
1000
1000
,
0010
0100
0001
1000
,
0000
0001
0010
1000
,
0001
0100
1000
0000
,
0001
0100
1000
0100
,
0010
1000
0001
0000
,
1000
1000
0001
0001
,
0010
0100
0010
0000
,
0001
0001
1000
1000
,
0010
0100
0001
1000
,
0000
0001
0010
1000
,
0001
0100
1000
0000
,
0001
0100
1000
0100
,
0010
1000
0001
1001
,
1000
0010
0100
0001
,
1000
1000
0001
0001
,
1000
0100
0010
0001
,
1000
1000
0001
1001
,
0001
0010
1000
0010
,
0100
0100
0010
0010
,
0001
0100
1000
0100
,
0010
0010
0100
0001
,
2002
0000
0000
3003
,
1000
0010
0100
1001
;

//---------------dance-single - Blank----------------
#NOTEDATA:;
#CHARTNAME:;
#STEPSTYPE:dance-single;
#DESCRIPTION:Blank;
#CHARTSTYLE:;
#DIFFICULTY:Medium;
#METER:6;
#RADARVALUES:0.502,0.468,0.446,0.266,0.000,264.000,42.000,25.000,0.000,0.000,0.000,0.000,0.000,0.502,0.468,0.446,0.266,0.000,264.000,42.000,25.000,0.000,0.000,0.000,0.000,0.000;
#CREDIT:;
#NOTES:
// measure 0
0000
0000
0000
0000
,  // measure 1
1000
0100
1000
0000
0100
0000
0010
0000
,  // measure 2
0001
0001
1000
1000
,  // measure 3
0001
0100
0001
0000
0100
0000
0010
0000
,  // measure 4
1000
0001
1001
1001
,  // measure 5
0001
0010
0001
0000
0010
0000
0100
0000
,  // measure 6
1000
1000
0001
0001
,  // measure 7
1000
0010
1000
0000
0010
0000
0100
0000
,  // measure 8
0001
1000
1001
1001
,  // measure 9
1000
0100
0001
0100
,  // measure 10
1000
0001
1000
0000
0020
0000
0130
0000
,  // measure 11
0001
0010
1000
0010
,  // measure 12
0001
1000
0001
0000
0200
0000
0310
0000
,  // measure 13
1000
0100
0001
0010
,  // measure 14
0001
0100
0001
0000
0200
0000
1300
0000
,  // measure 15
1010
1010
0101
0101
,  // measure 16
0001
1000
0001
0000
0011
0000
1100
0000
,  // measure 17
0001
0010
1000
0010
,  // measure 18
0001
1000
0001
0000
0200
0000
0310
0000
,  // measure 19
1000
0100
0001
0100
,  // measure 20
1000
0001
1000
0000
0020
0000
0130
0000
,  // measure 21
0001
0010
1000
0100
,  // measure 22
1000
0010
1000
0000
0020
0000
0031
0000
,  // measure 23
0101
0101
1010
1010
,  // measure 24
1000
0001
1000
0000
1100
0000
0011
0000
,  // measure 25
0101
0101
0102
1003
,  // measure 26
1100
1100
2100
3001
,  // measure 27
1000
0010
1000
0000
0001
0100
0001
0000
,  // measure 28
1000
0100
1000
0000
0001
0010
0001
0000
,  // measure 29
1001
0001
0100
1000
,  // measure 30
0100
0001
0010
0100
,  // measure 31
2000
3010
0002
0013
,  // measure 32
1000
0010
0100
0001
1000
0000
1001
0000
,  // measure 33
1000
1100
0001
0101
,  // measure 34
1000
0001
1000
0000
0020
0000
0130
0000
,  // measure 35
0001
0011
1000
1010
,  // measure 36
0001
0100
0010
0000
1000
0010
0100
0000
,  // measure 37
0002
0013
2000
3010
,  // measure 38
0001
1000
0001
0000
0200
0000
0310
0000
,  // measure 39
2000
3100
0002
0103
,  // measure 40
1000
0010
0100
0000
0101
0000
1100
0000
,  // measure 41
0001
0011
1000
1010
,  // measure 42
0001
1000
0001
0000
0200
0000
0310
0000
,  // measure 43
1000
1100
0001
0101
,  // measure 44
1000
0010
0100
0000
0001
0100
0010
0000
,  // measure 45
2000
3100
0002
0103
,  // measure 46
1000
0001
1000
0000
0020
0000
0130
0000
,  // measure 47
0002
0000
0023
0000
0230
0000
1300
0001
,  // measure 48
0000
0001
1000
0010
0100
0000
1001
0000
,  // measure 49
1000
0100
1000
0000
0100
0000
0010
0000
,  // measure 50
0001
0001
1000
1000
,  // measure 51
0001
0100
0001
0000
0100
0000
0010
0000
,  // measure 52
1000
0001
1001
1001
,  // measure 53
0001
0010
0001
0000
0010
0000
0100
0000
,  // measure 54
1000
1000
0001
0001
,  // measure 55
1000
0010
1000
0000
0010
0000
0100
0000
,  // measure 56
0001
1000
1001
1001
,  // measure 57
0220
0000
0000
0000
0000
0000
0330
1001
,  // measure 58
0000
0001
0100
0010
1000
0000
1001
0000
;
