#TITLE:Light up my LOVE;
#SUBTITLE:;
#ARTIST:ani feat. moco;
#TITLETRANSLIT:;
#SUBTITLETRANSLIT:;
#ARTISTTRANSLIT:;
#GENRE:;
#CREDIT:;
#BANNER:Light up my LOVE.png;
#BACKGROUND:Light up my LOVE-bg.png;
#LYRICSPATH:;
#CDTITLE:;
#MUSIC:Light up my LOVE.mp3;
#OFFSET:-1.563;
#SAMPLESTART:82.920;
#SAMPLELENGTH:12.000;
#SELECTABLE:YES;
#BPMS:0.000=171.000
;
#STOPS:
;
#BGCHANGES:;
#KEYSOUNDS:;
#ATTACKS:;

//---------------dance-single - ----------------
#NOTES:
     dance-single:
     :
     Hard:
     8:
     0.645,0.622,0.546,0.471,0.004,416.000,65.000,56.000,0.000,0.000,0.000,0.645,0.622,0.546,0.471,0.004,416.000,65.000,56.000,0.000,0.000,0.000: // measure 0
0000
0000
0000
0000
,  // measure 1
0000
0000
0000
0000
,  // measure 2
0000
0000
0000
0000
,  // measure 3
0000
0000
0000
0000
,  // measure 4
0000
0000
0000
0000
,  // measure 5
0000
0000
0000
0000
,  // measure 6
0000
0000
1000
0000
0010
0100
0000
0001
,  // measure 7
0000
0010
0100
0000
2002
0000
0000
0000
,  // measure 8
0000
0000
0000
0000
,  // measure 9
0000
0000
3003
0110
,  // measure 10
0010
1000
1100
0000
0011
0000
0101
0000
,  // measure 11
2010
0000
3001
0000
1000
0100
0001
0100
,  // measure 12
0010
0011
1100
0101
,  // measure 13
2010
0000
3001
0000
1000
0010
0001
0010
,  // measure 14
0100
0101
1010
0011
,  // measure 15
2100
0000
3001
0000
1000
0010
0001
0010
,  // measure 16
0100
0000
0002
0000
0010
0013
0000
0200
,  // measure 17
0000
1000
1300
0000
2010
0000
3001
0000
,  // measure 18
0100
0001
0011
0000
1100
0000
1010
0000
,  // measure 19
0102
0000
1003
0000
0001
0010
1000
0010
,  // measure 20
0100
1100
0011
1010
,  // measure 21
0102
0000
1003
0000
0001
0100
1000
0100
,  // measure 22
0010
1010
0101
1100
,  // measure 23
0012
0000
1003
0000
0001
0100
1000
0100
,  // measure 24
0010
0000
2000
0000
0100
3100
0000
0020
,  // measure 25
0000
0001
0031
0000
1000
0010
0100
1001
,  // measure 26
0000
1000
0100
0001
0100
1000
0000
1000
,  // measure 27
0000
0001
0100
1000
0100
0001
0000
0001
,  // measure 28
0000
1000
0010
0001
0010
1000
0000
1000
,  // measure 29
0000
0001
0010
1000
0010
0010
0010
1001
,  // measure 30
0000
0001
0100
1000
0100
0010
0000
0010
,  // measure 31
0000
1000
0100
0001
0100
0010
0000
0010
,  // measure 32
0000
0001
0010
1000
0010
0100
0000
0100
,  // measure 33
0000
0010
0001
0100
0010
0010
0010
2001
,  // measure 34
0000
3000
0001
0010
0100
1000
0000
0002
,  // measure 35
0000
0003
1000
0010
0100
0001
0000
2000
,  // measure 36
0000
3100
0001
0100
0010
0001
0000
0101
,  // measure 37
0000
1010
0000
0011
0000
1100
0000
1002
,  // measure 38
0000
1003
0100
0010
0001
1000
0000
2000
,  // measure 39
0000
3010
0100
0001
1000
0001
0000
0002
,  // measure 40
0000
1003
0010
0100
1000
0000
0100
0020
,  // measure 41
0000
0230
0000
0302
0000
1000
1003
0000
,  // measure 42
2001
0000
0000
0100
3200
0000
2300
0000
,  // measure 43
3020
0230
0302
0023
,  // measure 44
0230
0000
0000
0010
0310
0000
1001
0000
,  // measure 45
0020
0000
0000
0100
0130
0010
1000
0001
,  // measure 46
0020
0000
0000
0001
0031
0000
1000
0200
,  // measure 47
0000
1000
0300
1000
1000
0010
0100
0001
,  // measure 48
2000
0000
3010
0010
0002
0000
0013
0010
,  // measure 49
2000
0000
3100
0100
0001
0001
0100
1000
,  // measure 50
1002
0000
0000
0010
0023
0000
0032
0000
,  // measure 51
0203
0320
2030
3200
,  // measure 52
0320
0000
0000
0100
0130
0000
1001
0000
,  // measure 53
0200
0000
0000
0010
0310
0000
1001
0000
,  // measure 54
1000
0100
0001
0100
1000
0001
0000
1001
,  // measure 55
0000
0001
0100
1000
0100
0001
0000
1001
,  // measure 56
0000
1000
0010
0001
1000
0100
0001
2000
,  // measure 57
0000
0001
0001
0001
3001
0000
0110
0000
,  // measure 58
0010
1000
1100
0000
0011
0000
0101
0000
,  // measure 59
2010
0000
3001
0000
1000
0100
0001
0100
,  // measure 60
0010
0011
1100
0101
,  // measure 61
2010
0000
3001
0000
1000
0010
0001
0010
,  // measure 62
0100
0101
1010
0011
,  // measure 63
2100
0000
3001
0000
1000
0010
0001
0010
,  // measure 64
0100
0000
0002
0000
0010
0013
0000
0200
,  // measure 65
0000
1000
1300
0000
2010
0000
3001
0000
,  // measure 66
1000
0010
1000
0010
0100
0001
0100
0001
,  // measure 67
1000
0100
1000
0100
0010
0001
0010
0001
,  // measure 68
1000
0100
1000
0100
0001
0100
0001
0100
,  // measure 69
1000
0010
1000
0010
0001
0010
0001
0010
,  // measure 70
1000
0010
0100
0001
1000
0100
0010
0001
,  // measure 71
1000
0100
0001
0100
1000
0010
0001
0010
,  // measure 72
0100
0000
0102
0000
1000
1003
0000
2100
,  // measure 73
0000
0000
0001
0000
3001
0000
1000
0010
0100
0000
0001
0000
1000
0000
1001
0000
,  // measure 74
0000
1000
0100
0001
0100
1000
0000
1000
,  // measure 75
0000
0001
0100
1000
0100
1001
0000
1001
,  // measure 76
0000
1000
0010
0001
0010
1000
0000
1000
,  // measure 77
0000
0001
0010
1000
0010
0010
0010
1001
,  // measure 78
0000
0001
0100
1000
0100
0010
0000
0010
,  // measure 79
0000
1000
0100
0001
0100
0110
0000
1001
,  // measure 80
0000
0001
0010
1000
0010
0100
0000
0100
,  // measure 81
0000
0010
0001
0100
0010
0010
0010
2002
,  // measure 82
0000
3003
0000
0000
;

//---------------dance-single - Blank----------------
#NOTES:
     dance-single:
     :
     Easy:
     4:
     0.290,0.275,0.000,0.008,0.000,241.000,0.000,1.000,0.000,0.000,0.000,0.290,0.275,0.000,0.008,0.000,241.000,0.000,1.000,0.000,0.000,0.000: // measure 0
0000
0000
0000
0000
,  // measure 1
0000
0000
0000
0000
,  // measure 2
0000
0000
0000
0000
,  // measure 3
0000
0000
0000
0000
,  // measure 4
0000
0000
0000
0000
,  // measure 5
0000
0000
0000
0000
,  // measure 6
0000
1000
1000
0000
,  // measure 7
0001
0001
0002
0000
,  // measure 8
0000
0000
0000
0000
,  // measure 9
0000
0000
0003
1000
,  // measure 10
0001
0100
0010
1000
,  // measure 11
0001
0000
1000
1000
,  // measure 12
1000
0001
0010
0100
,  // measure 13
1000
0000
0001
0001
,  // measure 14
0001
1000
0010
0001
,  // measure 15
0010
0000
0100
0100
,  // measure 16
0100
0001
0010
1000
,  // measure 17
0001
0100
1000
0000
,  // measure 18
0001
0100
0010
1000
,  // measure 19
0001
0000
1000
1000
,  // measure 20
1000
0001
0010
0100
,  // measure 21
1000
0000
0001
0001
,  // measure 22
0001
1000
0010
0001
,  // measure 23
0010
0000
0100
0100
,  // measure 24
0100
0001
0010
1000
,  // measure 25
0001
0100
1000
0000
,  // measure 26
0001
0100
0001
0000
,  // measure 27
1000
0100
1000
0000
,  // measure 28
0001
0010
0001
0000
,  // measure 29
1000
0010
1000
1000
,  // measure 30
0001
0100
0010
0000
,  // measure 31
1000
0010
0100
0000
,  // measure 32
0001
0010
0100
0000
,  // measure 33
1000
0100
0010
0001
,  // measure 34
1000
1000
0100
0000
,  // measure 35
0001
0001
0100
0000
,  // measure 36
1000
0010
0100
0001
,  // measure 37
1000
1000
0001
0001
,  // measure 38
1000
1000
0010
0000
,  // measure 39
0001
0001
0010
0000
,  // measure 40
1000
0100
0010
0001
,  // measure 41
1000
1000
0001
0001
,  // measure 42
0100
0000
0100
0000
,  // measure 43
0010
0000
0010
0000
,  // measure 44
1000
0000
1000
0000
,  // measure 45
0001
0000
0001
0000
,  // measure 46
0010
0000
0010
0000
,  // measure 47
0100
0000
0100
0000
,  // measure 48
1000
0000
1000
0000
,  // measure 49
0001
0000
0001
0000
,  // measure 50
1000
0000
0010
0000
,  // measure 51
0100
0001
0100
0000
,  // measure 52
0001
0000
0010
0000
,  // measure 53
0100
1000
0100
0000
,  // measure 54
1000
1000
0001
0000
,  // measure 55
0100
0100
0010
0000
,  // measure 56
1000
0100
0001
0100
,  // measure 57
1000
1000
0001
0000
,  // measure 58
1000
0010
0100
0001
,  // measure 59
1000
0000
0001
0001
,  // measure 60
0001
1000
0100
0010
,  // measure 61
0001
0000
1000
1000
,  // measure 62
1000
0001
0100
1000
,  // measure 63
0100
0000
0010
0010
,  // measure 64
0010
1000
0100
0001
,  // measure 65
1000
0010
0001
0000
,  // measure 66
1000
0010
1000
0010
,  // measure 67
0100
0001
0100
0001
,  // measure 68
1000
0100
1000
0100
,  // measure 69
0010
0001
0010
0001
,  // measure 70
1000
0010
0001
0010
,  // measure 71
1000
0100
0001
0100
,  // measure 72
1000
0010
0001
0100
,  // measure 73
1000
0001
1000
0000
,  // measure 74
0001
0100
0001
0000
,  // measure 75
1000
0100
1000
0000
,  // measure 76
0001
0010
0001
0000
,  // measure 77
1000
0010
1000
1000
,  // measure 78
0001
0100
0010
0000
,  // measure 79
1000
0010
0100
0000
,  // measure 80
0001
0010
0100
0000
,  // measure 81
1000
0000
0100
0000
0010
0000
0001
0001
;

//---------------dance-single - Blank----------------
#NOTES:
     dance-single:
     :
     Medium:
     6:
     0.495,0.553,0.210,0.613,0.000,314.000,25.000,73.000,0.000,0.000,0.000,0.495,0.553,0.210,0.613,0.000,314.000,25.000,73.000,0.000,0.000,0.000: // measure 0
0000
0000
0000
0000
,  // measure 1
0000
0000
0000
0000
,  // measure 2
0000
0000
0000
0000
,  // measure 3
0000
0000
0000
0000
,  // measure 4
0000
0000
0000
0000
,  // measure 5
0000
0000
0000
0000
,  // measure 6
0000
0000
1000
0000
0010
0100
0000
0001
,  // measure 7
0000
0100
0010
0000
2000
0000
0000
0000
,  // measure 8
0000
0000
0000
0000
,  // measure 9
0000
0000
3000
1001
,  // measure 10
1100
2000
3020
0230
,  // measure 11
0302
0000
1003
0000
0010
0100
0010
0000
,  // measure 12
1000
0002
0023
0230
,  // measure 13
2300
0000
3001
0000
0100
0010
0100
0000
,  // measure 14
0001
2000
3200
0302
,  // measure 15
0203
0000
0310
0000
0001
1000
0001
0000
,  // measure 16
1000
0000
0001
0000
0100
0010
0000
1000
,  // measure 17
0000
0001
0010
0000
0200
0000
1300
0000
,  // measure 18
0011
0002
0203
0320
,  // measure 19
2030
0000
3001
0000
0100
0010
0100
0000
,  // measure 20
0001
2000
3200
0320
,  // measure 21
0032
0000
1003
0000
0010
0100
0010
0000
,  // measure 22
1000
0002
0023
2030
,  // measure 23
3020
0000
0130
0000
1000
0001
1000
0000
,  // measure 24
0001
0000
1000
0000
0010
0100
0000
0001
,  // measure 25
0000
1000
0100
0000
0020
0000
0031
0000
,  // measure 26
1000
0000
0010
0000
0100
0001
0100
0000
,  // measure 27
0001
0000
0010
0000
0100
1000
0100
0000
,  // measure 28
1000
0000
0010
0000
0100
0001
1000
0000
,  // measure 29
0001
0000
0010
0000
0100
1000
0000
2001
,  // measure 30
0000
0000
3100
0000
1000
0010
0100
0000
,  // measure 31
0001
0000
1000
0000
0001
0010
0100
0000
,  // measure 32
1000
0000
0001
0000
1000
0100
0001
0000
,  // measure 33
0100
0000
1000
0000
0001
1000
0001
2000
,  // measure 34
0000
0000
3010
0000
0100
0001
0000
2000
,  // measure 35
0000
0000
3100
0000
0010
0001
0000
1000
,  // measure 36
0000
0010
0100
0000
0010
0100
0000
0001
,  // measure 37
0000
0001
0000
1000
0000
1000
0000
0001
,  // measure 38
0000
0010
0100
0000
0010
0100
0000
1000
,  // measure 39
0000
0010
0100
0000
0010
0100
0000
0001
,  // measure 40
0000
1000
0100
0000
1000
0000
0001
0100
,  // measure 41
0000
0100
0000
0010
0000
0010
1000
0000
,  // measure 42
0002
0003
0020
0030
,  // measure 43
0200
0300
2000
3000
,  // measure 44
0002
0003
0200
0300
,  // measure 45
0020
0030
1000
0001
,  // measure 46
2000
3000
0200
0300
,  // measure 47
0020
0030
0002
0003
,  // measure 48
2000
3020
0032
0023
,  // measure 49
2030
3200
0302
0203
,  // measure 50
2300
3000
0020
0030
,  // measure 51
0200
0300
0002
0003
,  // measure 52
2000
3000
0200
0300
,  // measure 53
0020
0030
0002
0003
,  // measure 54
1000
0000
0010
0000
1000
0010
0000
0100
,  // measure 55
0000
0000
0001
0000
0100
0001
0000
1000
,  // measure 56
0000
0000
0001
0000
0010
0000
0100
1000
,  // measure 57
0000
0010
0000
0100
0001
0000
1001
0000
,  // measure 58
1100
2000
3020
0230
,  // measure 59
0302
0000
1003
0000
0010
0100
0010
0000
,  // measure 60
1000
0002
0023
0230
,  // measure 61
2300
0000
3001
0000
0100
0010
0100
0000
,  // measure 62
0001
2000
3200
0302
,  // measure 63
0203
0000
0310
0000
0001
1000
0001
0000
,  // measure 64
1000
0000
0001
0000
0100
0010
0000
1000
,  // measure 65
0000
0001
0010
0000
0200
0000
1300
0000
,  // measure 66
0101
0101
1100
1100
,  // measure 67
1001
0000
1001
0000
1000
0010
0100
0000
,  // measure 68
0011
0011
1010
1010
,  // measure 69
1001
0000
1001
0000
0001
0010
0100
0000
,  // measure 70
1100
0011
0101
1010
,  // measure 71
1001
0000
0110
0000
0001
0010
0100
0000
,  // measure 72
1000
0000
0001
0000
0100
1000
0000
0001
,  // measure 73
0000
0010
1000
0000
0002
0000
1003
0000
,  // measure 74
0001
0000
0100
0000
0010
1000
0010
0000
,  // measure 75
1000
0000
0100
0000
0010
0001
0010
0000
,  // measure 76
0001
0000
0100
0000
0010
1000
0001
0000
,  // measure 77
1000
0000
0100
0000
0010
0001
0000
1002
,  // measure 78
0000
0000
0013
0000
0001
0100
0010
0000
,  // measure 79
1000
0000
0001
0000
1000
0100
0010
0000
,  // measure 80
0001
0000
1000
0000
0001
0010
1000
0000
,  // measure 81
0010
0000
0001
0000
1000
0001
1000
0002
,  // measure 82
0000
0003
0000
0000
;
