#TITLE:Light and Cyber...;
#SUBTITLE:;
#ARTIST:Tatsh;
#TITLETRANSLIT:;
#SUBTITLETRANSLIT:;
#ARTISTTRANSLIT:;
#GENRE:;
#CREDIT:;
#BANNER:Light and Cyber.png;
#BACKGROUND:Light and Cyber-bg.png;
#JACKET:Light and Cyber-jacket.png;
#LYRICSPATH:;
#CDTITLE:;
#MUSIC:Light and Cyber.mp3;
#OFFSET:-1.861;
#SAMPLESTART:62.480;
#SAMPLELENGTH:17.220;
#SELECTABLE:YES;
#BPMS:0.000=181.000
,22.000=361.999
,24.000=181.000
,152.000=90.500
,168.000=181.000
,332.000=90.500
;
#STOPS:
;
#BGCHANGES:;
#KEYSOUNDS:;
#ATTACKS:;

//---------------dance-single - Copied from----------------
#NOTES:
     dance-single:
     Copied from:
     Challenge:
     10:
     0.962,0.963,0.130,0.163,0.953,791.000,16.000,20.000,0.000,0.000,0.000,0.962,0.963,0.130,0.163,0.953,791.000,16.000,20.000,0.000,0.000,0.000:
1000
0000
0100
0000
0010
0001
0000
0010
0000
0000
0001
0000
0100
0001
0000
0100
,
0000
0000
0010
0000
1000
0010
0000
1000
0000
0000
0100
0000
1000
0100
0000
1000
,
0000
0000
0001
0000
0100
0010
0000
1000
0000
0000
0001
0000
0010
0100
0000
1000
,
0000
0000
0001
0000
0100
0010
0000
2000
0000
0000
0001
0000
0001
0000
3001
0000
,
1000
0000
0010
0000
0100
0000
0001
0000
1000
0001
1000
0001
1000
0001
1000
0001
,
1000
0010
0001
0010
0220
0000
0330
0000
,
1001
0000
1000
0000
0100
0000
0010
0001
0000
0010
0001
0000
1000
0000
0000
0000
,
0001
0000
0100
0000
0010
0000
1000
0010
0000
1000
0010
0000
1000
0001
1000
0001
,
1000
0000
0100
0000
0010
0000
0001
0100
0000
0001
0100
0000
0010
0000
1000
0000
,
0001
0000
0010
0000
0100
1000
0100
1000
0000
0010
1000
0000
0010
0000
0100
0000
,
0001
0000
0100
0000
0010
0000
1000
0100
0000
0001
0100
0000
1000
0000
0000
0000
,
0001
0000
0010
0000
0100
0000
1000
0010
0000
0001
0010
0000
1000
0001
1000
0001
,
1000
0010
0100
0010
0001
0010
0100
0010
,
1000
0000
0100
0000
0010
0000
0001
0000
1000
0010
1000
0010
0100
0001
0100
0001
,
1000
0000
0000
0100
0000
0000
0010
0000
0000
0000
0001
0000
0000
0000
1000
0000
,
2000
0000
0000
0000
0010
0000
0000
0000
0100
0000
0000
0000
3001
0000
1000
0010
,
0200
0000
0001
0001
0000
1000
1300
0000
,
0100
0000
0000
0010
1000
0000
0001
0000
1100
0000
0000
0000
0101
0000
0000
0000
,
1001
0002
0023
2030
,
3002
0203
2300
3002
,
1003
1010
0000
0100
0001
1001
0000
0100
,
1000
0000
0010
0000
0001
0000
0010
0000
0100
0000
0100
0000
0001
1000
0001
0000
,
1000
0000
0010
0000
0100
0000
0001
0000
1000
0100
1000
0000
0001
0100
0001
0000
,
1000
0010
0000
0000
0010
0100
0000
0000
0100
0001
0000
0000
0001
1000
0000
0000
,
0001
0000
0010
0000
0100
0000
1000
0000
0001
0010
0001
0000
1000
0010
1000
0000
,
0001
0010
0000
0000
0010
0100
0000
0000
0100
1000
0000
0000
1000
0001
0000
0000
,
1000
0000
0010
0000
0001
0000
0010
0000
0100
0010
0100
0000
0010
0100
0010
0000
,
1000
0000
0100
0000
0001
0000
0100
0000
0010
0100
0010
0000
0100
0010
0100
0000
,
1000
0000
0010
0000
0001
0000
0010
0000
1000
0001
1000
0000
0010
0100
0010
0000
,
1000
0100
0000
0000
0001
0100
0000
0000
1000
0010
0000
0000
0001
0010
0000
0000
,
1000
0000
0010
0000
0001
0000
0010
0000
1000
0001
1000
0000
0001
1000
0001
0000
,
1000
0000
0100
0000
0001
0000
0100
0000
0010
0100
0010
0000
0100
0010
0100
0000
,
1000
0000
0010
0000
0001
0000
0010
0000
0100
0001
0100
0000
0010
1000
0010
0000
,
1000
0000
0100
0000
0001
0000
0100
0000
1000
0010
1000
0000
0001
0100
0001
0000
,
1000
0000
0100
0000
0001
0000
0100
0000
0010
0001
0010
0001
0010
0001
0010
0000
,
0001
0000
0100
0000
1000
0000
0100
0000
0010
1000
0010
1000
0010
1000
0010
0000
,
1010
0010
0100
0001
0101
0001
0010
0100
,
1000
0010
1000
0010
0100
0001
0100
0001
1000
0100
1000
0100
0010
0001
0010
0001
,
2000
0010
0100
3001
,
0102
1000
0010
0103
,
2010
3100
0012
0103
,
1002
0103
2001
3100
,
1000
0000
0010
0100
0000
0010
1000
0000
0010
0100
0000
0001
0100
0000
0001
0000
,
0010
0000
0100
1000
0000
0100
0010
0000
0001
0000
1000
0010
1000
0000
0010
0000
,
0100
0000
0001
0010
0000
0100
0010
0000
0100
1000
0000
0001
1000
0000
0010
0000
,
0100
0000
0001
0010
0000
0100
1000
0000
0001
1000
0001
1000
0010
0000
0100
0000
,
0001
0000
1000
0100
0000
1000
0010
0000
0100
0001
0000
0010
0001
0000
1000
0000
,
0001
0000
1000
0010
0000
0100
0001
0000
1000
0100
0000
0010
0001
1000
0001
1000
,
0001
0000
0100
0010
0000
1000
0010
0000
0100
0001
0000
0010
0100
1000
0100
0000
,
0010
0000
0001
0100
0000
0010
1000
0000
0001
0010
0001
0010
0100
1000
0100
1000
,
0001
0100
1000
0100
0100
0010
1000
0100
,
0100
0001
0100
0010
0001
1001
1001
0000
,
0001
0000
0100
0000
0010
0000
1000
0010
0000
0100
0000
0001
0100
0000
0010
0000
,
1000
0000
0100
0000
0010
0000
0001
0010
0000
0001
1000
0000
0010
0100
0010
0000
,
1000
0000
0100
0000
0010
0000
0001
0100
0000
0010
1000
0000
0001
1000
0001
0000
,
1000
0000
0100
0000
0001
0000
0100
0010
0000
0100
0010
0000
0001
1000
0001
1000
,
0001
0000
0100
0000
0010
0000
1000
0100
0000
1000
0100
0000
1000
0000
0010
0000
,
0100
0000
0001
0000
0010
0000
0100
0010
0000
0100
0010
0000
0001
0000
1000
0000
,
0001
0000
0100
0000
1000
0000
0100
0010
0000
0100
0010
0000
1000
0000
0001
0000
,
1000
0000
0100
0000
0001
0000
0100
0000
1000
0010
0100
0001
1000
0100
0010
0001
,
1000
0000
0010
0000
0100
0000
0001
0010
0000
0001
0100
0010
1000
0000
0001
0000
,
1000
0000
0100
0000
0010
0000
0001
0010
0000
0100
1000
0000
0001
0000
1000
0000
,
0001
0000
0100
0000
1000
0000
0100
0010
0000
1000
0001
1000
0001
0010
0100
1000
,
0001
0000
1000
0000
0001
0000
0010
0100
0000
1000
0001
0000
0010
0000
0100
0000
,
0001
0000
1000
0100
0000
0100
1000
0000
0001
0000
1000
0010
0000
0010
1000
0000
,
1000
0000
0001
0010
0000
0010
0001
0000
1000
0000
0001
0100
0000
0100
0001
0000
,
1000
0000
0010
0100
0000
0010
0100
0000
0001
0000
0010
0100
0000
0010
0100
0000
,
1000
0000
0010
0100
0000
0010
0100
0000
0001
0000
0010
0000
0100
0000
1000
0000
,
0001
0100
1000
0100
0010
1000
0100
0001
,
0100
0010
0001
0100
0010
0100
0001
0010
,
0100
1000
0010
0001
0010
1000
0100
0010
,
0001
0010
0001
0010
0100
1000
0100
1000
0001
0100
0001
0100
0010
1000
0010
1000
,
0001
0000
0010
0000
1000
0000
0010
0000
0100
0010
0100
0010
0001
0010
0001
0010
,
0001
0000
0100
0000
1000
0000
0100
0000
0010
1000
0010
1000
0100
1000
0100
1000
,
0010
0000
1000
0100
1000
0000
0001
0100
0001
0000
1000
0010
1000
0010
0100
0001
,
0100
0000
0001
0010
0001
0000
0100
1000
0100
0000
0001
0100
0001
0000
1000
0100
,
1000
0000
0010
0000
0100
0001
1000
0001
0100
0000
0001
0000
1000
0001
1000
0100
,
1000
0000
0010
0000
0100
0001
0010
0001
0100
0000
0010
0000
1000
0100
1000
0010
,
1000
0000
0010
1000
0010
0000
0100
0010
0100
0000
0001
0100
0001
0000
0010
0001
,
0010
0000
0100
0010
0100
0000
1000
0100
1000
0000
0010
1000
0010
0000
0100
0001
,
1000
0000
0010
1000
0001
0000
0010
0001
1000
0000
0100
1000
0001
0000
0100
0001
,
1000
0100
1000
0100
0010
0001
0010
0001
1000
0010
1000
0010
0100
0001
0100
0001
,
1000
0100
0010
0001
0010
0100
1000
0001
1000
0010
0100
0001
0100
0010
1000
0001
,
2000
0000
0000
0001
0002
0000
0000
0000
0000
0000
0000
0000
0000
0000
0000
0000
,
0000
0000
3003
0000
;

//---------------dance-single - ----------------
#NOTES:
     dance-single:
     :
     Hard:
     9:
     0.803,0.654,0.277,0.138,0.330,639.000,34.000,17.000,0.000,0.000,0.000,0.803,0.654,0.277,0.138,0.330,639.000,34.000,17.000,0.000,0.000,0.000: // measure 0
1000
0000
0010
0000
0100
0000
0000
0101
0000
0000
0001
0000
0010
0000
0000
0110
,  // measure 1
0000
0000
0100
0000
1000
0000
0000
1010
0000
0000
0010
0000
0100
0000
0000
0101
,  // measure 2
0000
0000
0001
0000
1000
0000
0000
1100
0000
0000
1000
0000
0001
0000
0000
1001
,  // measure 3
0000
0000
0010
0000
0100
0000
0000
0110
0000
0000
0010
0000
1000
0000
0001
0000
,  // measure 4
1000
0100
0001
0100
1000
0010
0001
0010
,  // measure 5
1000
0100
0010
0001
1001
0000
0000
0000
,  // measure 6
0001
0000
0100
0000
0010
0000
1000
0010
0000
1000
0010
0000
0100
0000
0000
0000
,  // measure 7
0001
0000
0010
0000
0100
0000
1000
0100
0000
1000
0100
0000
0010
0000
0001
0000
,  // measure 8
1000
0000
0010
0000
0100
0000
0001
0100
0000
0001
0100
0000
0010
0000
1000
0000
,  // measure 9
0001
0000
0010
0000
0100
0000
1000
0100
0000
1000
0100
0000
0010
0000
0001
0000
,  // measure 10
1000
0000
0100
0000
0001
0000
0100
0010
0000
0100
0010
0000
0001
0000
0000
0000
,  // measure 11
1000
0000
0010
0000
0001
0000
0010
0100
0000
0010
0100
0000
0001
0000
1000
0000
,  // measure 12
0001
0010
0100
1000
0001
0100
0010
1000
,  // measure 13
0001
0010
1000
0010
0001
0100
1000
0100
,  // measure 14
0001
0000
0000
0010
0000
0000
0100
0000
0000
0000
1000
0000
0000
0000
0001
0000
,  // measure 15
2000
0000
0000
0000
0010
0000
0000
0000
0100
0000
0000
0000
3001
0000
1000
0010
,  // measure 16
0200
0000
0001
0001
0000
1000
1300
0000
,  // measure 17
0100
0000
0000
0001
1000
0000
0100
0000
1100
0000
0000
0000
0101
0000
0000
0000
,  // measure 18
1001
0002
0023
2030
,  // measure 19
3002
0203
2300
3002
,  // measure 20
1003
1010
0000
0100
0001
1001
0000
0001
,  // measure 21
0010
0010
0100
0100
1000
1000
0001
0001
,  // measure 22
1000
0010
0100
0001
0100
0010
1000
0001
,  // measure 23
0011
0110
1100
1001
,  // measure 24
0001
0100
0010
1000
0010
0100
0001
1000
,  // measure 25
1100
0110
0011
1001
,  // measure 26
0001
0100
1000
0100
0010
1000
0001
0100
,  // measure 27
0001
0010
1000
0010
0100
1000
0001
0010
,  // measure 28
0001
0100
1000
0100
0001
0010
1000
0010
,  // measure 29
0011
1100
0101
1010
,  // measure 30
0001
0100
0010
1000
0010
0100
0001
1000
,  // measure 31
0001
0010
0100
1000
0100
0010
0001
1000
,  // measure 32
0001
0100
1000
0100
0010
1000
0001
0100
,  // measure 33
0001
0010
1000
0010
0100
1000
0001
0100
,  // measure 34
0001
0001
0010
0010
0100
0100
1000
1000
,  // measure 35
0001
0001
0100
0100
0010
0010
1000
1000
,  // measure 36
0001
0010
1000
0010
0001
0100
1000
0100
,  // measure 37
0001
0000
0010
0000
0100
0000
1000
0000
0001
0100
0001
0000
1000
0100
1000
0000
,  // measure 38
0002
0100
0010
1003
,  // measure 39
2010
0001
0100
3010
,  // measure 40
0102
0013
2100
3010
,  // measure 41
2001
3010
1002
0013
,  // measure 42
0001
0000
1000
0100
0000
1000
0100
0000
1000
0010
0000
1000
0010
0000
0100
0000
,  // measure 43
0001
0000
0010
0001
0000
0010
0001
0000
0100
0000
0010
0000
1000
0000
0001
0000
,  // measure 44
1000
0000
0001
0010
0000
0001
0010
0000
0001
0100
0000
0001
0100
0000
0010
0000
,  // measure 45
1000
0000
0100
1000
0000
0100
1000
0000
0010
0000
0100
0000
0001
0000
1000
0000
,  // measure 46
0001
0000
0010
0100
0000
0010
0100
0000
1000
0001
0000
1000
0001
0000
0100
0000
,  // measure 47
0010
0000
1000
0001
0000
1000
0001
0000
1000
0000
0100
0000
0010
0000
0001
0000
,  // measure 48
1000
0000
0010
0100
0000
0010
0100
0000
0001
0100
0000
0001
0100
0000
0001
0000
,  // measure 49
0010
0000
0100
1000
0000
0100
1000
0000
0001
0000
0100
0000
0010
0000
1000
0000
,  // measure 50
0001
0100
1000
0100
0001
0010
1000
0010
,  // measure 51
0001
0100
0010
1000
0001
1001
1001
0000
,  // measure 52
1000
0000
0100
0000
0010
0000
0001
0010
0000
0100
0000
1000
0100
0000
0010
0000
,  // measure 53
0001
0000
0100
0000
0010
0000
1000
0010
0000
0100
0001
0000
0100
0000
0010
0000
,  // measure 54
1000
0000
0100
0000
0010
0000
0001
0010
0000
0100
1000
0000
0001
0000
0010
0000
,  // measure 55
0001
0000
0100
0000
0010
0000
1000
0010
0000
0100
0001
0000
1000
0000
0001
0000
,  // measure 56
1000
0000
0100
0000
0001
0000
0100
0010
0000
0100
0010
0000
0001
0000
1000
0000
,  // measure 57
0001
0000
0100
0000
1000
0000
0100
0010
0000
0100
0010
0000
1000
0000
0001
0000
,  // measure 58
1000
0000
0010
0000
0100
0000
0001
0010
0000
0100
1000
0000
0001
0000
1000
0000
,  // measure 59
0001
0000
0010
0000
1000
0000
0010
0000
0001
0100
0001
0000
1000
0100
1000
0000
,  // measure 60
0001
0000
0100
0000
1000
0000
0100
0010
0000
1000
0010
0000
0100
0000
0001
0000
,  // measure 61
1000
0000
0100
0000
0001
0000
0100
0010
0000
0001
0010
0000
0100
0000
1000
0000
,  // measure 62
0001
0000
0100
0000
1000
0000
0100
0001
0000
0010
0001
0000
0100
0000
0010
0000
,  // measure 63
1000
0000
0100
0000
0001
0000
0100
1000
0000
0010
1000
0000
0100
0000
0010
0000
,  // measure 64
0001
0000
0100
0001
0000
0000
0100
0000
0010
0000
1000
0010
0000
0000
1000
0000
,  // measure 65
0100
0000
1000
0001
0000
0000
1000
0000
0001
0000
0100
0010
0000
0000
0100
0000
,  // measure 66
0001
0000
0010
0100
0000
0000
1000
0000
0001
0000
0100
0010
0000
0000
1000
0000
,  // measure 67
0001
0000
1000
0001
0000
0000
1001
0000
1000
0000
0100
0000
0001
0000
0100
0000
,  // measure 68
1000
0010
0100
0001
0010
0001
0100
0010
,  // measure 69
1000
0100
0001
0100
1000
0010
0100
1000
,  // measure 70
0100
0010
1000
0100
0010
0001
0100
0010
,  // measure 71
1000
1000
0010
0010
0100
0100
0001
0001
,  // measure 72
1000
0100
0001
0100
0010
0001
0100
1000
,  // measure 73
0100
0010
1000
0100
0001
0100
0010
0001
,  // measure 74
0010
1000
0010
0001
0100
0010
0001
0010
,  // measure 75
0100
0001
0010
1000
0010
0100
1000
0010
,  // measure 76
0100
1000
0100
0010
1000
0100
0001
0100
,  // measure 77
0010
0001
0100
0010
0001
0010
0100
0001
,  // measure 78
0010
1000
0010
0100
1000
0010
0100
1000
,  // measure 79
0100
0010
1000
0100
0001
0100
0010
0001
,  // measure 80
0100
1000
0100
0010
1000
0100
0010
0001
,  // measure 81
0010
1000
0010
0001
0100
0010
1000
0100
,  // measure 82
1000
1000
0010
0010
0100
0100
0001
0001
,  // measure 83
1002
0000
0000
1000
2000
0000
0000
0000
0000
0000
0000
0000
0000
0000
0000
0000
,  // measure 84
0000
0000
3003
0000
;

//---------------dance-single - Blank----------------
#NOTES:
     dance-single:
     :
     Easy:
     5:
     0.394,0.310,0.033,0.024,0.000,332.000,4.000,3.000,0.000,0.000,0.000,0.394,0.310,0.033,0.024,0.000,332.000,4.000,3.000,0.000,0.000,0.000: // measure 0
1000
0100
1000
0100
,  // measure 1
0010
0001
0010
0001
,  // measure 2
0100
0001
0100
0001
,  // measure 3
1000
0010
1000
0010
,  // measure 4
1000
0100
0001
0100
,  // measure 5
1000
0001
1001
0000
,  // measure 6
1000
0010
0100
0100
,  // measure 7
0001
0010
0100
0100
,  // measure 8
1000
0100
0010
0010
,  // measure 9
0001
0100
0010
0010
,  // measure 10
1000
0010
0100
0100
,  // measure 11
0001
0010
0100
0100
,  // measure 12
1000
1000
0010
0010
,  // measure 13
0100
0100
0001
0001
,  // measure 14
1000
0100
0001
0100
,  // measure 15
2000
0000
3001
0000
,  // measure 16
1000
0010
0001
0010
,  // measure 17
1000
0001
1000
1001
,  // measure 18
0001
0010
0100
1000
,  // measure 19
0001
0100
0010
1000
,  // measure 20
0001
0001
0010
0010
,  // measure 21
0100
0100
1000
1000
,  // measure 22
0001
0100
0010
1000
,  // measure 23
0001
0001
0001
0001
,  // measure 24
1000
0100
0010
0001
,  // measure 25
1000
1000
1000
1000
,  // measure 26
0001
0100
1000
0100
,  // measure 27
0001
0010
1000
0010
,  // measure 28
0001
0100
1000
0010
,  // measure 29
0001
0001
1000
1000
,  // measure 30
0001
0100
0010
1000
,  // measure 31
0010
0100
0001
1000
,  // measure 32
0001
0010
0100
1000
,  // measure 33
0100
0010
0001
1000
,  // measure 34
0001
0100
0010
1000
,  // measure 35
0001
0010
0100
1000
,  // measure 36
0001
0001
0100
0100
,  // measure 37
0010
0010
1000
1000
,  // measure 38
0001
0010
0100
1000
,  // measure 39
0001
0100
0010
1000
,  // measure 40
0001
0010
1000
0010
,  // measure 41
0001
0100
1000
0100
,  // measure 42
0001
0100
0010
1000
,  // measure 43
0010
0100
0001
0001
,  // measure 44
1000
0100
0010
0001
,  // measure 45
0010
0100
1000
1000
,  // measure 46
0001
0100
1000
0001
,  // measure 47
0010
1000
0001
0001
,  // measure 48
1000
0100
0001
1000
,  // measure 49
0010
0001
1000
1000
,  // measure 50
0001
0100
0010
1000
,  // measure 51
0010
0000
0100
0000
0001
0001
0001
0000
,  // measure 52
1001
0001
0010
1000
,  // measure 53
0010
0100
1000
0010
,  // measure 54
0100
1000
0100
0010
,  // measure 55
1000
0100
0001
0100
,  // measure 56
0010
0001
0100
0010
,  // measure 57
0001
0010
1000
0010
,  // measure 58
0100
1000
0100
0010
,  // measure 59
1000
0100
0001
0100
,  // measure 60
0010
0001
0100
1000
,  // measure 61
0100
0010
1000
0100
,  // measure 62
0001
0100
0010
0001
,  // measure 63
0010
1000
0010
0100
,  // measure 64
1000
1000
0010
0010
,  // measure 65
0100
0100
0001
0001
,  // measure 66
1000
1000
0100
0100
,  // measure 67
0010
0010
0001
0001
,  // measure 68
1000
0010
0100
0001
,  // measure 69
0100
0010
1000
0001
,  // measure 70
1000
0100
0010
0001
,  // measure 71
1000
1000
0001
0001
,  // measure 72
1000
0010
0001
0010
,  // measure 73
0100
0001
0100
1000
,  // measure 74
0100
0010
1000
0100
,  // measure 75
0001
0100
0010
0001
,  // measure 76
0010
1000
0010
0100
,  // measure 77
1000
0010
0001
0010
,  // measure 78
0100
0001
0100
1000
,  // measure 79
0100
0010
1000
0100
,  // measure 80
0010
0001
0010
0100
,  // measure 81
1000
0010
0100
0001
,  // measure 82
0010
0100
1000
0001
,  // measure 83
1002
2000
0000
0000
,  // measure 84
0000
0000
3003
0000
;

//---------------dance-single - Blank----------------
#NOTES:
     dance-single:
     :
     Medium:
     8:
     0.610,0.550,0.204,0.171,0.004,478.000,25.000,21.000,0.000,0.000,0.000,0.610,0.550,0.204,0.171,0.004,478.000,25.000,21.000,0.000,0.000,0.000: // measure 0
1000
0000
0001
0100
0001
0000
0100
0010
,  // measure 1
0100
0000
0010
1000
0010
0000
1000
0001
,  // measure 2
1000
0000
0100
1000
0100
0000
0010
0100
,  // measure 3
0010
0000
0001
0010
0001
1000
1000
1000
,  // measure 4
0001
0100
0001
0100
0010
1000
0010
1000
,  // measure 5
0001
1000
0001
0000
1001
0000
0000
0000
,  // measure 6
1000
0000
0010
0000
0100
0001
1000
0000
,  // measure 7
0001
0000
0010
0000
0100
1000
0001
1000
,  // measure 8
0001
0000
0100
0000
0010
1000
0001
1000
,  // measure 9
0100
0000
0010
0000
0001
1000
0100
1000
,  // measure 10
0001
0000
0100
0000
0010
1000
0100
0000
,  // measure 11
0010
0000
0100
0000
1000
0010
0100
0001
,  // measure 12
1000
0100
1000
0100
0010
0001
0010
0001
,  // measure 13
1000
0010
1000
0010
0100
0001
0100
0001
,  // measure 14
1000
0100
0010
0001
,  // measure 15
2000
0010
0100
3001
,  // measure 16
2000
3010
0002
0013
,  // measure 17
1000
0001
0101
1100
,  // measure 18
1001
2000
3020
0230
,  // measure 19
0302
0203
0320
2030
,  // measure 20
3001
0001
0000
0000
1000
1000
0000
0000
,  // measure 21
0001
0010
0100
0000
1000
0010
0100
0000
,  // measure 22
0001
0100
0010
1000
,  // measure 23
0101
0101
1100
1100
,  // measure 24
0001
0010
0100
1000
,  // measure 25
1010
1010
0011
0011
,  // measure 26
1000
0000
0010
0000
0100
0001
0100
0000
,  // measure 27
0001
0000
0010
0000
0100
1000
0100
0000
,  // measure 28
1000
0000
0010
0000
0100
0001
1000
0000
,  // measure 29
0110
0110
1001
1001
,  // measure 30
1000
0100
1000
0000
1000
0100
1000
0000
,  // measure 31
0001
0100
0001
0000
0001
0100
0001
0000
,  // measure 32
1000
0010
1000
0000
1000
0010
1000
0000
,  // measure 33
0001
0010
0001
0000
0001
0010
0001
0000
,  // measure 34
1000
0010
0100
0000
0001
0100
0010
0000
,  // measure 35
1000
0100
0010
0000
0001
0010
0100
0000
,  // measure 36
1000
0010
1000
0010
0100
0001
0100
0001
,  // measure 37
1000
0100
1000
0100
0010
0001
0010
0001
,  // measure 38
2000
0010
0010
3010
,  // measure 39
0200
0001
0001
0301
,  // measure 40
2000
3100
0002
0103
,  // measure 41
2000
3010
0002
0013
,  // measure 42
1000
0000
0010
0000
0100
0001
1000
0000
,  // measure 43
0001
0000
0100
0000
1000
0001
1000
0010
,  // measure 44
0100
0000
0001
0000
0010
0100
1000
0000
,  // measure 45
0001
0000
0100
0000
0010
1000
0001
1000
,  // measure 46
0100
0000
0010
0000
0001
0100
0010
0000
,  // measure 47
1000
0000
0010
0000
0100
0001
1000
0001
,  // measure 48
0010
0000
0100
0000
1000
0010
0100
0000
,  // measure 49
0001
0000
0100
0000
0010
1000
0001
1000
,  // measure 50
0100
0100
0010
0010
,  // measure 51
0001
1000
0001
1000
0010
0100
0110
0000
,  // measure 52
1001
0000
1000
0000
0010
0100
0001
0100
,  // measure 53
0010
0000
1000
0000
0001
0010
0100
0010
,  // measure 54
0001
0000
0100
0000
0010
1000
0100
1000
,  // measure 55
0010
0000
0100
0000
0001
0010
0100
0010
,  // measure 56
0001
0000
0100
0000
0010
1000
0100
0001
,  // measure 57
0100
0000
1000
0000
0010
0100
0001
0010
,  // measure 58
1000
0000
0010
0000
0001
0100
1000
0010
,  // measure 59
0001
0000
1000
0000
0010
0010
0100
0100
,  // measure 60
0001
0000
0100
0000
0010
1000
0100
1000
,  // measure 61
0001
0000
1000
0000
0001
0010
0100
0010
,  // measure 62
0001
0000
0100
0000
0010
1000
0001
0100
,  // measure 63
0001
0000
1000
0000
0100
1000
0010
1000
,  // measure 64
0001
0101
0001
0101
,  // measure 65
1000
1100
1000
1100
,  // measure 66
0001
1001
0001
1001
,  // measure 67
1000
0000
1001
0000
1000
0010
0100
0001
,  // measure 68
1000
0000
0001
0100
0001
0000
1000
0010
,  // measure 69
1000
0000
0001
0010
0001
0000
1000
0100
,  // measure 70
1000
0000
0001
1000
0001
0000
0100
0010
,  // measure 71
0200
0302
2003
3100
,  // measure 72
1000
0010
1000
0010
1000
0010
1000
0000
,  // measure 73
0001
0100
0001
0100
0001
0100
0001
0000
,  // measure 74
1000
0100
1000
0100
1000
0100
1000
0000
,  // measure 75
0001
0010
0001
0010
0001
0010
0001
0000
,  // measure 76
1000
0100
1000
0100
1000
0100
1000
0100
,  // measure 77
0010
0001
0010
0001
0010
0001
0010
0001
,  // measure 78
0100
0001
0100
0001
0100
0001
0100
0001
,  // measure 79
1000
0010
1000
0010
1000
0010
1000
0010
,  // measure 80
1000
0100
1000
0100
0001
0100
0001
0100
,  // measure 81
1000
0010
1000
0010
0001
0010
0001
0010
,  // measure 82
1000
0010
0100
0001
0100
0010
1000
0001
,  // measure 83
2000
0000
0000
0001
0002
0000
0000
0000
0000
0000
0000
0000
0000
0000
0000
0000
,  // measure 84
0000
0000
3003
0000
;
