#TITLE:L'erisia (Primal Logic);
#SUBTITLE:;
#ARTIST:Zektbach;
#TITLETRANSLIT:;
#SUBTITLETRANSLIT:;
#ARTISTTRANSLIT:;
#GENRE:;
#CREDIT:;
#BANNER:L'erisia (Primal Logic).png;
#BACKGROUND:L'erisia (Primal Logic)-bg.png;
#JACKET:L'erisia (Primal Logic)-jacket.png;
#LYRICSPATH:;
#CDTITLE:;
#MUSIC:L'erisia (Primal Logic).mp3;
#OFFSET:-0.102;
#SAMPLESTART:82.080;
#SAMPLELENGTH:16.420;
#SELECTABLE:YES;
#BPMS:0.000=234.001
,128.000=117.000
,176.000=234.000
,332.000=117.000
;
#STOPS:
;
#BGCHANGES:;
#KEYSOUNDS:;
#ATTACKS:;

//---------------dance-single - ----------------
#NOTES:
     dance-single:
     :
     Hard:
     9:
     0.726,0.815,0.495,0.184,0.000,454.000,51.000,19.000,0.000,0.000,0.000,0.726,0.815,0.495,0.184,0.000,454.000,51.000,19.000,0.000,0.000,0.000:
0000
0000
0000
0000
,
0000
0000
0000
0000
,
0000
0000
0000
0000
,
0000
0000
0000
0000
,
0000
0000
0000
0000
,
0000
0000
0000
0000
,
0000
0000
0000
0000
,
0000
0000
0000
0000
,
1001
0000
1000
0100
0010
0100
1000
0000
,
1001
0000
0001
0100
0010
0100
0001
0000
,
1000
0100
0010
0001
0010
0100
1000
0001
,
1000
0010
0100
0001
0100
0010
1000
0000
,
0001
0100
1000
0100
0010
0100
0001
0000
,
1000
0100
0001
0100
0010
0001
1000
0000
,
0001
0100
0010
1000
0010
0100
0001
1000
,
0001
0010
0100
1000
0001
0100
0010
0000
,
1001
0000
0001
0010
0100
0010
0001
0000
,
1001
0000
1000
0010
0100
0010
1000
0000
,
0001
0010
0100
1000
0100
0010
0001
1000
,
0001
0100
0010
1000
0010
0100
0001
0000
,
1000
0010
0001
0010
0100
0010
1000
0000
,
0001
0010
1000
0010
0100
1000
0001
0000
,
1000
0010
0100
0001
0100
0010
1000
0001
,
1000
0100
0010
0001
1000
0010
0100
0000
,
0101
0000
1100
0000
0001
0010
0100
0000
,
1100
0000
0101
0000
1000
0010
0100
0000
,
0011
0000
1010
0000
0001
0100
0010
0000
,
1010
0000
0011
0000
1000
0100
0010
0000
,
1001
0000
0001
0100
0010
1000
0001
0000
,
1001
0000
1000
0100
0010
0001
1000
0000
,
1001
0000
0001
0100
1000
0100
0001
0000
,
1001
0000
1000
0100
0001
0100
1000
0000
,
1001
0001
0010
0100
,
1000
0010
0100
0001
,
2000
0001
0010
0010
,
0100
0000
0000
0000
0100
0000
0000
0000
0010
0000
0000
0000
0010
0000
0000
3000
,
0002
0000
0000
0000
0010
0000
0000
0000
0100
0000
0000
0000
0100
0000
0000
0003
,
2000
0010
0010
3200
,
0001
0001
0010
0010
,
1000
0000
0000
0000
1000
0000
0000
0300
0002
0000
0000
0000
1000
0000
0000
0003
,
0020
0100
0100
0000
1000
1000
1000
0000
,
0001
0001
0001
0000
0100
0100
0100
0030
,
2000
0010
0010
0000
0100
0100
0100
0000
,
0001
0000
0001
0000
0001
0000
0000
0000
0010
0000
0010
0000
0010
0000
0000
3000
,
1001
0000
1000
0020
0000
0130
0000
0102
,
0000
1003
0000
2100
0000
3001
0000
1001
,
0000
0101
0000
0001
0010
0100
1000
0100
,
0010
0001
0100
0020
0000
1000
1030
0000
,
0001
0000
0102
0000
0013
0020
0000
0130
,
0200
0000
1300
1000
0000
0001
0100
0010
,
1000
0100
0010
0001
0010
0100
1000
0001
,
1000
0010
0100
0002
0000
1000
1003
0000
,
0001
0100
0000
1000
0100
0000
0010
0100
,
0000
0001
0010
0100
1000
0100
0010
0001
,
1000
0010
0000
0100
0001
1000
0000
1001
,
0000
1000
0100
0020
0000
0100
0230
0000
,
1300
0000
0001
0100
1000
0100
0001
1000
,
0000
0100
0001
0100
1000
0001
1000
0000
,
0001
0100
0010
1000
0010
0100
0001
1000
,
0001
0010
0100
1000
0100
0010
0001
0000
,
1000
0000
0101
0000
0001
0100
0010
0000
,
1000
0000
1100
0000
0100
0010
0001
0000
,
1000
0000
0110
0000
0001
0010
0100
0000
,
1000
0000
0001
0100
1000
0100
0001
0000
,
1000
0000
0011
0000
0001
0010
0100
0000
,
1000
0000
1010
0000
0010
0100
0001
0000
,
1000
0000
0110
0000
0001
0100
0010
0000
,
1000
0000
0001
0100
1000
0100
0001
0000
,
1000
0100
0010
0001
0010
0100
1000
0010
,
0100
0001
0100
0010
1000
0001
0010
0000
,
0001
0010
0100
1000
0010
0100
0001
0100
,
0010
1000
0100
0010
0001
1000
0001
0000
,
1000
0100
0001
0100
1000
0001
1000
0000
,
0001
0100
1000
0100
0001
1000
0001
0000
,
1000
0100
0010
0001
0010
0100
1000
0010
,
0100
0001
0010
0100
1000
0001
0100
0000
,
0010
1000
1010
0000
1000
0100
1100
0000
,
0100
0010
0110
0000
0010
0001
0011
0000
,
0001
0100
0101
0000
0100
0010
0110
0000
,
0010
1000
1010
0000
1000
0100
1100
0000
,
0011
0001
0011
0000
1100
1000
1100
0000
,
0101
0001
0101
0000
1010
1000
1010
0000
,
0011
0100
1100
0000
1010
0100
0101
0000
,
2002
0000
0000
0000
,
3003
0000
0000
0000
;

//---------------dance-single - ----------------
#NOTES:
     dance-single:
     :
     Easy:
     5:
     0.374,0.367,0.010,0.107,0.000,258.000,1.000,11.000,0.000,0.000,0.000,0.374,0.367,0.010,0.107,0.000,258.000,1.000,11.000,0.000,0.000,0.000:
0000
0000
0000
0000
,
0000
0000
0000
0000
,
0000
0000
0000
0000
,
0000
0000
0000
0000
,
0000
0000
0000
0000
,
0000
0000
0000
0000
,
0000
0000
0000
0000
,
0000
0000
0000
0000
,
1000
0100
0010
0001
,
0010
0100
1000
0001
,
1000
0010
0100
0001
,
0100
0010
1000
0001
,
1000
0100
1000
1000
,
0001
0100
0001
0001
,
1000
0010
0100
0001
,
0100
0010
1000
1000
,
0001
0010
0100
1000
,
0100
0010
0001
1000
,
0001
0100
0010
1000
,
0010
0100
0001
1000
,
0001
0010
0001
0001
,
1000
0010
1000
1000
,
0001
0100
0010
1000
,
0100
0010
0001
0001
,
1000
0000
0010
0000
0000
1000
0000
0000
,
0001
0000
0010
0000
0000
0001
0000
0000
,
1000
0000
0100
0000
0000
1000
0000
0000
,
0001
0000
0100
0000
0000
0001
0000
0000
,
1000
0000
0010
0000
0000
0100
0000
0000
,
0001
0000
0010
0000
0000
0100
0000
0000
,
1000
0000
0010
0000
0000
0100
0000
0000
,
0001
0000
0010
0000
0000
0100
0000
0000
,
1000
0010
0100
0010
,
1000
0100
0010
0100
,
2000
0000
0000
0000
,
0000
0000
0000
0000
,
3002
0000
0000
0000
,
0203
0000
0000
0320
,
0000
0000
0000
0000
,
0000
0000
2030
0000
,
3002
0000
0000
0000
,
0000
0000
0000
0000
,
2000
0000
0000
0000
,
0000
0000
0000
0000
0000
0000
0000
3003
,
1000
0100
0010
0001
,
1000
0010
0100
0001
,
1000
0100
0001
0100
,
0010
0001
1000
0001
,
0100
0010
1000
0010
,
0100
0001
0010
0100
,
1000
1000
0001
0001
,
0100
0010
1000
0002
,
0003
1000
0100
0010
,
0001
0100
0010
1000
,
0010
0010
0100
0100
,
0001
0010
0100
2000
,
3000
0001
0100
1000
,
0100
0001
0100
0010
,
1000
0100
0001
0100
,
1000
0010
0001
0010
,
1000
1000
0010
0010
,
0100
0100
0001
0001
,
1000
1000
0100
0100
,
0010
0010
0001
0001
,
1000
1000
0100
0100
,
0001
0001
0100
0100
,
1000
1000
0010
0010
,
0001
0001
0010
0010
,
1000
0100
0010
0100
,
1000
0010
0100
0010
,
1000
0001
0010
0001
,
0100
0010
1000
0010
,
0100
0001
0010
0100
,
1000
0010
0100
0001
,
1000
0100
0010
0001
,
0010
0100
1000
0001
,
1000
1000
0010
0010
,
0100
0100
0001
0001
,
1000
1000
0100
0100
,
0010
0010
0001
0001
,
1000
1000
0010
0010
,
0100
0100
0001
0001
,
1000
1000
0100
0100
,
2002
0000
0000
0000
,
3003
0000
0000
0000
;

//---------------dance-single - ----------------
#NOTES:
     dance-single:
     :
     Medium:
     7:
     0.535,0.571,0.272,0.019,0.000,356.000,28.000,2.000,0.000,0.000,0.000,0.535,0.571,0.272,0.019,0.000,356.000,28.000,2.000,0.000,0.000,0.000:
0000
0000
0000
0000
,
0000
0000
0000
0000
,
0000
0000
0000
0000
,
0000
0000
0000
0000
,
0000
0000
0000
0000
,
0000
0000
0000
0000
,
0000
0000
0000
0000
,
0000
0000
0000
0000
,
1000
0000
0001
0000
1000
0100
1000
0000
,
0001
0000
1000
0000
0001
0100
0001
0000
,
1000
0000
0001
0000
1000
0010
1000
0000
,
0001
0000
1000
0000
0001
0010
0001
0000
,
1000
0000
0001
0000
1000
0010
0100
0000
,
0001
0000
1000
0000
0001
0010
0100
0000
,
1000
0000
0001
0000
1000
0100
0001
0000
,
0100
0000
1000
0000
0001
0100
1000
0000
,
0100
0000
0001
0000
0010
0100
1000
0000
,
0010
0000
0100
0000
0001
0100
0010
0000
,
1000
0000
0001
0000
0010
0100
1000
0000
,
0001
0000
1000
0000
0010
0100
0001
0000
,
1000
0000
0001
0000
1000
0010
0001
0000
,
0010
0000
1000
0000
0001
0010
1000
0000
,
0010
0000
0001
0000
1000
0100
0001
0000
,
0100
0000
1000
0000
0001
0100
0010
0000
,
1010
0000
1010
0000
0000
0110
0000
0000
,
0101
0000
0101
0000
0000
0011
0000
0000
,
0110
0000
0110
0000
0000
1100
0000
0000
,
1010
0000
1010
0000
0000
0110
0000
0000
,
0101
0000
0101
0000
0001
0010
0001
0000
,
0011
0000
0011
0000
0010
0100
0010
0000
,
0110
0000
0110
0000
0100
1000
0100
0000
,
1100
0000
1100
0000
1000
0001
1000
0000
,
0001
0010
0100
1000
,
0100
0010
0001
0010
,
0100
1000
0010
0100
,
0001
0100
0010
1000
,
0001
1000
0100
0010
,
0001
0010
0100
1000
,
0010
0100
0001
0100
,
0010
1000
0001
0010
,
0100
0100
0100
0000
1000
1000
1000
0000
,
0010
0010
0010
0000
0100
0100
0100
0000
,
0001
0001
0001
0000
0010
0010
0010
0000
,
0100
0100
0100
0000
1000
1000
1000
0000
,
0001
0100
1000
0100
,
0010
1000
0001
0010
,
1000
0010
0100
1000
,
0010
0001
0010
0100
,
0001
0010
1000
0010
,
0100
1000
0010
0100
,
0001
0010
0100
1000
,
0001
0100
0001
0000
1000
0100
1000
0000
,
0001
0010
1000
0010
,
0100
1000
0010
0001
,
0010
0100
0001
0010
,
0100
1000
0100
0000
0010
0001
0010
0000
,
0001
0100
1000
0100
,
0010
1000
0100
0001
,
0100
0000
0010
0000
0001
0100
0001
0000
,
1000
0100
1000
0000
0001
1000
0001
0000
,
1000
0010
0100
0101
,
0001
0010
0100
1100
,
1000
0010
0100
0101
,
0001
0010
0001
0000
1000
0010
1000
0000
,
0001
0010
0100
1010
,
1000
0100
0010
0011
,
0001
0100
0010
0101
,
0001
0010
0100
1100
,
1000
0000
0100
0000
0010
0001
0010
0000
,
0001
0000
0100
0000
0010
1000
0010
0000
,
0100
0000
0001
0000
1000
0100
1000
0000
,
0001
0000
1000
0000
0001
0010
0001
0000
,
1000
0000
0010
0000
0100
0001
1000
0000
,
0001
0000
0010
0000
0100
1000
0001
0000
,
1000
0000
0010
0000
0100
0001
1000
0000
,
0001
0000
0010
0000
0100
1000
0001
0000
,
1000
0010
1000
0000
0010
0100
0010
0000
,
0100
0001
0100
0000
0001
0010
0001
0000
,
0010
0100
0010
0000
0100
1000
0100
0000
,
1000
0010
1000
0000
0010
0100
0010
0000
,
0100
0001
1000
0000
0100
1000
0001
0000
,
0010
0001
1000
0000
0010
1000
0001
0000
,
1000
0100
0001
0000
1000
0010
0001
0000
,
2002
0000
0000
0000
,
3003
0000
0000
0000
;
