#TITLE:キミ記念日〜生まれて来てくれてアリガトウ。〜;
#SUBTITLE:;
#ARTIST:ソナーポケット;
#TITLETRANSLIT:Kimi Kinenbi 〜Umarete Kite Kurete Arigatou.〜;
#SUBTITLETRANSLIT:;
#ARTISTTRANSLIT:Sonar Pocket;
#CREDIT:;
#BANNER:Kimi Kinenbi ~Umarete Kite Kurete Arigatou~.png;
#BACKGROUND:Kimi Kinenbi ~Umarete Kite Kurete Arigatou~-bg.png;
#JACKET:Kimi Kinenbi ~Umarete Kite Kurete Arigatou~-jacket.png;
#LYRICSPATH:;
#CDTITLE:;
#MUSIC:Kimi Kinenbi ~Umarete Kite Kurete Arigatou~.mp3;
#OFFSET:-0.177;
#SAMPLESTART:72.660;
#SAMPLELENGTH:13.620;
#SELECTABLE:YES;
#BPMS:0.000=127.000;
#STOPS:;
#BGCHANGES:;

//---------------dance-single - ----------------
#NOTES:
     dance-single:
     :
     Hard:
     7:
     0.517,0.508,0.221,0.414,0.051:
0000
0000
0000
0000
,
0000
0000
0000
0000
,
0000
0000
0000
0000
,
0000
0000
0000
0000
,
0000
0000
0000
0000
,
1000
0000
0100
0000
0010
0000
0001
1000
0000
0001
1000
0000
0100
0000
0000
0000
,
1000
0000
0010
0000
0100
0000
0001
1000
0000
0001
1000
0000
0010
0000
0000
0000
,
1000
0010
0100
0001
1000
0100
0010
0002
,
0000
0013
0100
1000
0001
0100
0010
0000
,
1010
0000
0011
0000
1001
0000
1000
0002
,
0010
0000
0103
0000
0001
0100
0010
1000
,
1100
0000
0101
0000
1001
0000
0001
2000
,
0010
0000
0000
0000
3100
0000
1000
0010
1000
0000
0010
0000
0100
0000
0002
0000
,
0010
0000
0100
0000
1003
0100
0001
0100
,
2000
0000
0010
0010
0000
0100
3100
0000
,
1002
0000
0103
0000
0001
0100
0010
0100
,
0002
0000
0010
0010
0000
0100
0103
0000
,
0001
0000
1000
0100
0000
1000
0010
0100
,
0010
1000
0001
0020
0000
0100
0130
0000
,
0010
0000
0001
1000
0001
0100
1000
0100
,
0002
0000
1003
0001
1000
0010
0001
0010
,
2000
0000
3100
0100
0002
0000
0103
0100
,
1000
0010
0100
0001
0101
0000
1100
0000
,
1002
0000
0103
0001
1000
0100
0010
0100
,
2000
0000
0010
0010
0000
0100
3100
0000
,
2001
0000
3100
1000
0001
0100
0010
0100
,
0002
0000
0010
0010
0000
0100
0103
0000
,
0101
0000
0001
1000
0001
0010
1000
0010
,
0002
0000
1003
0001
1000
0100
0001
0100
,
1000
0000
0000
1000
0000
0000
0010
0000
0100
0000
0001
0100
0000
0000
0010
0000
,
1000
0100
0001
0010
2000
0000
3001
0000
,
0102
0000
1003
0001
1000
0100
0010
0001
,
2000
0000
3001
1000
0001
0100
0010
1000
,
0002
0000
0010
0010
0000
0100
0100
0100
,
2003
0000
0010
0000
0100
0000
3001
1000
,
0001
0100
1000
0100
0020
0000
0130
0001
,
1000
0100
0001
0100
0020
0000
0130
1000
,
0002
0000
1003
0100
1000
0010
0100
0001
,
2002
0000
3003
1000
0100
0010
0001
1000
,
1200
0000
1300
0001
0201
0000
0301
1000
,
0001
0010
0100
1000
0100
0010
0001
1000
,
1020
0000
1030
0001
0021
0000
0031
1000
,
0001
0100
1000
0100
0020
0000
0130
0001
,
1000
0000
0100
0000
0010
0000
0001
1000
0000
0001
1000
0000
0100
0000
0000
0000
,
1000
0000
0010
0000
0100
0000
0001
1000
0000
0001
1000
0000
0010
0000
0000
0000
,
1000
0010
0100
0001
1000
0100
0010
0002
,
0000
0013
0100
1000
0001
0100
0010
1000
,
1200
0000
0310
0001
0201
0000
0310
1000
,
0001
0100
1000
0100
0010
1000
0100
0010
,
0012
0000
0103
0010
2010
0000
3100
0010
,
0001
0010
1000
0010
0100
1000
0001
0100
,
0020
0000
0130
0101
0000
1100
0000
0001
,
0100
1000
0010
0001
0000
1000
0100
0010
,
0002
0023
0230
2300
,
3020
0000
0230
0000
0302
0000
1000
1000
,
2000
3003
0000
0000
;

//---------------dance-single - ----------------
#NOTES:
     dance-single:
     :
     Easy:
     2:
     0.183,0.227,0.009,0.101,0.000: // measure 1
0000
0000
0000
0000
,  // measure 2
0000
0000
0000
0000
,  // measure 3
0000
0000
0000
0000
,  // measure 4
0000
0000
0000
0000
,  // measure 5
0000
0000
0000
0000
,  // measure 6
2000
0000
0000
3000
,  // measure 7
0002
0000
0000
0003
,  // measure 8
0100
0000
0100
0000
,  // measure 9
0010
0010
0000
1000
,  // measure 10
1000
0000
1000
0000
,  // measure 11
0100
0000
0100
0000
,  // measure 12
0010
0000
0010
0000
,  // measure 13
0001
0000
0001
0000
,  // measure 14
1000
0000
1000
0000
,  // measure 15
0010
0000
0100
0100
,  // measure 16
0100
0000
0001
0000
,  // measure 17
1000
0000
0100
0000
,  // measure 18
0010
0000
0001
0000
,  // measure 19
1000
0000
0100
0000
,  // measure 20
1000
0000
0010
0100
,  // measure 21
0010
0000
1000
0001
,  // measure 22
1000
0000
0001
0000
,  // measure 23
1000
0010
0100
0001
,  // measure 24
1000
0000
0001
0000
,  // measure 25
0010
0000
0100
0000
,  // measure 26
1000
0000
0010
0000
,  // measure 27
0100
0000
0001
0000
,  // measure 28
1000
0000
0100
0100
,  // measure 29
0100
0000
0010
0010
,  // measure 30
0010
0000
0001
0000
,  // measure 31
1000
0010
0100
0001
,  // measure 32
1000
0000
0001
0100
,  // measure 33
0001
0000
1000
0100
,  // measure 34
1000
0000
0001
0010
,  // measure 35
0002
0000
0000
0003
,  // measure 36
1000
0010
0100
0000
,  // measure 37
0001
0010
0100
0000
,  // measure 38
1000
0000
0001
1000
,  // measure 39
1001
0000
0000
0000
,  // measure 40
2000
3000
0002
0003
,  // measure 41
1000
0010
0100
0000
,  // measure 42
0002
0003
2000
3000
,  // measure 43
0001
0010
0100
0000
,  // measure 44
1000
1000
1000
0000
,  // measure 45
0001
0001
0001
0000
,  // measure 46
1000
0000
0100
0000
,  // measure 47
0010
0001
1000
0010
,  // measure 48
0200
0300
0020
0030
,  // measure 49
0100
0010
1000
0000
,  // measure 50
0002
0003
2000
3000
,  // measure 51
0001
0010
0100
1000
,  // measure 52
0001
0000
1000
0000
,  // measure 53
0010
0010
0010
0000
,  // measure 54
1000
0100
1000
0100
,  // measure 55
0010
0001
0010
0001
,  // measure 56
1000
0000
0000
0000
;

//---------------dance-single - ----------------
#NOTES:
     dance-single:
     :
     Medium:
     5:
     0.376,0.430,0.193,0.322,0.000: // measure 1
0000
0000
0000
0000
,  // measure 2
0000
0000
0000
0000
,  // measure 3
0000
0000
0000
0000
,  // measure 4
0000
0000
0000
0000
,  // measure 5
0000
0000
0000
0000
,  // measure 6
1000
0000
0100
0000
0010
0001
0010
0000
,  // measure 7
0001
0000
0100
0000
0010
1000
0010
0000
,  // measure 8
1000
0100
0010
0001
,  // measure 9
1000
0001
1000
0000
0010
0100
0010
0000
,  // measure 10
1000
0010
0100
0001
,  // measure 11
2000
0000
3001
0000
0100
0010
0100
0000
,  // measure 12
1000
0100
0010
0001
,  // measure 13
2000
0000
3001
0000
0100
0010
0100
0000
,  // measure 14
0002
0010
0100
0013
,  // measure 15
2000
0010
0100
3010
,  // measure 16
1001
1000
0100
0010
,  // measure 17
0001
0000
0100
0010
0000
0010
0100
0000
,  // measure 18
0001
0010
0100
1000
,  // measure 19
0010
0000
0100
0001
0000
0001
0100
0000
,  // measure 20
0010
0000
1000
0000
0001
0100
0001
0000
,  // measure 21
0010
0000
0100
0000
1000
0100
1000
0000
,  // measure 22
0002
0103
2000
3100
,  // measure 23
0001
1000
0001
1000
0001
0000
0110
0000
,  // measure 24
1000
0000
0100
0000
0010
0001
0010
0000
,  // measure 25
0100
0000
1000
0001
0000
0001
1000
0000
,  // measure 26
0001
0000
0100
0000
0010
1000
0010
0000
,  // measure 27
0100
0000
0001
1000
0000
1000
0001
0000
,  // measure 28
1000
0000
0100
0000
0010
0001
0100
0000
,  // measure 29
0001
0000
0100
0000
0010
1000
0100
0000
,  // measure 30
2000
3100
0002
0103
,  // measure 31
1000
0010
0100
0001
2000
0000
3001
0000
,  // measure 32
1001
0000
1000
0000
0001
0100
0001
0000
,  // measure 33
1000
0000
0001
0000
1000
0100
1000
0000
,  // measure 34
0002
0103
2000
3100
,  // measure 35
0002
0010
0100
1003
,  // measure 36
0001
0010
0001
0010
0200
0000
1300
0000
,  // measure 37
0001
0100
0001
0100
0020
0000
1030
0000
,  // measure 38
0002
0000
1003
0000
0010
0100
0001
0000
,  // measure 39
2002
0000
3003
0000
1000
0010
0100
0000
,  // measure 40
0202
0303
2200
3300
,  // measure 41
1000
0000
0100
0000
0010
0001
1000
0000
,  // measure 42
2020
3030
0022
0033
,  // measure 43
1000
0010
0100
0000
0002
0000
0003
0000
,  // measure 44
1000
0000
0100
0000
0010
0001
0010
0000
,  // measure 45
0001
0000
0100
0000
0010
1000
0010
0000
,  // measure 46
1000
0100
0010
0001
,  // measure 47
1000
0010
1000
0010
1000
0001
1000
0000
,  // measure 48
0202
0303
2020
3030
,  // measure 49
1000
0000
0001
0000
0010
1000
0100
0000
,  // measure 50
0022
0033
2200
3300
,  // measure 51
0001
0000
0100
0000
0010
1000
0100
0000
,  // measure 52
1000
1000
0010
0010
,  // measure 53
0100
0001
1000
0002
0000
1000
1003
0000
,  // measure 54
0101
0101
1100
1100
,  // measure 55
1010
1010
0011
0011
,  // measure 56
1001
0000
0000
0000
;
