#TITLE:IKE IKE;
#SUBTITLE:;
#ARTIST:HINOIチーム;
#TITLETRANSLIT:;
#SUBTITLETRANSLIT:;
#ARTISTTRANSLIT:HINOI Team;
#CREDIT:;
#BANNER:IKE IKE.png;
#BACKGROUND:IKE IKE-bg.png;
#JACKET:IKE IKE-jacket.png;
#LYRICSPATH:;
#CDTITLE:;
#MUSIC:IKE IKE.mp3;
#OFFSET:-2.008;
#SAMPLESTART:41.360;
#SAMPLELENGTH:17.220;
#SELECTABLE:YES;
#BPMS:0.000=156.000;
#STOPS:;
#BGCHANGES:;

//---------------dance-single - ----------------
#NOTES:
     dance-single:
     :
     Hard:
     8:
     0.637,0.568,0.467,0.292,0.099:
0000
0000
0000
1000
0100
0010
0100
1000
,
0001
0000
0000
0001
0000
0000
1000
0000
0010
0000
0100
0000
0010
0000
1000
0000
,
0001
0000
0000
0001
0000
0000
0010
0000
0100
0000
0010
0000
0001
0000
0100
0000
,
0010
0000
0000
0010
0000
0000
0100
0000
0001
0000
0010
0000
0100
0000
0010
0000
,
0001
0000
0000
0001
0000
0000
1000
0000
0010
0000
0100
0000
0001
0000
0100
0000
,
0010
0000
0000
0010
0000
0000
1000
0000
0100
0000
0010
0000
0001
0000
0010
0000
,
0100
0000
0000
0100
0000
0000
1000
0000
0010
0000
0001
0000
1000
0000
0100
0000
,
0001
0000
0000
0001
0000
0000
1000
0000
0100
0000
0001
0000
1000
0000
0010
0000
,
0011
0000
0000
1100
0000
0000
0101
0000
1010
0000
0000
0000
1001
0000
0000
0000
,
1000
0020
0100
0000
0031
1000
0100
0010
,
0001
0010
0100
1000
0001
0000
1001
0000
,
0001
0200
0010
0000
1300
0001
0010
0100
,
1000
0100
0010
0001
1000
0000
1001
0000
,
0001
0100
1000
0100
0002
0000
1000
1003
,
0000
1001
0000
0001
1000
0100
0010
0002
,
0010
0000
0100
0103
0000
0001
0100
1010
,
0000
1000
0100
0012
0000
1000
1003
0000
,
0002
0000
0013
0020
0000
2030
0000
3020
,
0000
0001
0031
0000
1001
0000
0001
0200
,
0000
0010
0310
0000
1001
0000
1000
0001
,
0101
1010
0011
1100
,
0001
0200
0000
2300
0000
3200
0000
0320
,
0000
0100
0130
0000
1001
0000
0001
0020
,
0000
0130
1000
0010
0100
0001
0000
2000
,
0000
3001
0010
0100
1000
1000
0001
0000
,
1001
0000
0000
0101
0000
0000
1100
0000
1001
0000
1000
0000
0100
0000
0010
0000
,
1001
0001
0100
0010
0000
1000
0010
0100
,
0000
0001
0010
0200
0000
1000
1000
0001
,
0301
0100
1000
0001
0000
0100
0001
1000
,
1010
0101
0011
1100
,
0001
0010
0100
1000
0000
0010
0100
0001
,
0000
1000
0001
0020
0000
0031
0010
0100
,
1000
1000
0100
0000
0001
0001
0100
0000
,
2000
0000
0010
3010
0000
1000
0010
0100
,
1001
1000
0010
0100
0000
0001
0100
0010
,
0000
1000
0100
0020
0000
0001
0001
1000
,
1030
0010
0001
1000
0000
0010
1000
0001
,
0101
1010
1100
0011
,
1000
0100
0010
0001
0000
0100
0010
1000
,
0000
0001
1000
0200
0000
1300
0100
0010
,
0001
0001
0010
0000
1000
1000
0010
0000
,
0002
0000
0103
0100
2000
0000
3100
0000
,
0101
0101
1100
2200
0000
3300
0000
1000
,
0100
0000
0010
0000
0100
0000
1000
0000
0001
0000
0000
0001
0000
0000
1000
0000
,
0010
0000
0100
0000
0010
0000
1000
0000
0001
0000
0000
0001
0000
0000
0010
0000
,
0100
0000
0010
0000
0001
0000
0100
0000
0010
0000
0000
0010
0000
0000
0100
0000
,
0001
0000
0010
0000
0100
0000
0010
0000
0001
0000
0000
0001
0000
0000
1000
0000
,
0010
0000
0100
0000
0001
0000
0100
0000
0010
0000
0000
0010
0000
0000
1000
0000
,
0100
0000
0010
0000
0001
0000
0010
0000
0100
0000
0000
0100
0000
0000
1000
0000
,
0010
0000
0001
0000
1000
0000
0100
0000
0001
0000
0000
0001
0000
0000
1000
0000
,
0100
0000
0001
0000
1000
0000
0010
0000
0011
0000
0000
1100
0000
0000
0101
0000
,
1010
1001
0000
0000
;

//---------------dance-single - ----------------
#NOTES:
     dance-single:
     :
     Easy:
     4:
     0.327,0.269,0.047,0.163,0.000: // measure 1
0000
0000
1000
0001
,  // measure 2
2000
3000
0001
0100
,  // measure 3
0002
0003
1000
0100
,  // measure 4
2000
3000
0001
0010
,  // measure 5
0002
0003
1000
0010
,  // measure 6
0200
0300
0001
0100
,  // measure 7
0020
0030
1000
0100
,  // measure 8
0020
0030
0001
0010
,  // measure 9
0100
1000
0001
1001
,  // measure 10
1000
0010
0000
0010
,  // measure 11
1000
0010
0100
0001
,  // measure 12
1000
0100
0000
0100
,  // measure 13
1000
0100
0010
0001
,  // measure 14
1000
0010
0100
0001
,  // measure 15
1000
0100
0010
0001
,  // measure 16
1000
0000
0000
0001
,  // measure 17
0001
1000
1000
0000
,  // measure 18
0001
0100
0010
1000
,  // measure 19
0010
0100
0001
0000
,  // measure 20
1000
0100
0010
0001
,  // measure 21
1000
1000
1000
1000
,  // measure 22
0001
0010
0100
1000
,  // measure 23
0100
0010
0001
0000
,  // measure 24
1000
0010
0100
0001
,  // measure 25
1000
0100
0010
0001
,  // measure 26
1000
1000
0001
0000
,  // measure 27
1000
0010
0100
0001
,  // measure 28
0100
0010
1000
0001
,  // measure 29
1000
0100
0010
0001
,  // measure 30
1000
1000
0001
0001
,  // measure 31
1000
0010
0100
0001
,  // measure 32
0100
0010
1000
0001
,  // measure 33
1000
0100
0010
0001
,  // measure 34
1001
0000
0110
0000
,  // measure 35
0001
0010
0100
1000
,  // measure 36
0100
0010
0001
1000
,  // measure 37
0001
0100
0010
1000
,  // measure 38
0001
0001
1000
1000
,  // measure 39
0001
0010
1000
0010
,  // measure 40
0001
0100
1000
0100
,  // measure 41
0010
0100
0001
0010
,  // measure 42
0100
0100
0010
0010
,  // measure 43
0001
0001
0000
0000
,  // measure 44
1000
0001
2000
3000
,  // measure 45
0001
0100
0002
0003
,  // measure 46
1000
0100
2000
3000
,  // measure 47
0001
0010
0002
0003
,  // measure 48
1000
0010
0200
0300
,  // measure 49
0001
0100
0020
0030
,  // measure 50
1000
0100
0020
0030
,  // measure 51
0001
0010
0100
1000
,  // measure 52
0001
1001
0000
0000
;

//---------------dance-single - ----------------
#NOTES:
     dance-single:
     :
     Medium:
     6:
     0.555,0.448,0.397,0.140,0.000: // measure 1
0000
0000
0000
1000
0100
1000
0100
1000
,  // measure 2
0100
0000
1100
0000
0001
0100
0001
0100
,  // measure 3
0001
0000
0101
0000
1000
0010
1000
0010
,  // measure 4
1000
0000
1010
0000
0001
0010
0001
0010
,  // measure 5
0001
0000
0011
0000
0001
0100
0010
1000
,  // measure 6
0010
0000
0101
0000
0001
0010
0100
1000
,  // measure 7
0100
0000
0011
0000
1000
0010
0100
0001
,  // measure 8
1000
0000
1001
0000
0001
0010
0100
1000
,  // measure 9
0002
0000
0100
0100
0103
0000
1001
0000
,  // measure 10
1000
0001
2000
0000
0100
0000
3100
0000
,  // measure 11
1000
0010
0100
0000
0001
0000
1001
0000
,  // measure 12
0001
1000
0002
0000
0100
0000
0103
0000
,  // measure 13
0001
0010
0100
0000
1100
0000
0101
0000
,  // measure 14
1000
0010
1000
0000
0010
0100
0010
0000
,  // measure 15
0100
0001
0100
0000
0001
0010
0001
0000
,  // measure 16
0010
0100
0010
0000
0100
1000
0100
0000
,  // measure 17
1000
0010
1000
0000
0010
0100
0010
0000
,  // measure 18
1000
0000
0100
0100
0000
0010
0000
0001
,  // measure 19
0000
0010
0010
0000
0100
0000
1001
0000
,  // measure 20
1000
0010
0100
0000
0001
0000
1000
0100
,  // measure 21
0010
1001
0100
1001
,  // measure 22
1000
0010
0000
0100
0000
0001
0000
0100
,  // measure 23
0000
0010
1000
0000
0001
0000
1001
0000
,  // measure 24
1000
0100
1000
0100
1000
0100
1000
0000
,  // measure 25
0001
0100
0001
0100
0001
0100
0001
0000
,  // measure 26
2000
0000
0100
0100
3100
0000
1001
0000
,  // measure 27
1000
0010
0100
0000
0001
0100
0010
0000
,  // measure 28
1000
0100
0010
0000
0001
0010
0100
0000
,  // measure 29
1000
0001
0010
0000
0001
1000
0010
0000
,  // measure 30
0101
0101
1100
1100
,  // measure 31
0001
0010
0100
0000
1000
0100
0010
0000
,  // measure 32
0001
0100
0010
0000
1000
0010
0100
0000
,  // measure 33
0001
1000
0010
0000
1000
0001
0010
0000
,  // measure 34
2100
3001
0102
1003
,  // measure 35
0001
0100
0010
0000
1000
0001
0010
0000
,  // measure 36
0001
1000
0100
0000
1000
0010
0100
0000
,  // measure 37
0001
0010
0100
0000
1000
0001
0010
0000
,  // measure 38
0102
0013
2100
3010
,  // measure 39
1000
0010
0100
0000
0001
0010
0100
0000
,  // measure 40
1000
0001
0010
0000
0001
1000
0010
0000
,  // measure 41
1000
0010
0100
0000
0001
0100
0010
0000
,  // measure 42
2010
3100
0012
0103
,  // measure 43
0001
0100
0010
2000
0000
3000
0000
0001
,  // measure 44
0010
0001
0010
0001
0010
0000
0011
0000
,  // measure 45
1000
0010
1000
0010
1000
0000
1010
0000
,  // measure 46
0001
0100
0001
0100
0001
0000
0101
0000
,  // measure 47
1000
0100
1000
0100
1000
0000
1100
0000
,  // measure 48
1000
0010
0100
0001
0100
0000
1010
0000
,  // measure 49
1000
0100
0010
0001
0010
0000
1100
0000
,  // measure 50
0001
0100
0010
1000
0001
0000
1001
0000
,  // measure 51
1000
0100
0010
0001
2000
0000
0010
0010
,  // measure 52
3010
1001
0000
0000
;
