#VERSION:0.81;
#TITLE:百音色;
#SUBTITLE:;
#ARTIST:にュウ;
#TITLETRANSLIT:Hyakuneiro;
#SUBTITLETRANSLIT:;
#ARTISTTRANSLIT:niu;
#GENRE:;
#ORIGIN:;
#CREDIT:;
#BANNER:Hyakuneiro.png;
#BACKGROUND:Hyakuneiro-bg.png;
#PREVIEWVID:;
#JACKET:Hyakuneiro-jacket.png;
#CDIMAGE:;
#DISCIMAGE:;
#LYRICSPATH:;
#CDTITLE:;
#MUSIC:Hyakuneiro.mp3;
#OFFSET:-0.100;
#SAMPLESTART:48.060;
#SAMPLELENGTH:16.420;
#SELECTABLE:YES;
#BPMS:0.000=180.000,
207.500=185.000,
208.000=180.000;
#DISPLAYBPM:180;
#STOPS:;
#DELAYS:;
#WARPS:;
#TIMESIGNATURES:0.000=4=4;
#TICKCOUNTS:0.000=4;
#COMBOS:0.000=1;
#SPEEDS:0.000=1.000=0.000=0;
#SCROLLS:0.000=1.000;
#FAKES:;
#LABELS:0.000=Song Start;
#BGCHANGES:;
#KEYSOUNDS:;
#ATTACKS:
;

//---------------dance-single - ----------------
#NOTEDATA:;
#CHARTNAME:;
#STEPSTYPE:dance-single;
#DESCRIPTION:;
#CHARTSTYLE:;
#DIFFICULTY:Hard;
#METER:8;
#RADARVALUES:0.711,0.657,0.525,0.607,0.051,374.000,51.000,59.000,0.000,0.000,0.000,0.000,0.000,0.711,0.657,0.525,0.607,0.051,374.000,51.000,59.000,0.000,0.000,0.000,0.000,0.000;
#CREDIT:;
#NOTES:
// measure 0
0000
0000
0000
0000
,  // measure 1
0000
0000
0000
0000
,  // measure 2
0000
0000
0000
0000
,  // measure 3
0000
0000
0000
0000
,  // measure 4
2000
3020
0230
0302
,  // measure 5
2003
0000
0001
0001
3001
0000
1001
0000
,  // measure 6
1000
0100
0001
0100
1000
0010
0001
0010
,  // measure 7
2000
3010
0102
1003
,  // measure 8
0001
0010
0010
0001
0100
0100
0001
0010
,  // measure 9
0200
0310
1002
0103
,  // measure 10
1000
0010
0010
1000
0100
0100
1000
0010
,  // measure 11
0200
0310
2001
3001
,  // measure 12
0101
1010
0011
1100
,  // measure 13
0102
0000
1003
1000
0200
0000
0310
0000
,  // measure 14
0001
0100
0100
0010
1000
1000
0001
0010
,  // measure 15
0200
0000
0310
0000
0001
0100
0010
1000
,  // measure 16
0002
0000
0000
0000
0013
0000
0100
1000
0100
0000
0010
0000
0001
0000
0100
0000
,  // measure 17
0020
0000
0000
0000
1030
0000
0010
0100
0010
0000
0100
0000
0001
0000
1000
0000
,  // measure 18
0200
0000
0000
0000
0310
0000
0001
0010
0001
0000
0100
0000
0010
0000
1000
0000
,  // measure 19
0002
0000
0013
0100
1000
1000
1000
0000
,  // measure 20
0001
0000
0100
0000
1000
0000
0100
0010
0100
0000
0010
0000
1000
0000
0100
0000
,  // measure 21
0010
0000
0000
0001
0000
0000
0100
0000
0000
0000
0010
0000
1000
0000
1100
0000
,  // measure 22
0000
0101
0000
1001
0000
1000
0010
0100
,  // measure 23
0001
0000
0010
0000
0100
0000
1000
0001
1000
0000
0010
0000
0100
0000
0100
0000
,  // measure 24
0002
0000
0103
0200
0000
0310
1000
1100
,  // measure 25
0000
0101
0000
1001
0000
1000
0100
0010
,  // measure 26
0001
0000
0100
1000
0000
0001
0000
0010
,  // measure 27
1000
0000
1001
1000
0100
0100
0010
0010
,  // measure 28
0002
0000
0013
0020
0000
0130
1000
1010
,  // measure 29
0000
0011
0000
1001
2000
0000
0100
0100
,  // measure 30
3100
0000
1000
0100
0001
0010
1000
0000
,  // measure 31
0001
0000
0101
0101
0000
0001
0010
0100
,  // measure 32
2100
0010
0001
3100
,  // measure 33
1000
0010
0001
0010
1000
0100
0001
0100
,  // measure 34
1100
0000
0101
0101
0000
1001
1001
0000
,  // measure 35
1000
0100
0010
0001
1000
0010
0100
0001
,  // measure 36
0102
0010
1000
0103
,  // measure 37
2100
0010
0001
3100
,  // measure 38
1000
0010
0001
0010
1000
0100
0001
0100
,  // measure 39
0020
0130
1002
0103
,  // measure 40
0002
0023
2030
3200
,  // measure 41
0302
0000
1000
1000
1003
0000
1001
0000
,  // measure 42
1000
0100
0001
0100
1000
0010
0001
0010
,  // measure 43
0200
0310
2001
3100
,  // measure 44
2000
0010
3010
0200
0001
0301
1000
0100
,  // measure 45
0012
0103
2010
3100
,  // measure 46
2000
0100
3100
0020
0001
0031
0100
0010
,  // measure 47
2010
3100
0021
0130
,  // measure 48
1000
0100
0001
0100
1000
0010
0001
0010
,  // measure 49
1010
0000
1010
0000
0000
0000
0000
0000
0011
0000
0000
0000
1000
0001
1000
0001
,  // measure 50
1000
0000
0001
0100
0000
0100
0001
0000
0010
0000
0100
0000
1000
0000
0001
0000
,  // measure 51
1000
0010
0001
0010
1000
0100
0001
0100
,  // measure 52
2000
0000
0010
0010
0000
0100
3100
0000
,  // measure 53
1100
0011
0101
1010
,  // measure 54
0001
0100
1000
0100
0010
0100
0001
0010
,  // measure 55
0200
0310
1002
0103
,  // measure 56
0002
0023
0230
2300
,  // measure 57
3002
0000
0100
0100
0103
0000
0101
0000
,  // measure 58
0001
0100
1000
0100
0010
1000
0100
0010
,  // measure 59
0002
0103
2001
3100
,  // measure 60
2010
0000
0001
0001
3001
0000
1000
0000
,  // measure 61
0012
0000
1000
1000
1003
0000
0001
0000
,  // measure 62
2100
0000
0001
0001
3001
0000
1000
0000
,  // measure 63
0102
0000
1000
1000
1003
0000
0001
0000
,  // measure 64
1000
0100
0001
0100
0010
0001
0100
1000
,  // measure 65
0100
0010
1000
0100
0010
0001
0100
0010
,  // measure 66
2002
0000
0000
0000
,  // measure 67
0000
0000
0000
0000
,  // measure 68
0000
0000
0000
0000
,  // measure 69
0000
0000
0000
0000
,  // measure 70
0000
0000
0000
0000
,  // measure 71
3003
0000
0000
0000
;

//---------------dance-single - Blank----------------
#NOTEDATA:;
#CHARTNAME:;
#STEPSTYPE:dance-single;
#DESCRIPTION:Blank;
#CHARTSTYLE:;
#DIFFICULTY:Easy;
#METER:4;
#RADARVALUES:0.366,0.329,0.082,0.134,0.000,228.000,8.000,13.000,0.000,0.000,0.000,0.000,0.000,0.366,0.329,0.082,0.134,0.000,228.000,8.000,13.000,0.000,0.000,0.000,0.000,0.000;
#CREDIT:;
#OFFSET:-0.100;
#BPMS:0.000=180.000
;
#STOPS:;
#DELAYS:;
#WARPS:;
#TIMESIGNATURES:0.000=4=4
;
#TICKCOUNTS:0.000=4
;
#COMBOS:0.000=1
;
#SPEEDS:0.000=1.000=0.000=0
;
#SCROLLS:0.000=1.000
;
#FAKES:;
#LABELS:0.000=Song Start
;
#NOTES:
0000
0000
0000
0000
,
0000
0000
0000
0000
,
0000
0000
0000
0000
,
0000
0000
0000
0000
,
1000
0010
1000
0010
,
0100
0001
0100
0001
,
1000
0100
0010
0001
,
1000
0000
0001
0000
,
1000
0010
0001
0010
,
0200
0300
0020
0030
,
1000
0100
0001
0100
,
0020
0030
0200
0300
,
1000
0010
0100
0001
,
1000
0100
0010
0001
,
1000
1000
0010
0010
,
0100
0100
0001
1000
,
0001
0010
0001
0100
,
0010
1000
0010
0100
,
0001
1000
0001
0100
,
0001
0010
0100
1000
,
0001
0100
1000
0100
,
0010
1000
0001
0100
,
0001
0010
1000
0010
,
0100
1000
0001
1001
,
1000
1000
0010
0010
,
0100
0100
0001
0001
,
1000
0100
0001
0100
,
2000
3000
0001
0001
,
0100
0001
0010
1000
,
0010
0001
1000
0100
,
0000
1000
0010
0001
,
0000
1000
0100
0001
,
1000
1000
0100
0100
,
0010
0010
0001
0001
,
1000
0010
0100
0001
,
2000
3000
0002
0003
,
1000
0100
0001
0100
,
1000
0010
0001
0010
,
1000
0100
0001
0010
,
2000
3000
0002
0003
,
1000
0010
0001
0010
,
1000
0100
0001
0100
,
1000
0010
0001
0100
,
2000
3000
0002
0003
,
1000
0010
0100
0001
,
0101
0000
1100
0000
,
0001
0010
0100
1000
,
1100
0000
0101
0000
,
1000
0010
0001
0010
,
1010
0000
0011
0000
,
1000
0010
0001
0100
,
1000
1000
0001
0001
,
1000
0010
1000
0010
,
0100
0001
0100
0001
,
1000
0100
1000
0100
,
0010
0001
0010
0001
,
1000
0010
0100
0010
,
1000
0100
0010
0100
,
1000
0001
0010
0001
,
1000
0100
1000
0001
,
0010
0010
0010
0100
,
1000
1000
1000
0010
,
0100
0100
0100
0001
,
0010
0010
0010
0001
,
1000
0010
0001
0010
,
1000
0100
0001
0100
,
2002
0000
0000
0000
,
0000
0000
0000
0000
,
0000
0000
0000
0000
,
0000
0000
0000
0000
,
0000
0000
0000
0000
,
3003
0000
0000
0000
;

//---------------dance-single - Blank----------------
#NOTEDATA:;
#CHARTNAME:;
#STEPSTYPE:dance-single;
#DESCRIPTION:Blank;
#CHARTSTYLE:;
#DIFFICULTY:Medium;
#METER:6;
#RADARVALUES:0.586,0.584,0.278,0.885,0.000,286.000,27.000,86.000,0.000,0.000,0.000,0.000,0.000,0.586,0.584,0.278,0.885,0.000,286.000,27.000,86.000,0.000,0.000,0.000,0.000,0.000;
#CREDIT:;
#OFFSET:-0.100;
#BPMS:0.000=180.000
;
#STOPS:;
#DELAYS:;
#WARPS:;
#TIMESIGNATURES:0.000=4=4
;
#TICKCOUNTS:0.000=4
;
#COMBOS:0.000=1
;
#SPEEDS:0.000=1.000=0.000=0
;
#SCROLLS:0.000=1.000
;
#FAKES:;
#LABELS:0.000=Song Start
;
#NOTES:
// measure 0
0000
0000
0000
0000
,  // measure 1
0000
0000
0000
0000
,  // measure 2
0000
0000
0000
0000
,  // measure 3
0000
0000
0000
0000
,  // measure 4
2000
3200
0320
0032
,  // measure 5
2003
3020
0230
0302
,  // measure 6
2003
3020
0032
0023
,  // measure 7
2030
3100
0002
0103
,  // measure 8
2000
3020
0032
0023
,  // measure 9
0230
0301
2000
3001
,  // measure 10
2000
3200
0302
0203
,  // measure 11
0320
0031
2000
3001
,  // measure 12
1010
0101
0011
1100
,  // measure 13
2001
3100
1002
0103
,  // measure 14
0012
0000
0100
0100
0000
1000
1003
0000
,  // measure 15
2100
0000
3001
0000
1000
0010
0100
0001
,  // measure 16
1000
0000
0010
0000
0100
0001
0100
0000
,  // measure 17
0001
0000
0010
0000
0100
1000
0100
0000
,  // measure 18
1000
0000
0010
0000
0100
0001
1000
0000
,  // measure 19
0100
0000
1000
0000
0010
0100
0001
0000
,  // measure 20
0010
0100
0010
0000
0001
0000
1000
0000
,  // measure 21
0010
0100
0010
0000
1000
0000
0001
0000
,  // measure 22
0100
0010
0100
0000
0001
0000
1000
0000
,  // measure 23
0001
0010
0100
1000
0001
0000
1001
0000
,  // measure 24
0002
0010
0100
1003
,  // measure 25
2000
0010
0100
3001
,  // measure 26
0002
0023
2030
3200
,  // measure 27
0302
0000
1003
0000
0010
0100
0001
0000
,  // measure 28
2000
0010
0001
3100
,  // measure 29
0002
0010
1000
0103
,  // measure 30
1000
0000
0001
0100
0010
1000
0001
0000
,  // measure 31
0010
0000
0100
0100
0000
1000
1000
0000
,  // measure 32
0101
0101
1100
1100
,  // measure 33
0011
0011
1010
1010
,  // measure 34
1001
0000
0010
0100
0000
0001
1000
0000
,  // measure 35
0020
0130
0002
1003
,  // measure 36
2100
0010
0001
3100
,  // measure 37
0102
0010
1000
0103
,  // measure 38
0001
0100
0010
0000
1000
0010
0100
0000
,  // measure 39
0002
0013
0200
1300
,  // measure 40
0012
0100
1000
0013
,  // measure 41
2010
0100
0001
3010
,  // measure 42
1000
0010
0100
0000
0001
0100
0010
0000
,  // measure 43
2000
3100
0020
0031
,  // measure 44
1000
0010
0000
1000
0010
0000
0100
0000
,  // measure 45
0002
0013
2000
3010
,  // measure 46
0001
0100
0000
0001
0100
0000
0010
0000
,  // measure 47
2000
3100
0002
0103
,  // measure 48
1100
1100
0101
0101
,  // measure 49
0001
0001
0000
0000
2000
0000
3001
0000
,  // measure 50
0020
0000
0100
0100
0000
0001
0031
0000
,  // measure 51
0010
0001
0100
0010
1000
0100
1000
0001
,  // measure 52
2000
3010
0002
0013
,  // measure 53
2000
3020
0230
0302
,  // measure 54
2003
3200
0320
0032
,  // measure 55
2003
3100
0002
0103
,  // measure 56
2000
3020
0032
0203
,  // measure 57
2300
3020
0230
0301
,  // measure 58
2000
3200
0302
0203
,  // measure 59
0320
0130
2000
3001
,  // measure 60
2000
0000
0010
0010
3010
0000
1000
0000
,  // measure 61
0002
0000
0010
0010
0013
0000
0001
0000
,  // measure 62
2000
0000
0100
0100
3100
0000
1000
0000
,  // measure 63
0002
0000
0100
0100
0103
0000
0001
0000
,  // measure 64
1000
0100
0010
0000
0001
0010
0100
0000
,  // measure 65
1000
0010
0100
0001
0100
0010
1000
0000
,  // measure 66
2002
0000
0000
0000
,  // measure 67
0000
0000
0000
0000
,  // measure 68
0000
0000
0000
0000
,  // measure 69
0000
0000
0000
0000
,  // measure 70
0000
0000
0000
0000
,  // measure 71
3003
0000
0000
0000
;
