#TITLE:Howling;
#SUBTITLE:;
#ARTIST:PON;
#TITLETRANSLIT:;
#SUBTITLETRANSLIT:;
#ARTISTTRANSLIT:;
#CREDIT:;
#BANNER:Howling.png;
#BACKGROUND:Howling-bg.png;
#JACKET:Howling-jacket.png;
#LYRICSPATH:;
#CDTITLE:;
#MUSIC:Howling.mp3;
#OFFSET:-0.319;
#SAMPLESTART:17.340;
#SAMPLELENGTH:16.040;
#SELECTABLE:YES;
#DISPLAYBPM:155.000;
#BPMS:0.000=155.000,192.000=310.000,194.000=155.000;
#STOPS:192.000=0.097
,192.500=0.097
,193.000=0.097
,193.500=0.097
;
#BGCHANGES:;

//---------------dance-single - ----------------
#NOTES:
     dance-single:
     :
     Hard:
     8:
     0.695,0.664,0.280,0.460,0.226:
0000
0000
0000
0000
,
0000
0000
0000
0000
,
2200
3300
0202
0303
,
1000
0010
0100
0001
2000
0000
3001
0000
,
1002
0000
0103
0100
2000
0000
3100
0100
,
0110
0000
0110
0000
2001
0000
3001
1000
,
0002
0000
0013
0010
2000
0000
3010
0010
,
0001
0000
0000
0001
0000
0000
0001
0000
0100
0000
0000
0100
0000
0000
0100
0000
,
0010
0000
0000
0010
0000
0000
0010
0000
1000
0000
0000
1000
0000
0000
1000
0000
,
0001
0000
0000
0010
0000
0000
0100
0000
1000
0000
0000
0010
0000
0000
0100
0000
,
0001
0000
0000
0100
0000
0000
0010
0000
1000
0000
1000
0000
0001
0000
0001
0000
,
2000
0000
3100
0100
0020
0000
0031
0001
,
2000
0000
3010
0010
0200
0000
0301
0001
,
2000
0000
3100
0100
0002
0000
0103
0000
,
1000
0010
0001
0100
2000
0000
3001
0000
,
2000
0000
3010
0010
0200
0000
1300
1000
,
0002
0000
0013
0010
0200
0000
0301
0001
,
2000
0000
3010
0010
0002
0000
0013
0000
,
1000
0100
0001
0010
1000
1000
0001
0001
,
1000
0000
0000
1000
0000
0000
0010
0000
0100
0000
0000
0100
0000
0000
0001
0000
,
1000
0000
0000
1000
0000
0000
0100
0000
0010
0000
0000
0010
0000
0000
0100
0000
,
1000
0000
0000
1000
0000
0000
0010
0000
0100
0000
0000
0100
0000
0000
0001
0000
,
1000
0100
0001
0100
1000
0010
0001
0010
,
1000
0000
0000
1000
0000
0000
0010
0000
0001
0000
0000
0001
0000
0000
0010
0000
,
0100
0000
0000
0100
0000
0000
0001
0000
0010
0000
0000
0010
0000
0000
0100
0000
,
1000
0000
0000
1000
0000
0000
0100
0000
0001
0000
0000
0001
0000
0000
0100
0000
,
1000
0010
0001
0010
1000
0100
0001
0100
,
1000
0000
0010
0000
0010
0000
0000
0000
0101
0000
0000
1100
0000
0000
0101
0000
,
1000
0000
0100
0000
0100
0000
0000
0000
0011
0000
0000
1010
0000
0000
0011
0000
,
1000
0000
0001
0000
0001
0000
0000
0000
1100
0000
0000
0011
0000
0000
1100
0000
,
0001
0000
1000
0000
1000
0000
0000
0000
0010
0100
0010
0000
0000
0000
0100
0010
,
0100
0000
0001
0000
0001
0000
0000
0000
1100
0000
0000
1010
0000
0000
1100
0000
,
0100
0000
1000
0000
1000
0000
0000
0000
0011
0000
0000
0101
0000
0000
0011
0000
,
1000
0000
0001
0000
1000
0000
0000
0000
0110
0000
0000
0101
0000
0000
1100
0000
,
0001
1000
0001
0100
0010
1000
0010
1000
,
0100
1000
0000
0100
0001
0100
0000
0001
,
0010
0001
0000
0010
1000
0010
0000
1000
,
0100
0010
0000
0100
0010
1000
0000
0010
,
1000
0001
0000
1000
0001
0100
1000
0001
,
0100
1000
0000
0100
1000
0010
0000
1000
,
0010
0001
0000
0010
0001
0100
0000
0001
,
0001
0100
0100
0010
0010
1000
1000
0010
,
0010
0100
0100
0001
0002
0000
1003
0001
,
0001
0010
0010
0100
0100
1000
1000
0100
,
0100
0000
0010
0000
0010
0000
0001
0000
1000
0001
1000
0001
1000
0000
0000
0000
,
2002
0000
0000
0000
3003
0000
0001
0100
0002
0000
0000
0000
0003
0000
1000
0100
,
1000
0000
0000
0000
0010
0000
0000
0000
1000
0000
0000
0000
0010
0000
0000
0000
0000
0000
0100
0000
0000
0001
0000
0000
0010
0000
0000
0000
0000
0000
0001
0000
0000
0010
0000
0000
0001
0000
0000
0000
0000
0000
0100
0000
0000
0010
0000
0000
,
2000
0000
0000
0000
3000
0000
0100
0010
0002
0000
0000
0000
0003
0000
0000
0000
,
1000
0000
0010
0000
0100
0000
0001
0000
1000
0001
1000
0001
0200
0000
0300
0000
,
2010
0000
3100
0100
0020
0000
0031
0001
,
2000
0000
3010
0010
0200
0000
0301
0001
,
2000
0000
3100
0100
0002
0000
0103
0100
,
2000
0000
0000
0000
3001
0000
0000
0000
0100
0010
0000
1000
0001
0000
1001
0000
,
2000
0100
3100
1000
0002
0100
0103
0001
,
2000
0010
3010
1000
0002
0010
0013
0001
,
2000
0100
3100
0001
0200
0010
0310
0001
,
1000
0000
0010
0000
0001
0000
0100
0000
1000
0000
0001
0100
0001
0000
1000
0000
,
0002
0010
0013
0001
2000
0010
3010
1000
,
0002
0100
0103
0001
2000
0100
3100
1000
,
0002
0010
0013
1000
0020
0100
0130
0000
,
1000
0010
0001
0100
1000
1000
0001
0001
,
1000
0000
0000
1000
0010
0000
0100
0000
0001
0000
0001
0000
0101
0000
0001
0000
,
0010
0000
0000
0010
0100
0000
1000
0000
0010
0000
0010
0000
1010
0000
0000
0000
,
1000
0100
0001
0200
0000
0010
0310
0010
,
0001
0000
0100
0000
1000
0000
0010
0000
0001
0000
1000
0100
1000
0000
0001
0000
,
1000
0000
0000
1000
0100
0000
0010
0000
0001
0000
0001
0000
0011
0000
0001
0000
,
0100
0000
0000
0100
0010
0000
1000
0000
0100
0000
0100
0000
1100
0000
0000
0000
,
1000
0010
0001
0010
1000
0100
0001
0100
,
1000
0000
0010
0000
0100
0000
0001
0000
0100
0000
0010
1000
0001
1000
0001
1000
,
0200
0000
0000
0000
,
0300
0000
0000
0000
;

//---------------dance-single - ----------------
#NOTES:
     dance-single:
     :
     Easy:
     4:
     0.344,0.379,0.135,0.280,0.000:
0000
0000
0000
0000
,
0000
0000
0000
0000
,
0000
0000
0000
0000
,
0000
0000
0000
0000
,
2000
3000
0002
0003
,
0100
0010
0110
0000
,
0002
0003
2000
3000
,
0001
0001
0001
0001
,
1000
1000
1000
1000
,
0010
0010
0100
0100
,
0001
0010
0100
1000
,
0002
0003
0020
0030
,
0200
0300
2000
3000
,
0020
0030
0200
0300
,
0001
0100
1001
0000
,
2000
3000
0200
0300
,
0020
0030
0002
0003
,
2000
3000
0020
0030
,
0100
0001
1000
0001
,
1000
1000
0100
0100
,
0010
0010
0001
0001
,
1000
1000
0010
0010
,
0100
0100
0001
0001
,
1000
1000
0100
0100
,
0001
0001
0100
0100
,
1000
1000
0010
0010
,
0001
0001
0010
0010
,
1000
0010
0100
0100
,
0001
0010
0100
0100
,
1000
0100
0010
0010
,
0001
1000
0001
1001
,
1000
0010
0100
0100
,
0001
0010
0100
0100
,
1000
0100
0010
0010
,
0001
0100
0010
1000
,
0001
0000
0101
0000
,
1000
0000
1100
0000
,
0001
0000
0011
0000
,
1000
0010
0100
0001
,
1000
0000
1010
0000
,
0001
0000
0011
0000
,
0001
0001
0010
0010
,
0100
0100
1000
1000
,
0001
0001
0100
0100
,
0010
0000
0010
0000
1000
1000
1000
0000
,
0002
0003
0020
0030
,
0200
0300
2000
3000
,
0002
0003
0200
0300
,
0010
0010
0010
1001
,
2000
3000
0200
0300
,
0020
0030
0002
0003
,
2000
3000
0020
0030
,
0200
0300
1001
1001
,
1001
0001
0100
0001
,
1000
0100
1000
0100
,
0010
0001
0010
0001
,
1000
0010
0100
1001
,
1000
0100
0010
0001
,
1000
0010
0100
0001
,
1000
0100
0001
0100
,
0010
0001
1000
1001
,
1000
1000
0010
0010
,
0100
0100
0001
0001
,
1000
1000
0100
0100
,
0010
0010
0001
0001
,
1000
1000
0100
0100
,
0001
0001
0100
0100
,
1000
1000
0010
0010
,
0001
0001
0010
0010
,
2002
0000
0000
0000
,
3003
0000
0000
0000
;

//---------------dance-single - ----------------
#NOTES:
     dance-single:
     :
     Medium:
     7:
     0.610,0.569,0.776,0.442,0.005: // measure 1
0000
0000
0000
0000
,  // measure 2
0000
0000
0000
0000
,  // measure 3
0000
0000
0000
0000
,  // measure 4
0000
0000
0000
0000
,  // measure 5
2000
3100
0002
0103
,  // measure 6
2000
3010
0002
0013
,  // measure 7
2000
3010
0200
0301
,  // measure 8
1000
0100
1000
0000
0001
0100
0001
0000
,  // measure 9
1000
0010
1000
0000
0001
0010
0001
0000
,  // measure 10
1000
0010
0100
0000
0001
0100
0010
0000
,  // measure 11
1000
0100
0010
0000
0001
1000
0001
1000
,  // measure 12
0102
1003
2100
3001
,  // measure 13
0012
1003
2010
3001
,  // measure 14
2100
3010
0102
0013
,  // measure 15
0001
0100
0010
1000
0002
0000
1003
0000
,  // measure 16
0012
0103
2010
3100
,  // measure 17
0102
0013
2100
3010
,  // measure 18
1020
0130
0021
0130
,  // measure 19
1000
0010
0100
0001
1000
0100
0010
0001
,  // measure 20
1000
1100
1010
1100
,  // measure 21
0001
0101
0011
0101
,  // measure 22
0010
0110
1001
0110
,  // measure 23
1000
0100
0010
0001
0010
0100
1000
0001
,  // measure 24
1000
1010
0101
1010
,  // measure 25
0001
0011
1100
0011
,  // measure 26
0010
1001
0110
1001
,  // measure 27
1000
0100
0010
0001
1000
1000
1000
0000
,  // measure 28
0001
0100
0001
0000
1010
0000
0101
0000
,  // measure 29
0001
0010
0001
0000
1100
0000
0011
0000
,  // measure 30
1000
0010
0100
0000
0101
0000
1010
0000
,  // measure 31
1000
0100
0010
0000
0011
0000
1100
0000
,  // measure 32
0001
0100
1000
0000
0110
0000
1001
0000
,  // measure 33
1000
0100
0001
0000
0110
0000
1001
0000
,  // measure 34
1000
0010
0001
0000
0110
0000
1001
0000
,  // measure 35
1000
0010
0100
0001
0100
0010
1000
0001
,  // measure 36
0001
0001
0000
0010
0010
0010
0000
0100
,  // measure 37
0100
0100
0000
1000
1000
1000
0000
0010
,  // measure 38
0010
0010
0000
0100
0100
0100
0000
0001
,  // measure 39
0001
0001
0000
1000
0100
0010
0001
0010
,  // measure 40
0010
0010
0000
0100
0100
0100
0000
1000
,  // measure 41
1000
1000
0000
0001
0001
0001
0000
1000
,  // measure 42
0010
1000
0010
0100
0010
0100
0001
0100
,  // measure 43
0001
0100
0001
1000
0002
0000
0003
1000
,  // measure 44
0010
0100
0010
0100
0001
0100
0001
0100
,  // measure 45
0001
0010
0100
1000
0001
0001
0001
0000
,  // measure 46
2020
3030
0202
0303
,  // measure 47
0010
0010
0010
0000
0100
0100
0100
0000
,  // measure 48
2200
3300
0202
0303
,  // measure 49
1000
1000
0001
0001
0010
0100
1001
0000
,  // measure 50
2100
3010
0102
0013
,  // measure 51
2010
3100
0012
0103
,  // measure 52
2001
3100
1002
0103
,  // measure 53
0001
0000
0100
0000
0010
0000
1000
0000
0001
0000
0000
0001
0000
0000
0001
0000
,  // measure 54
0102
1003
2100
3001
,  // measure 55
0012
1003
2010
3001
,  // measure 56
2100
3010
0102
0013
,  // measure 57
0001
0100
0010
1000
0002
0000
1003
0000
,  // measure 58
0012
0103
2010
3100
,  // measure 59
0102
0013
2100
3010
,  // measure 60
1020
0130
0021
0130
,  // measure 61
1000
0010
0100
0001
1000
0100
0010
0001
,  // measure 62
1000
1100
1010
1100
,  // measure 63
0001
0101
0011
0101
,  // measure 64
0010
0110
1001
0110
,  // measure 65
1000
0100
0010
0001
0010
0100
1000
0001
,  // measure 66
1000
1010
0101
1010
,  // measure 67
0001
0011
1100
0011
,  // measure 68
0010
1001
0110
1001
,  // measure 69
1000
0100
0001
0100
1000
0010
0001
0010
,  // measure 70
2002
0000
0000
0000
,  // measure 71
3003
0000
0000
0000
;
