#TITLE:星のすみか;
#SUBTITLE:;
#ARTIST:藍坊主;
#TITLETRANSLIT:Hoshi no sumika;
#SUBTITLETRANSLIT:;
#ARTISTTRANSLIT:Aobouzu;
#GENRE:;
#CREDIT:;
#BANNER:Hoshi no sumika.png;
#BACKGROUND:Hoshi no sumika-bg.png;
#JACKET:Hoshi no sumika-jacket.png;
#LYRICSPATH:;
#CDTITLE:;
#MUSIC:Hoshi no sumika.mp3;
#OFFSET:-0.216;
#SAMPLESTART:45.460;
#SAMPLELENGTH:16.600;
#SELECTABLE:YES;
#BPMS:0.000=188.000
;
#STOPS:
;
#BGCHANGES:;
#KEYSOUNDS:;
#ATTACKS:;

//---------------dance-single - Blank----------------
#NOTES:
     dance-single:
     :
     Hard:
     8:
     0.638,0.620,0.359,0.741,0.000,300.000,32.000,66.000,0.000,0.000,0.000,0.638,0.620,0.359,0.741,0.000,300.000,32.000,66.000,0.000,0.000,0.000:
0000
0000
0000
0000
,
0000
0000
0000
0000
,
0000
0000
0000
0000
,
0000
0000
0000
0000
,
0000
0000
0000
0000
,
0000
0000
0000
0000
,
0000
0000
0000
0000
,
0000
0000
0000
0000
,
1000
0100
0010
0000
0001
0010
0100
0000
,
1000
0010
0100
0000
0001
0100
0010
0000
,
1000
0100
0010
0001
1000
0010
0100
0001
,
2000
0000
0001
0000
3001
1000
0000
0010
,
0100
0010
0000
2000
0000
3001
0000
0010
,
0100
0010
0000
0002
0000
1003
0010
0001
,
0020
0000
1000
1000
0000
0001
0031
0000
,
0010
1000
2100
3001
,
0200
0000
0001
0001
0000
1000
1300
0000
,
0100
0010
1010
0011
,
1000
0000
0100
0001
0000
0100
1000
0001
,
0200
0010
0000
0010
0000
1300
0000
0100
,
0001
0010
0000
0200
0000
0310
0000
0100
,
1000
0010
0000
0200
0000
0310
0000
1000
,
0100
0002
0000
0100
0000
1000
1003
0000
,
0001
0100
2100
3001
,
2000
0000
0010
0010
0000
0001
3001
0000
,
0100
0011
1010
1001
,
0001
0200
0000
1000
0000
0010
0310
0000
,
0001
0010
0100
1000
0001
1000
0001
0010
,
0200
0010
0001
1300
,
0100
0010
0011
2010
,
0010
0010
0001
3001
,
0100
0010
0011
1010
,
0002
0203
2300
3200
,
0001
0310
0110
1001
,
0002
0023
2030
3020
,
0100
0000
1030
0000
0001
0020
0000
0100
,
0130
0000
2000
0100
3100
0000
0002
0100
,
0103
0000
1000
0000
0001
0100
0000
0010
,
1000
0000
0010
0001
0000
1000
0000
0100
,
0002
0000
1003
0000
0001
0200
0000
0010
,
0310
0000
2000
0010
3010
0000
0002
0010
,
0023
0000
1000
0000
0031
0010
1000
0100
,
0020
0000
0130
0100
2000
0000
3001
0001
,
0200
0000
0310
0010
2000
0000
3001
0000
,
1000
0100
0011
1010
,
0001
0010
0000
0200
0000
1000
1300
0000
,
0001
0000
0100
2000
0000
3100
0000
0001
,
2000
3100
0011
1010
,
0002
0000
0010
0010
0000
0100
0103
0000
,
0001
0010
1100
0101
,
2000
3020
0032
0203
,
1000
0000
0301
0000
0100
0020
0000
0001
,
0031
0000
0200
1000
1300
0000
0200
0001
,
0302
0000
0103
0000
0010
1000
0000
0001
,
1000
0000
0100
0001
0000
1000
0000
0010
,
0002
0000
1003
0000
0010
0200
0000
0001
,
0301
0000
0020
1000
1030
0000
0020
0001
,
0032
0000
0100
0000
1003
0001
0100
1000
,
0200
0000
0310
0010
2000
0000
3001
0001
,
0020
0000
0130
0100
2000
0000
3001
0000
,
1000
0000
0100
0000
0012
0000
1003
1000
,
0001
0010
0000
0200
0000
1000
1300
0000
,
0001
0100
0000
2000
0000
3100
0000
0001
,
1000
0011
1100
0101
,
1020
0000
0001
0000
0130
0000
0010
1000
,
0100
0011
1010
0101
,
2100
3010
0102
0013
,
2001
3100
1002
0013
,
2002
0000
0000
0000
,
3003
0000
0000
0000
;

//---------------dance-single - Blank----------------
#NOTES:
     dance-single:
     :
     Easy:
     4:
     0.335,0.310,0.000,0.202,0.000,191.000,0.000,18.000,0.000,0.000,0.000,0.335,0.310,0.000,0.202,0.000,191.000,0.000,18.000,0.000,0.000,0.000:
0000
0000
0000
0000
,
0000
0000
0000
0000
,
0000
0000
0000
0000
,
0000
0000
0000
0000
,
0000
0000
0000
0000
,
0000
0000
0000
0000
,
0000
0000
0000
0000
,
0000
0000
0000
0000
,
1000
0000
0010
0000
,
0100
0000
0001
0000
,
1000
0100
0010
0001
,
2000
0000
3000
0001
,
0100
0000
0010
0000
,
1000
0000
0001
0000
,
1000
0010
0100
0001
,
2000
3000
0002
0003
,
1000
0000
0010
0000
,
0100
0000
0001
0000
,
1000
0100
0010
0001
,
2000
3000
0002
0003
,
0100
0000
0010
0000
,
1000
0000
0001
0000
,
1000
0100
0001
0100
,
2000
3000
0002
0003
,
0100
0000
0010
0000
,
1000
0000
0001
0000
,
1000
0010
0001
0010
,
1000
1000
0001
0001
,
0010
0000
0100
0000
,
1000
0000
0001
0000
,
0100
0000
0010
0000
,
1000
0000
0001
0000
,
1000
0010
0001
0010
,
0200
0300
0001
0001
,
1000
0100
0001
0100
,
0020
0030
0100
0100
,
1000
0010
0100
0001
,
1000
0100
0010
0001
,
1000
0100
0001
0100
,
2000
3000
0002
0003
,
1000
0010
0100
0001
,
2000
3000
0001
0000
,
0010
0010
0100
0100
,
1000
1000
0001
0000
,
1000
0010
1000
0010
,
0100
0001
0100
0001
,
0010
0100
0010
0100
,
1000
0001
1000
0001
,
1000
0010
0100
0001
,
2000
3000
0010
0010
,
0100
0001
0010
0100
,
0020
0030
0001
0001
,
1000
0010
0100
0001
,
1000
0100
0010
0001
,
1000
0100
0001
0100
,
2000
3000
0002
0003
,
1000
0010
0100
0001
,
2000
3000
0001
0000
,
0010
0010
0100
0100
,
1000
1000
0001
0000
,
1000
0010
1000
0010
,
0100
0001
0100
0001
,
0010
0100
0010
0100
,
1000
0001
1000
0001
,
1000
0010
0100
0001
,
1000
0100
0010
0001
,
1000
0100
0001
0100
,
1000
0010
0001
0010
,
2000
0000
0000
0000
,
3000
0000
0000
0000
;

//---------------dance-single - Blank----------------
#NOTES:
     dance-single:
     :
     Medium:
     7:
     0.565,0.620,0.292,0.337,0.000,296.000,26.000,30.000,0.000,0.000,0.000,0.565,0.620,0.292,0.337,0.000,296.000,26.000,30.000,0.000,0.000,0.000: // measure 0
0000
0000
0000
0000
,  // measure 1
0000
0000
0000
0000
,  // measure 2
0000
0000
0000
0000
,  // measure 3
0000
0000
0000
0000
,  // measure 4
0000
0000
0000
0000
,  // measure 5
0000
0000
0000
0000
,  // measure 6
0000
0000
0000
0000
,  // measure 7
0000
0000
0000
0000
,  // measure 8
1000
0000
0001
0000
0100
0010
0100
0000
,  // measure 9
0001
0000
1000
0000
0100
0010
0100
0000
,  // measure 10
1000
0000
0010
0000
1000
0100
0010
0001
,  // measure 11
2000
0001
3001
1001
,  // measure 12
0001
0000
0100
0000
0010
1000
0010
0000
,  // measure 13
1000
0000
0100
0000
0010
0001
0010
0000
,  // measure 14
0001
0100
1000
0100
,  // measure 15
0020
0130
0002
1003
,  // measure 16
0001
0000
0010
0000
0100
1000
0100
0000
,  // measure 17
1000
0000
0010
0000
0100
0001
0100
0000
,  // measure 18
0001
0010
0100
0000
1000
0100
0010
0000
,  // measure 19
0001
1000
0001
1000
0010
0100
0010
0100
,  // measure 20
0001
0000
1000
0000
0010
0100
0001
0000
,  // measure 21
1000
0000
0001
0000
0010
0100
1000
0000
,  // measure 22
0001
0010
1000
0010
,  // measure 23
0200
1300
0002
0103
,  // measure 24
0001
0000
0010
0000
0100
1000
0010
0000
,  // measure 25
1000
0000
0010
0000
0100
0001
0010
0000
,  // measure 26
0001
0010
0100
0000
1000
0010
0100
0000
,  // measure 27
0001
0100
1000
0100
0010
0100
0001
0000
,  // measure 28
2000
0010
0001
3100
,  // measure 29
0002
0010
1000
0103
,  // measure 30
2000
0100
0001
3010
,  // measure 31
0002
0100
1000
0013
,  // measure 32
0002
0203
2300
3020
,  // measure 33
0031
0001
1000
1000
,  // measure 34
0002
0103
2000
3020
,  // measure 35
0031
0001
1000
1000
,  // measure 36
0001
0100
0001
0000
0100
0001
0100
0000
,  // measure 37
0010
1000
0010
0000
1000
0010
1000
0000
,  // measure 38
0100
1000
0100
0000
1000
0100
1000
0000
,  // measure 39
0010
0001
0010
0000
0001
0010
0001
0000
,  // measure 40
1000
0010
1000
0000
0010
1000
0010
0000
,  // measure 41
0100
0001
0100
0000
0001
0100
0001
0000
,  // measure 42
1000
0001
1000
0000
0001
1000
0001
0000
,  // measure 43
0010
0100
0010
0000
0100
0010
0100
0000
,  // measure 44
0001
0100
1010
0011
,  // measure 45
1000
0100
0011
1010
,  // measure 46
0001
0010
1100
0101
,  // measure 47
1000
0010
0101
1100
,  // measure 48
0002
0010
0100
0103
,  // measure 49
2000
0010
0100
3100
,  // measure 50
1100
0011
0101
1010
,  // measure 51
0001
0100
0010
1000
0010
0100
0001
1000
,  // measure 52
0001
0010
0100
0000
0001
0010
0100
0000
,  // measure 53
1000
0010
0100
0000
1000
0010
0100
0000
,  // measure 54
1000
0100
0010
0000
1000
0100
0010
0000
,  // measure 55
0001
0100
0010
0000
0001
0100
0010
0000
,  // measure 56
1000
0010
0001
0000
1000
0010
0001
0000
,  // measure 57
1000
0100
0001
0000
1000
0100
0001
0000
,  // measure 58
1000
0010
0001
0000
1000
0100
0001
0000
,  // measure 59
1000
0100
0001
0000
1000
0010
0001
0000
,  // measure 60
1000
0010
0101
1010
,  // measure 61
0001
0010
1100
0011
,  // measure 62
1000
0001
0110
1001
,  // measure 63
0001
1000
0110
1001
,  // measure 64
0002
0010
0100
0103
,  // measure 65
2000
0010
0100
3100
,  // measure 66
2200
3300
0022
0033
,  // measure 67
0202
0303
2020
3030
,  // measure 68
2002
0000
0000
0000
,  // measure 69
3003
0000
0000
0000
;
