#TITLE:春の嵐;
#SUBTITLE:;
#ARTIST:真野恵里菜;
#TITLETRANSLIT:Haru no Arashi;
#SUBTITLETRANSLIT:;
#ARTISTTRANSLIT:Erina Mano;
#CREDIT:;
#BANNER:Haru no Arashi.png;
#BACKGROUND:Haru no Arashi-bg.png;
#JACKET:Haru no ARashi-jacket.png;
#LYRICSPATH:;
#CDTITLE:;
#MUSIC:Haru no Arashi.mp3;
#OFFSET:-0.804;
#SAMPLESTART:64.225;
#SAMPLELENGTH:14.640;
#SELECTABLE:YES;
#BPMS:0.000=121.000;
#STOPS:;
#BGCHANGES:;

//---------------dance-single - ----------------
#NOTES:
     dance-single:
     :
     Hard:
     6:
     0.467,0.449,0.219,0.429,0.014: // measure 1
0000
0000
0000
0000
,  // measure 2
0000
0000
0000
0000
,  // measure 3
0000
0000
0000
0000
,  // measure 4
0000
0000
0000
0000
,  // measure 5
1000
0000
0001
0100
0010
0010
0100
0100
,  // measure 6
0001
0000
1000
0100
0010
0010
0100
0100
,  // measure 7
2000
0000
3001
0100
0001
0010
0100
1000
,  // measure 8
0001
0100
0010
1000
0001
0001
2000
0000
,  // measure 9
3001
0010
0100
0010
0001
0000
0100
0010
,  // measure 10
0000
1000
0010
0100
0002
0000
1003
0000
,  // measure 11
0001
0000
1100
0000
1000
0010
0100
0000
,  // measure 12
0001
2000
3200
0320
,  // measure 13
0032
0000
0100
0103
0000
0001
0100
0010
,  // measure 14
1000
0002
0023
0230
,  // measure 15
2300
0000
0010
0000
0100
0000
3001
0001
,  // measure 16
1000
0010
0100
0001
1000
1000
0002
0000
,  // measure 17
1003
0100
0010
0100
1000
0000
0001
1000
,  // measure 18
0000
0001
0010
0100
2000
0000
3001
0000
,  // measure 19
1000
0000
0001
0200
0000
0320
0000
0230
,  // measure 20
0000
0001
0301
0000
1100
0000
0101
0000
,  // measure 21
1000
0010
0100
0001
2000
0000
3001
0000
,  // measure 22
1100
0011
0101
1010
,  // measure 23
0102
0000
0013
0000
2100
0000
0010
3010
,  // measure 24
0000
1000
0010
0100
0001
0001
2000
0000
,  // measure 25
3001
0000
0010
0001
0100
0000
0010
1000
,  // measure 26
0200
0310
1010
0011
,  // measure 27
2100
0000
3010
0000
0102
0000
0013
0001
,  // measure 28
0200
0000
0310
1000
0001
0001
1000
1000
,  // measure 29
0002
0000
0013
0010
2000
0000
3010
0010
,  // measure 30
0002
0203
0320
2030
,  // measure 31
3002
0000
1003
0000
0001
0010
0100
2002
,  // measure 32
0000
0000
0000
3003
,  // measure 33
1000
0010
0100
0010
1000
0001
0010
0001
,  // measure 34
1000
0100
0000
0001
0200
0000
1300
0000
,  // measure 35
0001
0100
0010
1000
0001
0010
0100
1000
,  // measure 36
0001
0001
1000
1000
0011
0000
1010
0000
,  // measure 37
0001
0010
1000
0010
0100
1000
0001
0100
,  // measure 38
1000
0100
0001
0100
0020
0000
0130
0000
,  // measure 39
0001
0010
0100
1000
0002
0000
0103
0020
,  // measure 40
0000
0100
0100
0130
0101
0000
1100
0000
,  // measure 41
0002
0013
0200
1300
,  // measure 42
0002
0000
0103
0000
0010
1000
0001
0000
,  // measure 43
1000
0100
0010
0001
1000
0010
0100
0001
,  // measure 44
1001
0000
1000
0010
0100
0100
0010
0010
,  // measure 45
1000
0000
0001
0010
0100
0100
0010
0010
,  // measure 46
0001
0000
1000
0100
0010
0001
0010
0100
,  // measure 47
2000
0000
3010
0010
0200
0000
0301
0000
,  // measure 48
1001
0000
0001
0100
0010
0010
0100
0100
,  // measure 49
0001
0000
1000
0100
0010
0010
0100
0100
,  // measure 50
2000
0000
3001
0100
0001
0010
0100
1100
,  // measure 51
0000
0000
0101
0000
0101
0000
0000
0000
1000
0000
0010
0100
0000
0002
0000
2000
,  // measure 52
0000
0000
0000
0000
,  // measure 53
0003
3000
0000
0000
;

//---------------dance-single - ----------------
#NOTES:
     dance-single:
     :
     Easy:
     3:
     0.202,0.273,0.048,0.038,0.000: // measure 1
0000
0000
0000
0000
,  // measure 2
0000
0000
0000
0000
,  // measure 3
0000
0000
0000
0000
,  // measure 4
0000
0000
0000
0000
,  // measure 5
1000
0000
0001
0100
,  // measure 6
0001
0000
1000
0100
,  // measure 7
1000
0000
0001
0010
,  // measure 8
0001
0000
1000
1000
,  // measure 9
0001
0000
0100
0000
,  // measure 10
0010
1000
0001
1000
,  // measure 11
0100
0000
0100
0000
,  // measure 12
0010
0000
0010
0000
,  // measure 13
0001
0100
0010
1000
,  // measure 14
0001
0010
0100
1000
,  // measure 15
0001
0000
1000
0000
,  // measure 16
0100
0100
0010
0010
,  // measure 17
0001
0000
1000
0000
,  // measure 18
0100
1000
0010
1000
,  // measure 19
0001
0000
0001
0000
,  // measure 20
0100
0000
0100
0000
,  // measure 21
0010
1000
0100
1000
,  // measure 22
0001
0010
0001
0100
,  // measure 23
0010
0000
1000
0000
,  // measure 24
0001
0000
0100
0100
,  // measure 25
0001
0000
0010
0000
,  // measure 26
0100
0000
1000
0000
,  // measure 27
0001
0000
0100
0000
,  // measure 28
0010
0000
1000
0000
,  // measure 29
0001
0000
0010
0000
,  // measure 30
1000
0000
0010
0000
,  // measure 31
0001
0100
0010
1000
,  // measure 32
2002
0000
0000
3003
,  // measure 33
1000
0100
0010
0001
,  // measure 34
0010
0100
1000
0000
,  // measure 35
0001
0100
0010
1000
,  // measure 36
0001
0001
1000
1001
,  // measure 37
1000
0100
0010
0001
,  // measure 38
0010
0100
1000
0000
,  // measure 39
0001
0010
0100
1000
,  // measure 40
0001
0001
1001
1001
,  // measure 41
1000
0000
0010
0000
,  // measure 42
0100
0000
0001
0000
,  // measure 43
1000
0100
0010
0001
,  // measure 44
1000
0000
0001
0100
,  // measure 45
0001
0000
1000
0100
,  // measure 46
1000
0000
0001
0010
,  // measure 47
0001
0000
1000
0010
,  // measure 48
1000
0000
0001
0100
,  // measure 49
0010
0000
1000
0100
,  // measure 50
0010
0000
0001
0010
,  // measure 51
0100
0000
1000
0001
,  // measure 52
2002
0000
0000
0000
,  // measure 53
3003
0000
0000
0000
;

//---------------dance-single - ----------------
#NOTES:
     dance-single:
     :
     Medium:
     5:
     0.376,0.422,0.048,0.410,0.000: // measure 1
0000
0000
0000
0000
,  // measure 2
0000
0000
0000
0000
,  // measure 3
0000
0000
0000
0000
,  // measure 4
0000
0000
0000
0000
,  // measure 5
1000
0000
0100
0000
0010
0001
0010
0000
,  // measure 6
0100
0000
1000
0000
0001
0100
0001
0000
,  // measure 7
1000
0000
0010
0000
0100
0001
1000
0000
,  // measure 8
0001
0010
1100
0101
,  // measure 9
1000
0000
0010
0000
0100
0000
0001
1000
,  // measure 10
0000
0001
1000
0000
0100
0000
0010
0000
,  // measure 11
0002
0010
0100
0103
,  // measure 12
2000
0010
0100
3100
,  // measure 13
1000
0000
0100
0100
0000
0010
0010
0000
,  // measure 14
0002
0203
0320
2030
,  // measure 15
3002
0010
0100
1003
,  // measure 16
0001
0100
0010
0000
1000
0010
0100
0000
,  // measure 17
0001
0000
0010
0000
0100
0000
1000
0001
,  // measure 18
0000
0100
0010
0000
1000
0000
0100
0000
,  // measure 19
0010
0001
0100
0010
,  // measure 20
1000
0001
1000
0000
0100
0000
0010
0000
,  // measure 21
0001
0100
0001
0000
0100
0000
0010
0000
,  // measure 22
2000
3200
0320
0032
,  // measure 23
2003
3010
0200
0301
,  // measure 24
2000
0000
3001
0000
0100
0010
0100
0000
,  // measure 25
0002
0013
2000
3010
,  // measure 26
0002
0103
2000
3100
,  // measure 27
0002
1003
0200
0310
,  // measure 28
0002
1003
0020
0130
,  // measure 29
0001
0100
0001
0000
1000
0010
1000
0000
,  // measure 30
0001
0010
0001
0000
1000
0100
1000
0000
,  // measure 31
0001
0100
0010
1000
0010
0100
0001
2000
,  // measure 32
0000
0000
0000
3000
,  // measure 33
1000
0100
1000
0000
0001
0100
0001
0000
,  // measure 34
1000
0001
0000
0001
2000
0000
3100
0000
,  // measure 35
1000
0010
1000
0000
0001
0010
0001
0000
,  // measure 36
1000
0001
1000
0001
1000
0000
0110
0000
,  // measure 37
0001
0010
0100
0000
1000
0010
0100
0000
,  // measure 38
0001
1000
0100
0000
0020
0000
0130
0000
,  // measure 39
1000
0010
0100
0000
0001
0010
0100
0000
,  // measure 40
1000
0001
1000
0001
0020
0000
0130
0000
,  // measure 41
0020
0032
0203
0320
,  // measure 42
2030
3200
0320
0032
,  // measure 43
2003
0000
3020
0000
0130
0001
1000
0000
,  // measure 44
2001
0000
3100
0000
1000
0010
1000
0000
,  // measure 45
0010
0000
0100
0000
0001
0100
0001
0000
,  // measure 46
2000
3100
0002
0103
,  // measure 47
2000
3010
0002
0013
,  // measure 48
1002
0000
0103
0000
0001
0010
0001
0000
,  // measure 49
0010
0000
0100
0000
1000
0010
1000
0000
,  // measure 50
0001
0100
0010
0000
1000
0010
0100
0000
,  // measure 51
0001
0010
0100
0000
1000
0001
1000
0001
,  // measure 52
0020
0000
0000
0000
,  // measure 53
0030
0000
0000
0000
;
