#VERSION:0.81;
#TITLE:紅蓮の弓矢;
#SUBTITLE:;
#ARTIST:Linked Horizon;
#TITLETRANSLIT:Guren no Yumiya;
#SUBTITLETRANSLIT:;
#ARTISTTRANSLIT:;
#GENRE:;
#ORIGIN:;
#CREDIT:;
#BANNER:Guren no Yumiya.png;
#BACKGROUND:Guren no Yumiya-bg.png;
#PREVIEWVID:;
#JACKET:Guren no Yumiya-jacket.png;
#CDIMAGE:;
#DISCIMAGE:;
#LYRICSPATH:;
#CDTITLE:;
#MUSIC:Guren no Yumiya.mp3;
#OFFSET:-0.198;
#SAMPLESTART:46.640;
#SAMPLELENGTH:16.600;
#SELECTABLE:YES;
#BPMS:0.000=180.680;
#STOPS:;
#DELAYS:;
#WARPS:;
#TIMESIGNATURES:0.000=4=4;
#TICKCOUNTS:0.000=4;
#COMBOS:0.000=1;
#SPEEDS:0.000=1.000=0.000=0;
#SCROLLS:0.000=1.000;
#FAKES:;
#LABELS:0.000=Song Start;
#BGCHANGES:;
#KEYSOUNDS:;
#ATTACKS:
;

//---------------dance-single - Blank----------------
#NOTEDATA:;
#CHARTNAME:;
#STEPSTYPE:dance-single;
#DESCRIPTION:Blank;
#CHARTSTYLE:;
#DIFFICULTY:Hard;
#METER:8;
#RADARVALUES:0.731,0.589,0.584,0.738,0.022,345.000,53.000,67.000,0.000,0.000,0.000,0.000,0.000,0.731,0.589,0.584,0.738,0.022,345.000,53.000,67.000,0.000,0.000,0.000,0.000,0.000;
#CREDIT:;
#NOTES:
// measure 0
0000
0000
0000
0000
,  // measure 1
0000
0000
0000
0000
,  // measure 2
2000
0000
3100
0002
0000
0103
0000
0101
,  // measure 3
0000
1100
0000
1002
0000
0100
0103
0000
,  // measure 4
0002
0000
0103
2000
0000
3100
0000
1100
,  // measure 5
0000
0101
0000
2001
0000
0100
3100
0000
,  // measure 6
2000
0000
3010
0002
0000
0013
0000
0011
,  // measure 7
0000
1010
0000
1002
0000
0010
0013
0000
,  // measure 8
0002
0000
0013
2000
0000
3010
0000
1010
,  // measure 9
0000
0011
0000
2001
0000
0010
3010
0000
,  // measure 10
1000
0010
0100
0001
1000
0100
0010
0001
,  // measure 11
1001
0000
0001
0200
0000
0310
0000
2000
,  // measure 12
0000
3001
0000
0020
0000
0100
0130
0000
,  // measure 13
2000
0000
3010
0200
0000
0301
0000
2000
,  // measure 14
0000
3100
0000
0020
0000
0001
0031
0000
,  // measure 15
2000
0000
3010
0002
0000
0013
0000
2000
,  // measure 16
0000
3100
0000
0002
0000
0100
0103
0000
,  // measure 17
2000
0000
3010
0200
0000
0301
0000
0101
,  // measure 18
0000
1100
0000
1002
0000
0010
0013
0000
,  // measure 19
0001
0100
0001
0100
0010
1000
0010
1000
,  // measure 20
0001
0010
0001
0010
0100
1000
0001
0000
,  // measure 21
1000
0010
1000
0010
0100
0001
0100
0001
,  // measure 22
1000
0100
1000
0100
0010
0001
1000
0000
,  // measure 23
0001
0100
0010
1000
0001
0100
0010
1000
,  // measure 24
0001
0010
0100
1000
0001
1000
0100
0000
,  // measure 25
1000
0010
0100
0001
1000
0010
0100
0001
,  // measure 26
1000
0100
0010
0001
2000
0000
3000
0000
,  // measure 27
0102
0000
1003
0001
1000
0100
0001
0100
,  // measure 28
0010
0000
0000
0001
0000
0000
2000
0000
0000
0000
0000
0000
3100
0000
0000
0000
0000
0000
1000
0000
0000
0000
1000
0000
,  // measure 29
0010
0000
0000
0001
0000
0001
0010
0000
0000
1000
0000
1000
,  // measure 30
0100
0000
0000
0000
0000
0000
0001
0000
0000
0000
0001
0000
0200
0000
0000
0000
0000
0000
1300
0000
0000
1002
0000
0000
,  // measure 31
0000
0103
0010
1000
0200
0000
0310
0000
,  // measure 32
0100
1000
0010
0101
0000
1100
0000
1001
,  // measure 33
0000
0102
0000
1003
0001
0000
1000
0100
,  // measure 34
2000
0000
3001
0100
0002
0000
1003
0000
,  // measure 35
0001
0100
0010
0200
0000
0301
0000
0011
,  // measure 36
0000
0001
0010
0200
0000
1000
1300
0000
,  // measure 37
0010
1000
0100
2000
0000
3010
0000
1010
,  // measure 38
0000
0010
0100
0002
0000
0010
0013
0000
,  // measure 39
0001
0010
0100
2000
0000
3001
0000
1001
,  // measure 40
0000
0001
0100
0020
0000
1000
1030
0000
,  // measure 41
0001
0010
0100
1000
0001
1000
0010
0100
,  // measure 42
0000
0202
0000
0303
2100
0000
3001
0000
,  // measure 43
1000
0010
0001
0020
0000
0130
0000
0101
,  // measure 44
0000
0001
1000
0200
0000
0010
0310
0000
,  // measure 45
0001
0100
1000
0200
0000
0310
0000
1010
,  // measure 46
0000
1000
0001
0020
0000
0100
0130
0000
,  // measure 47
1000
0100
0001
2000
0000
3001
0000
0101
,  // measure 48
0000
0100
1000
0002
0000
1003
0000
0010
,  // measure 49
1001
0000
0000
0110
,  // measure 50
0002
0000
0013
2000
0000
3010
0000
1010
,  // measure 51
0000
0011
0000
2001
0000
0010
3010
0000
,  // measure 52
2000
0000
3010
0002
0000
0013
0000
0011
,  // measure 53
0000
1010
0000
1002
0000
0010
0013
0000
,  // measure 54
0002
0000
0103
2000
0000
3100
0000
1100
,  // measure 55
0000
0101
0000
2001
0000
0100
3100
0000
,  // measure 56
2000
0000
3100
0002
0000
0103
0000
0101
,  // measure 57
0000
1100
0000
1002
0000
0100
0103
0000
,  // measure 58
0001
0010
0100
1000
0001
0010
0100
1000
,  // measure 59
0001
0100
0010
1000
0001
1000
0100
0000
,  // measure 60
1000
0010
0100
0001
1000
0010
0100
0001
,  // measure 61
1000
0100
0010
0001
1000
0001
0100
0010
,  // measure 62
2000
0000
3100
0002
0000
0103
0000
0101
,  // measure 63
0000
1100
0000
1002
0000
0100
0103
0000
,  // measure 64
0011
0000
1100
1100
0000
0101
0101
0000
,  // measure 65
0000
0000
2020
0000
,  // measure 66
0000
0000
0000
0000
0000
0000
0000
3030
;

//---------------dance-single - Blank----------------
#NOTEDATA:;
#CHARTNAME:;
#STEPSTYPE:dance-single;
#DESCRIPTION:Blank;
#CHARTSTYLE:;
#DIFFICULTY:Easy;
#METER:4;
#RADARVALUES:0.379,0.331,0.066,0.055,0.000,230.000,6.000,5.000,0.000,0.000,0.000,0.000,0.000,0.379,0.331,0.066,0.055,0.000,230.000,6.000,5.000,0.000,0.000,0.000,0.000,0.000;
#CREDIT:;
#NOTES:
// measure 0
0000
0000
0000
0000
,  // measure 1
0000
0000
0000
0000
,  // measure 2
1000
0100
0010
0001
,  // measure 3
0010
0100
1000
1000
,  // measure 4
0001
0100
0010
1000
,  // measure 5
0010
0100
0001
0001
,  // measure 6
1000
0100
0001
0100
,  // measure 7
0010
0001
1000
1000
,  // measure 8
0001
0100
1000
0100
,  // measure 9
0010
1000
0001
0001
,  // measure 10
1000
0100
0010
0001
,  // measure 11
1001
0000
0001
0000
,  // measure 12
1000
0100
1000
0000
,  // measure 13
0001
0000
1000
0000
,  // measure 14
0001
0100
0001
0000
,  // measure 15
1000
0000
0001
0000
,  // measure 16
1000
0010
1000
0000
,  // measure 17
0001
0000
1000
0000
,  // measure 18
0001
0010
0001
0000
,  // measure 19
1000
0010
0100
0001
,  // measure 20
1000
0010
0100
0000
,  // measure 21
0001
0010
0100
1000
,  // measure 22
0001
0010
0100
0000
,  // measure 23
1000
0100
0001
0100
,  // measure 24
0010
0001
1000
0000
,  // measure 25
0001
0010
1000
0010
,  // measure 26
0100
1000
0001
0000
,  // measure 27
1000
1000
0010
0010
,  // measure 28
0100
0100
0001
0001
,  // measure 29
0101
0000
1010
0000
,  // measure 30
0011
0000
1100
0000
,  // measure 31
0001
0010
0100
1000
,  // measure 32
0001
0100
0010
1000
,  // measure 33
0001
0100
1000
0100
,  // measure 34
0002
0003
2000
3000
,  // measure 35
0001
0010
0100
1000
,  // measure 36
0100
0010
0001
0001
,  // measure 37
1000
0010
0100
0001
,  // measure 38
0100
0010
1000
1000
,  // measure 39
0001
0010
1000
0010
,  // measure 40
0001
1000
0100
0100
,  // measure 41
1000
0010
0001
0010
,  // measure 42
0000
1000
0000
0000
0002
0000
0003
0000
,  // measure 43
1000
0100
0001
0100
,  // measure 44
0010
0001
1000
1000
,  // measure 45
0001
0100
1000
0100
,  // measure 46
0010
1000
0001
0001
,  // measure 47
1000
0100
0001
0010
,  // measure 48
1000
0010
0001
0100
,  // measure 49
1000
0010
0100
0001
,  // measure 50
1000
0100
0010
0001
,  // measure 51
0010
0100
1000
1000
,  // measure 52
0001
0100
0010
1000
,  // measure 53
0010
0100
0001
0001
,  // measure 54
1000
0100
0001
0100
,  // measure 55
0010
0001
1000
1000
,  // measure 56
0001
0100
1000
0100
,  // measure 57
0010
1000
0001
0001
,  // measure 58
1000
0100
0001
0100
,  // measure 59
1000
0100
0001
0100
,  // measure 60
1000
0010
0001
0010
,  // measure 61
1000
0010
0001
0010
,  // measure 62
1000
0010
0100
0001
,  // measure 63
1000
0100
0010
0001
,  // measure 64
1000
0100
0001
0010
,  // measure 65
1000
0000
2002
0000
,  // measure 66
0000
0000
0000
0000
0000
0000
0000
3003
;

//---------------dance-single - Blank----------------
#NOTEDATA:;
#CHARTNAME:;
#STEPSTYPE:dance-single;
#DESCRIPTION:Blank;
#CHARTSTYLE:;
#DIFFICULTY:Medium;
#METER:6;
#RADARVALUES:0.558,0.589,0.385,0.341,0.000,289.000,35.000,31.000,0.000,0.000,0.000,0.000,0.000,0.558,0.589,0.385,0.341,0.000,289.000,35.000,31.000,0.000,0.000,0.000,0.000,0.000;
#CREDIT:;
#NOTES:
// measure 0
0000
0000
0000
0000
,  // measure 1
0000
0000
0000
0000
,  // measure 2
1000
0000
0100
0010
0000
0001
0000
0010
,  // measure 3
0000
0100
0000
1000
0000
0002
0000
0003
,  // measure 4
1000
0000
0010
0100
0000
0001
0000
0011
,  // measure 5
0000
0011
0000
1010
0000
2020
0000
3030
,  // measure 6
0001
0000
0010
0100
0000
1000
0000
0100
,  // measure 7
0000
0010
0000
0001
0000
2000
0000
3000
,  // measure 8
0001
0000
0100
0010
0000
1000
0000
1100
,  // measure 9
0000
1100
0000
0101
0000
0202
0000
0303
,  // measure 10
1000
0010
1000
0010
0100
0001
0100
0001
,  // measure 11
1000
0100
0001
0100
,  // measure 12
0010
0010
0100
0100
,  // measure 13
1000
0010
0001
0010
,  // measure 14
0100
0100
0010
0010
,  // measure 15
1000
0100
0001
0010
,  // measure 16
1000
1000
0001
0001
,  // measure 17
1000
0010
0001
0100
,  // measure 18
1000
1000
0001
0001
,  // measure 19
1000
0000
0010
0100
0010
0000
1000
0001
,  // measure 20
1000
0000
0100
0010
0200
0000
1300
0000
,  // measure 21
0001
0000
0100
0010
0100
0000
0001
1000
,  // measure 22
0001
0000
0010
0100
0020
0000
0031
0000
,  // measure 23
1000
0000
0010
0100
0001
0000
0100
0010
,  // measure 24
1000
0000
0010
0100
0002
0000
1003
0000
,  // measure 25
0001
0000
0010
0100
1000
0000
0100
0010
,  // measure 26
0001
0000
1000
0001
2002
0000
3003
0000
,  // measure 27
2100
0010
3001
1000
,  // measure 28
0102
0010
1003
0001
,  // measure 29
0102
1003
2100
3001
,  // measure 30
0012
1003
2010
3001
,  // measure 31
1100
1100
0101
0101
,  // measure 32
1000
0100
0010
0001
0000
1000
0000
0002
,  // measure 33
0000
0003
0100
0000
0010
0000
1000
0000
,  // measure 34
2010
3100
0012
0103
,  // measure 35
0001
0010
1000
0010
,  // measure 36
0100
0000
1000
0000
0001
0100
0001
0000
,  // measure 37
1000
0010
0001
0010
,  // measure 38
0100
0000
0001
0000
1000
0100
1000
0000
,  // measure 39
0001
0100
1000
0100
,  // measure 40
0010
0000
1000
0000
0001
0010
0100
0000
,  // measure 41
1000
0000
0010
0000
0001
0000
0010
0100
,  // measure 42
0000
0101
0000
0000
2100
0000
3001
0000
,  // measure 43
1000
0100
0001
0100
,  // measure 44
0010
0000
0001
0000
1000
0010
1000
0000
,  // measure 45
0001
0100
1000
0100
,  // measure 46
0010
0000
1000
0000
0001
0010
0001
0000
,  // measure 47
1000
0010
0001
0010
,  // measure 48
0100
0000
0001
0000
1000
0100
0010
0001
,  // measure 49
1000
0000
0000
1001
,  // measure 50
0001
0000
0010
0100
0000
1000
0000
0100
,  // measure 51
0000
0010
0000
0001
0000
2000
0000
3000
,  // measure 52
0001
0000
0100
0010
0000
1000
0000
1100
,  // measure 53
0000
1100
0000
0101
0000
0202
0000
0303
,  // measure 54
1000
0000
0100
0010
0000
0001
0000
0010
,  // measure 55
0000
0100
0000
1000
0000
0002
0000
0003
,  // measure 56
1000
0000
0010
0100
0000
0001
0000
0011
,  // measure 57
0000
0011
0000
1010
0000
2020
0000
3030
,  // measure 58
1000
0100
1000
0000
0001
0100
0001
0000
,  // measure 59
1000
0010
1000
0000
0001
0010
0001
0000
,  // measure 60
1000
0010
0100
0000
0001
0100
0010
0000
,  // measure 61
1000
0100
0010
0000
0001
0010
0100
0000
,  // measure 62
1000
0010
0100
0001
0100
0010
1000
0000
,  // measure 63
0001
0010
0100
1000
0100
0010
0001
0000
,  // measure 64
1000
0000
0001
0101
0000
1000
2200
0000
,  // measure 65
0000
3300
2002
0000
,  // measure 66
0000
0000
0000
0000
0000
0000
0000
3003
;
