#TITLE:迎撃のフォルテ;
#SUBTITLE:;
#ARTIST:めろでぃーリアン;
#TITLETRANSLIT:Geigeki no forte;
#SUBTITLETRANSLIT:;
#ARTISTTRANSLIT:Melody Lien;
#GENRE:;
#CREDIT:;
#BANNER:Geigeki no forte.png;
#BACKGROUND:Geigeki no forte-bg.png;
#JACKET:Geigeki no forte-jacket.png;
#LYRICSPATH:;
#CDTITLE:;
#MUSIC:Geigeki no forte.mp3;
#OFFSET:-1.384;
#SAMPLESTART:33.740;
#SAMPLELENGTH:16.420;
#SELECTABLE:YES;
#BPMS:0.000=195.000
;
#STOPS:
;
#BGCHANGES:;
#KEYSOUNDS:;
#ATTACKS:;

//---------------dance-single - ----------------
#NOTES:
     dance-single:
     :
     Hard:
     8:
     0.707,0.643,0.626,0.452,0.013,445.000,72.000,52.000,0.000,0.000,0.000,0.707,0.643,0.626,0.452,0.013,445.000,72.000,52.000,0.000,0.000,0.000: // measure 0
0000
0000
0000
0000
,  // measure 1
0000
0000
0000
1001
,  // measure 2
0001
0100
1000
0100
0001
1000
0000
1010
,  // measure 3
0000
0110
0000
0102
0000
1000
1003
0000
,  // measure 4
0001
0010
1000
0010
0001
1000
0000
0011
,  // measure 5
0000
0110
0000
2100
0000
0001
3001
0000
,  // measure 6
1000
0010
0001
0010
0100
0010
0000
1010
,  // measure 7
0000
0101
0000
2100
0000
0001
3001
0000
,  // measure 8
1000
0010
0010
0100
0001
0001
1000
0100
,  // measure 9
0100
0010
0001
0001
1000
1001
0000
0110
,  // measure 10
0000
0010
1000
0000
0001
0100
0001
0000
,  // measure 11
1000
0100
1000
0000
0001
0010
0001
1000
,  // measure 12
0000
0010
1000
0000
0010
0100
0010
0000
,  // measure 13
0100
0001
0100
0000
0001
0010
0100
2000
,  // measure 14
0000
0001
3001
0000
1000
0010
0100
0000
,  // measure 15
0001
0010
0100
0000
1100
0000
0101
0000
,  // measure 16
2010
3100
0012
0103
,  // measure 17
0001
0100
1000
0100
0001
2002
0000
3003
,  // measure 18
1010
0000
0011
0000
0001
0100
0001
0100
,  // measure 19
0010
1000
0010
1000
0001
2000
0000
3000
,  // measure 20
1010
0000
0011
0000
1000
0100
1000
0100
,  // measure 21
0010
0001
0010
0001
1000
1000
1000
1000
,  // measure 22
1100
0000
0011
0000
0001
0100
1000
0200
,  // measure 23
0000
0010
0310
0100
0001
2000
0000
3000
,  // measure 24
0102
0000
0100
0000
0010
0010
1003
0000
,  // measure 25
0001
0100
1000
0100
0001
0010
1000
0010
,  // measure 26
1001
0000
0000
0001
1000
0100
0010
0001
,  // measure 27
1000
0010
0100
0010
1000
0000
0001
2000
,  // measure 28
0000
3100
0000
0011
0000
1010
0000
0001
,  // measure 29
2000
0000
3010
0020
0000
0130
0100
0200
,  // measure 30
0000
0301
0001
0002
0000
1000
1003
0000
,  // measure 31
0001
0010
1000
0010
0001
0000
1000
0002
,  // measure 32
0000
0103
0000
2000
0000
0100
3100
0000
,  // measure 33
0010
1000
1010
0000
0100
0001
0101
0000
,  // measure 34
0010
0000
0001
0000
0011
0000
0000
0100
1000
0000
1000
0000
0001
0000
0001
0000
,  // measure 35
1000
0100
0001
0100
1000
0000
0010
0200
,  // measure 36
0000
0310
0000
1010
0000
0011
0000
1000
,  // measure 37
0002
0000
0103
0200
0000
0310
0000
1000
,  // measure 38
0001
0000
0010
0100
1000
2002
0000
3003
,  // measure 39
2000
0000
3010
0010
0002
0000
0013
0010
,  // measure 40
1010
0101
0011
1100
,  // measure 41
1001
0000
0001
0100
1000
0100
0001
0100
,  // measure 42
0010
1000
0100
0001
0100
2002
0000
3003
,  // measure 43
1000
0010
0001
0010
1000
0000
0001
0010
,  // measure 44
1000
0010
0001
0000
1000
1000
0001
0000
,  // measure 45
1000
0100
0001
0100
1000
0000
0001
0100
,  // measure 46
1000
0000
0100
0000
0001
0000
0000
0000
0010
0000
0000
0010
0000
0000
0010
0000
,  // measure 47
0100
1000
0010
0001
0010
0000
1000
0100
,  // measure 48
0001
0100
1000
0000
0001
0001
1000
1000
,  // measure 49
1002
0000
0103
0100
0010
0010
1000
1100
,  // measure 50
0000
0010
0001
0102
0000
1000
1003
0000
,  // measure 51
0001
0100
0010
1000
0010
0100
0001
2000
,  // measure 52
0000
3100
0000
0002
0000
0100
0103
0000
,  // measure 53
0101
0000
1100
0000
1001
1000
0010
0200
,  // measure 54
0000
0310
0000
2000
0000
0001
3001
0000
,  // measure 55
1000
0100
0010
0001
0010
0100
1000
0020
,  // measure 56
0000
0230
0000
0302
0000
2003
0000
3001
,  // measure 57
1000
0100
0001
0100
0010
0001
0100
0010
,  // measure 58
1000
1001
0000
0000
0000
0000
0000
0000
,  // measure 59
0000
0000
0000
0000
,  // measure 60
0000
0000
0000
0000
,  // measure 61
0000
0000
0000
0000
,  // measure 62
0000
0000
0000
0000
,  // measure 63
0000
0000
0000
0000
,  // measure 64
0000
0000
0000
0000
,  // measure 65
0100
0001
0101
0000
0010
1000
1010
0000
,  // measure 66
0100
0000
1000
0000
1100
0000
0000
0010
0001
0000
0001
0000
1000
0000
1000
0000
,  // measure 67
0001
0010
1000
0010
0001
0000
0100
0020
,  // measure 68
0000
0130
0000
0101
0000
1100
0000
0001
,  // measure 69
2000
0000
3010
0020
0000
0130
0000
0001
,  // measure 70
1000
0000
0100
0010
0001
2002
0000
3003
,  // measure 71
0002
0000
0103
0100
2000
0000
3100
0100
,  // measure 72
0101
1010
1100
0011
,  // measure 73
1001
0000
1000
0010
0001
0010
1000
0010
,  // measure 74
0100
0001
0010
1000
0010
2002
0000
3003
,  // measure 75
0110
0110
0000
0000
0000
0000
0000
0000
,  // measure 76
0000
0000
0000
1001
,  // measure 77
1000
0010
0001
0010
1000
0001
0000
0101
,  // measure 78
0000
0110
0000
2010
0000
0001
3001
0000
,  // measure 79
1000
0100
0001
0100
1000
0001
0000
1100
,  // measure 80
0000
0110
0000
0012
0000
1000
1003
0000
,  // measure 81
0001
0100
1000
0100
0010
0100
0000
0101
,  // measure 82
0000
1010
0000
0012
0000
1000
1003
0000
,  // measure 83
0001
0100
0100
0010
1000
1000
0001
0010
,  // measure 84
0010
0100
1000
1000
0001
1001
0000
0220
,  // measure 85
0000
0000
0000
0000
,  // measure 86
0000
0000
0000
0000
,  // measure 87
0330
0000
0000
0000
;

//---------------dance-single - Blank----------------
#NOTES:
     dance-single:
     :
     Easy:
     4:
     0.328,0.378,0.096,0.035,0.000,249.000,11.000,4.000,0.000,0.000,0.000,0.328,0.378,0.096,0.035,0.000,249.000,11.000,4.000,0.000,0.000,0.000: // measure 0
0000
0000
0000
0000
,  // measure 1
0000
0000
0000
0000
,  // measure 2
1000
0000
0010
0000
,  // measure 3
0100
0001
0100
0001
,  // measure 4
0010
0000
0100
0000
,  // measure 5
1000
0010
1000
0010
,  // measure 6
0100
0000
0001
0000
,  // measure 7
1000
0100
0010
0001
,  // measure 8
1000
0000
0000
1000
0000
0000
0001
0000
,  // measure 9
0000
0001
0000
0000
0000
0100
0000
0100
,  // measure 10
0000
0010
0000
1000
,  // measure 11
0000
0001
0000
0100
,  // measure 12
0000
0001
0000
0010
,  // measure 13
0000
0100
0000
1000
,  // measure 14
0000
0001
0000
0100
,  // measure 15
0000
0010
0000
1000
,  // measure 16
0001
0010
0001
0010
,  // measure 17
0100
1000
0100
1000
,  // measure 18
0001
0000
1000
0000
,  // measure 19
0010
0100
0010
0100
,  // measure 20
0001
0000
1000
0000
,  // measure 21
0100
0010
0100
0100
,  // measure 22
0010
0000
0001
0000
,  // measure 23
1000
0100
1000
0000
,  // measure 24
0001
0100
0010
1000
,  // measure 25
0001
0010
0100
1000
,  // measure 26
1001
0000
0100
0100
,  // measure 27
1000
0010
0100
0001
,  // measure 28
1000
0100
0010
0001
,  // measure 29
1000
0010
0100
0010
,  // measure 30
2000
3000
0002
0003
,  // measure 31
1000
0100
0010
0001
,  // measure 32
1000
0010
0100
0001
,  // measure 33
1000
0010
1010
0000
,  // measure 34
0001
0010
0011
0000
,  // measure 35
0001
0010
0100
1000
,  // measure 36
0001
0100
0010
1000
,  // measure 37
0001
0100
1000
0100
,  // measure 38
0001
1000
0001
0000
,  // measure 39
1010
0000
0011
0000
,  // measure 40
1000
0010
0001
0010
,  // measure 41
1000
1000
0001
0001
,  // measure 42
0010
0000
0010
0000
0000
0100
0000
0000
,  // measure 43
1000
0100
1000
0001
,  // measure 44
0100
0001
1000
0001
,  // measure 45
1000
0010
1000
0001
,  // measure 46
0010
0001
1001
1001
,  // measure 47
0001
0010
0001
1000
,  // measure 48
0010
1000
0001
1000
,  // measure 49
0001
0001
0010
0010
,  // measure 50
0100
0100
1001
0000
,  // measure 51
1000
0010
0001
0010
,  // measure 52
0100
0100
0001
0000
,  // measure 53
1000
0100
0001
0100
,  // measure 54
0010
0010
0001
0000
,  // measure 55
1000
0010
0001
0010
,  // measure 56
1000
0100
0001
0100
,  // measure 57
1000
1000
0010
0010
,  // measure 58
0100
0100
0000
0000
0000
0000
0000
0000
,  // measure 59
0000
0000
0000
0000
,  // measure 60
0000
0000
0000
0000
,  // measure 61
0000
0000
0000
0000
,  // measure 62
0000
0000
0000
0000
,  // measure 63
0000
0000
0000
0000
,  // measure 64
0000
0000
0000
0000
,  // measure 65
0001
0001
1000
1000
,  // measure 66
0010
0010
0100
0100
,  // measure 67
0001
0010
1000
0010
,  // measure 68
0001
0100
1000
0100
,  // measure 69
0001
0010
1000
0100
,  // measure 70
0001
1000
0001
0000
,  // measure 71
1100
0000
0101
0000
,  // measure 72
1000
0010
0100
0001
,  // measure 73
1000
1000
0001
0001
,  // measure 74
0010
0000
0010
0000
0000
0100
0000
0000
,  // measure 75
1000
1000
0000
0000
0000
0000
0000
0000
,  // measure 76
0000
0000
0000
0000
,  // measure 77
1000
0000
0010
0000
,  // measure 78
0100
0001
0100
0001
,  // measure 79
0010
0000
0100
0000
,  // measure 80
1000
0010
1000
0010
,  // measure 81
0100
0000
0001
0000
,  // measure 82
1000
0100
0010
0001
,  // measure 83
1000
0000
0000
1000
0000
0000
0001
0000
,  // measure 84
0000
0001
0000
0000
0000
0100
0000
2002
,  // measure 85
0000
0000
0000
0000
,  // measure 86
0000
0000
0000
0000
,  // measure 87
3003
0000
0000
0000
;

//---------------dance-single - Blank----------------
#NOTES:
     dance-single:
     :
     Medium:
     6:
     0.519,0.567,0.426,0.226,0.004,343.000,49.000,26.000,0.000,0.000,0.000,0.519,0.567,0.426,0.226,0.004,343.000,49.000,26.000,0.000,0.000,0.000: // measure 0
0000
0000
0000
0000
,  // measure 1
0000
0000
0000
0000
,  // measure 2
1000
0000
0100
0000
0010
0001
0000
0010
,  // measure 3
0000
0100
0000
1000
0000
0001
0001
0000
,  // measure 4
1000
0000
0010
0000
0100
0001
0000
0100
,  // measure 5
0000
0010
0000
1000
0000
0001
0001
0000
,  // measure 6
1000
0000
0100
0000
0001
0100
0000
1000
,  // measure 7
0000
0010
0000
0001
0000
0010
1000
0000
,  // measure 8
1010
0000
0000
0101
0000
0000
1001
0000
,  // measure 9
0001
0000
0010
0000
0100
1000
0000
1001
,  // measure 10
0000
0101
0001
1001
,  // measure 11
1000
0000
1100
0000
1000
0001
0000
0001
,  // measure 12
0000
0011
0001
1001
,  // measure 13
1000
0000
1010
0000
1000
0001
0000
0001
,  // measure 14
0000
0011
0001
1100
,  // measure 15
1000
0101
0001
1010
,  // measure 16
0012
0103
2010
3100
,  // measure 17
1100
0000
0101
0000
1000
0001
0000
0000
,  // measure 18
1010
0011
0001
0010
,  // measure 19
0100
0000
1000
0000
0001
1000
0000
0000
,  // measure 20
0101
1100
0001
0010
,  // measure 21
0100
0000
1000
0000
0001
1000
0001
1000
,  // measure 22
0001
1001
0001
0010
,  // measure 23
1000
0000
0010
0000
0100
1000
0000
0000
,  // measure 24
0001
0000
0100
0000
1000
0100
1000
0000
,  // measure 25
0100
0000
0001
0000
1000
0001
1000
0000
,  // measure 26
0110
0000
1100
0101
,  // measure 27
0001
0010
0001
0000
0010
0000
0100
1000
,  // measure 28
0000
1000
0000
0001
0000
0001
0000
0000
,  // measure 29
1000
0000
0010
0100
0000
0001
0000
1000
,  // measure 30
0000
1000
0000
0001
0000
0001
0000
0000
,  // measure 31
1000
0010
1000
0000
0010
0000
0100
0001
,  // measure 32
0000
0001
0000
1000
0000
1000
0000
0000
,  // measure 33
0001
0101
1000
1100
,  // measure 34
0001
0011
1000
1010
,  // measure 35
0001
0010
0001
0000
0010
0000
0100
1000
,  // measure 36
0000
1000
0000
0001
0000
0001
0000
0000
,  // measure 37
1000
0000
0010
0001
0000
0010
0000
0100
,  // measure 38
0000
0000
0001
1000
0000
1001
0000
0000
,  // measure 39
2000
3100
0002
0103
,  // measure 40
2000
3020
0230
0302
,  // measure 41
2003
3010
0002
0013
,  // measure 42
1000
0010
0100
0001
0000
2002
0000
3003
,  // measure 43
1000
0010
1000
0000
0001
0000
0010
0001
,  // measure 44
0010
0000
0001
0000
1000
0001
1000
0000
,  // measure 45
0001
0100
0001
0000
1000
0000
0100
1000
,  // measure 46
0100
0000
0000
0000
0010
0000
0000
0000
0001
0000
0000
0001
0000
0000
0001
0000
,  // measure 47
1000
0010
0001
0000
0010
0000
1000
0100
,  // measure 48
0001
0000
0100
0000
1000
0001
1000
0000
,  // measure 49
0101
1000
1100
0001
,  // measure 50
1000
0010
0100
0001
1000
0001
1000
0000
,  // measure 51
0011
0011
1010
1010
,  // measure 52
0001
0100
1000
0100
0002
0000
1003
0000
,  // measure 53
1100
1100
0101
0101
,  // measure 54
1000
0100
0001
0100
2000
0000
3001
0000
,  // measure 55
1000
0010
0100
0000
0001
0100
0010
0000
,  // measure 56
1000
0100
0010
0000
0001
0010
0100
0000
,  // measure 57
1000
0001
1000
0001
1000
0001
1000
0001
,  // measure 58
0010
0010
0000
0000
0000
0000
0000
0000
,  // measure 59
0000
0000
0000
0000
,  // measure 60
0000
0000
0000
0000
,  // measure 61
0000
0000
0000
0000
,  // measure 62
0000
0000
0000
0000
,  // measure 63
0000
0000
0000
0000
,  // measure 64
0000
0000
0000
0000
,  // measure 65
0001
0100
0001
0000
1000
0100
1000
0000
,  // measure 66
0001
0010
0001
0000
1000
0010
1000
0000
,  // measure 67
0001
0010
0001
0000
0010
0000
0100
1000
,  // measure 68
0000
1000
0000
0001
0000
0001
0000
0000
,  // measure 69
1000
0000
0010
0001
0000
0010
0000
0100
,  // measure 70
0000
0000
0001
1000
0000
1001
0000
0000
,  // measure 71
2000
3100
0002
0103
,  // measure 72
2000
3020
0230
0302
,  // measure 73
2003
3010
0002
0013
,  // measure 74
1000
0010
0100
0001
0000
2002
0000
3003
,  // measure 75
0010
0010
0000
0000
0000
0000
0000
0000
,  // measure 76
0000
0000
0000
1001
,  // measure 77
1000
0000
0100
0000
0010
0001
0000
0010
,  // measure 78
0000
0100
0000
1000
0000
0001
0001
0000
,  // measure 79
1000
0000
0010
0000
0100
0001
0000
0100
,  // measure 80
0000
0010
0000
1000
0000
0001
0001
0000
,  // measure 81
1000
0000
0100
0000
0001
0100
0000
1000
,  // measure 82
0000
0010
0000
0001
0000
0010
1000
0000
,  // measure 83
1010
0000
0000
0101
0000
0000
1001
0000
,  // measure 84
0001
0000
0010
0000
0100
1000
0000
2002
,  // measure 85
0000
0000
0000
0000
,  // measure 86
0000
0000
0000
0000
,  // measure 87
3003
0000
0000
0000
;
