#TITLE:GRADUATION (New Vocal&Mix);
#SUBTITLE:;
#ARTIST:南さやか;
#TITLETRANSLIT:;
#SUBTITLETRANSLIT:;
#ARTISTTRANSLIT:Sayaka Minami;
#CREDIT:;
#BANNER:GRADUATION (New Vocal&Mix).png;
#BACKGROUND:GRADUATION (New Vocal&Mix)-bg.png;
#JACKET:GRADUATION (New Vocal&Mix)-jacket.png;
#LYRICSPATH:;
#CDTITLE:;
#MUSIC:GRADUATION (New Vocal&Mix).mp3;
#OFFSET:-0.802;
#SAMPLESTART:31.980;
#SAMPLELENGTH:16.420;
#SELECTABLE:YES;
#BPMS:0.000=120.010;
#STOPS:;
#BGCHANGES:;

//---------------dance-single - ----------------
#NOTES:
     dance-single:
     :
     Hard:
     6:
     0.448,0.442,0.074,0.403,0.041: // measure 1
0000
0000
0000
0000
,  // measure 2
0000
0000
0000
0000
,  // measure 3
0000
0000
0000
0000
,  // measure 4
0000
0000
0000
0000
,  // measure 5
1000
0100
0010
0002
0000
1000
1003
0000
,  // measure 6
0001
0100
0010
2000
0000
0001
3001
0000
,  // measure 7
1000
0100
0001
0200
0000
0010
0310
0000
,  // measure 8
0100
0000
1000
0000
0001
1000
0001
1000
0001
0000
0100
0000
0010
0000
1000
0000
,  // measure 9
0002
0000
0010
0013
0000
0001
0010
0100
,  // measure 10
1000
0001
0100
0020
0000
0130
0000
0001
,  // measure 11
2000
0000
0010
0010
0000
0100
0100
3100
,  // measure 12
1000
0000
0001
0000
0100
0000
0010
0100
0010
0000
2000
0000
0000
0000
3001
0000
,  // measure 13
1000
0100
0010
0001
0000
0010
0100
1000
,  // measure 14
0001
0100
0010
1000
0000
0010
0100
0001
,  // measure 15
2000
0000
3100
0200
0000
0010
0010
0310
,  // measure 16
0100
0000
1000
0000
0001
0000
1000
0010
1000
0000
0001
0000
0010
0000
0100
0000
,  // measure 17
1000
0010
0100
1000
0000
0100
0010
1000
,  // measure 18
0002
0000
0010
0013
0000
0001
0010
0100
,  // measure 19
2000
0000
0001
3001
0000
1000
0010
0001
,  // measure 20
0010
0100
0000
0002
0000
1000
1003
0000
,  // measure 21
2100
0000
0010
0010
0000
3001
0000
1000
,  // measure 22
0010
0001
0010
0200
0000
0301
0000
1000
,  // measure 23
1200
0000
0000
0000
0010
0000
0010
0000
0310
0000
0000
0100
0000
0000
2000
0000
,  // measure 24
0000
0001
0001
3001
0000
1000
0010
0100
,  // measure 25
0002
0013
2000
3010
,  // measure 26
0002
0000
0100
0000
1003
0001
0100
0010
,  // measure 27
2000
3100
0002
0103
,  // measure 28
2000
0000
0010
0000
3001
0100
0010
1000
,  // measure 29
0002
0013
2000
3010
,  // measure 30
0002
0000
0100
0000
1003
0001
0100
1000
,  // measure 31
0200
0000
0010
0000
1300
0100
0010
1000
,  // measure 32
0000
0100
0010
0001
1000
1000
0001
0001
,  // measure 33
2000
0000
0100
3100
0000
1000
0100
0010
,  // measure 34
0002
0000
0100
0103
0000
0001
0100
0010
,  // measure 35
2000
0000
0100
0100
0000
0001
3001
0000
,  // measure 36
1000
0000
1100
0000
0110
0000
0011
0001
,  // measure 37
2100
0000
0010
0010
0000
3001
0000
1000
,  // measure 38
0010
0001
0010
0200
0000
0301
0000
1000
,  // measure 39
1200
0000
0000
0000
0010
0000
0010
0000
0310
0000
0000
0100
0000
0000
2000
0000
,  // measure 40
0000
0001
0001
3001
0000
1000
0010
0100
,  // measure 41
0002
0000
0100
0103
0000
0010
0100
0001
,  // measure 42
2000
0000
0100
3100
0000
1000
0100
0010
,  // measure 43
0001
0100
1000
0100
0001
1000
0000
0001
,  // measure 44
2000
0000
3010
0020
0000
0100
0130
0000
,  // measure 45
0012
0000
0100
0100
0000
1003
0000
0001
,  // measure 46
0100
1000
0100
0020
0000
1030
0000
0001
,  // measure 47
0021
0000
0100
0100
0130
0000
0010
0002
,  // measure 48
0000
1000
1000
1003
0000
0001
0100
0010
,  // measure 49
2000
0100
0010
3001
,  // measure 50
0002
0000
0100
0000
0013
0001
0100
0010
,  // measure 51
2000
0000
0100
0100
0000
0001
3001
0000
,  // measure 52
0020
1000
0001
0130
,  // measure 53
0010
0000
0000
1000
0000
0000
0100
0000
0020
0000
0000
0000
0031
0000
0000
0000
,  // measure 54
1000
0000
0000
0010
0000
0000
0100
0000
0002
0000
0000
0000
1003
0000
0000
0000
,  // measure 55
0001
0010
0100
0010
0002
0000
0103
0010
,  // measure 56
1000
0000
0000
0001
0000
0000
0010
0000
0100
0000
0000
1000
0000
0000
0001
0000
,  // measure 57
1000
0010
0001
1000
0100
0001
1000
0100
,  // measure 58
0001
1000
0010
0001
1000
0010
0100
0001
,  // measure 59
2000
0000
0000
0000
,  // measure 60
0000
0000
0000
3000
;

//---------------dance-single - ----------------
#NOTES:
     dance-single:
     :
     Easy:
     2:
     0.208,0.221,0.016,0.197,0.000:
0000
0000
0000
0000
,
0000
0000
0000
0000
,
0000
0000
0000
0000
,
0000
0000
0000
0000
,
1000
0000
0100
0000
,
0010
0000
0001
0000
,
1000
0100
1000
0000
,
0001
0100
0010
1000
,
0001
0000
0001
0000
,
0010
0000
0010
0000
,
0100
0000
0100
0000
,
1000
0001
1000
0000
,
0001
0000
0001
0000
,
0100
0000
0100
0000
,
0010
0000
0010
0000
,
1000
0100
0010
0001
,
1000
0100
0010
0000
,
0001
0100
0010
0000
,
1000
0001
0010
0100
,
1000
0001
0100
0010
,
1000
0001
0100
0000
,
0001
1000
0100
0000
,
1000
0010
0100
0001
,
1000
0100
0010
0001
,
2000
0000
0000
3000
,
0020
0000
0000
0030
,
0200
0000
0000
0300
,
0002
0000
0000
0003
,
0020
0030
0200
0300
,
2000
3000
0020
0030
,
0200
0000
0300
0000
0000
0001
0000
0001
,
0000
0010
0000
0010
0010
0000
0100
0000
,
2000
0000
0000
3000
,
0020
0000
0000
0030
,
0200
0000
0000
0300
,
0001
0010
0100
1001
,
1000
0010
0100
0000
,
0001
0100
0010
0000
,
1000
0100
0010
0001
,
1000
0010
0100
0001
,
1000
0001
0100
0000
,
0001
1000
0010
0000
,
1000
1000
0001
0001
,
0010
0010
0100
0100
,
1000
0100
0001
0000
,
1000
0010
0001
0000
,
1000
0010
0100
0001
,
1000
0100
0010
0001
,
2000
3000
0020
0030
,
0200
0300
0002
0003
,
2000
3000
0200
0300
,
0020
0030
0002
0003
,
1000
0100
0020
0030
,
0001
0100
0020
0030
,
1000
0010
0100
0001
,
1000
0100
0010
0001
,
1000
0000
0000
1000
0000
0000
0001
0000
,
0000
0001
0000
0000
1000
0000
0001
0000
,
2002
0000
0000
0000
,
0000
0000
0000
3003
;

//---------------dance-single - ----------------
#NOTES:
     dance-single:
     :
     Medium:
     4:
     0.327,0.344,0.115,0.246,0.000:
0000
0000
0000
0000
,
0000
0000
0000
0000
,
0000
0000
0000
0000
,
0000
0000
0000
0000
,
1000
0100
0010
0001
,
1000
0010
0100
0001
,
1000
0100
0001
0100
,
1000
0001
1000
0001
1000
0000
0110
0000
,
1000
0010
0200
0300
,
0001
0010
0200
0300
,
1000
0010
0100
0001
,
0010
0000
0100
0000
1000
0002
0000
0003
,
1000
0010
0200
0300
,
0001
0010
0200
0300
,
1000
0100
0010
0001
,
1000
0000
0010
0000
0100
0001
1000
0001
,
1000
0010
0100
0101
,
0001
0010
0100
1100
,
1000
0010
0100
1001
,
1000
0100
0010
0000
0001
0100
0010
0000
,
1000
0010
0100
1001
,
0001
0010
0100
1001
,
1000
0100
1000
0000
0001
0100
0001
0000
,
1000
0010
1000
0000
0001
0010
0001
0000
,
2000
0010
3002
0010
,
2003
0010
0010
3010
,
2000
0100
3002
0100
,
2003
0100
0100
3100
,
2000
3010
0200
0301
,
2000
0010
0100
3001
,
0002
0000
0010
0000
0103
0001
0100
0001
,
0000
1000
0100
1000
0100
0000
0010
0000
,
0001
0100
0020
0030
,
1000
0100
0020
0030
,
0100
1000
0002
0000
,
0003
0100
0010
1001
,
0001
0000
0010
0000
0100
1000
0100
0000
,
1000
0000
0010
0000
0100
0001
0100
0000
,
0001
0010
0100
1000
,
0001
0100
0010
1000
0001
0000
1001
0000
,
0001
0100
0010
1010
,
1000
0100
0010
0011
,
0001
0100
0010
1001
,
0001
0010
0100
0000
1000
0010
0100
0000
,
0001
0100
0010
1001
,
1000
0100
0010
1001
,
0001
0010
0001
0000
1000
0010
1000
0000
,
0001
0100
0001
0000
1000
0010
0100
0001
,
2000
0100
0010
3100
,
0002
0100
0010
0103
,
2000
0010
0001
3100
,
0002
0010
1000
0103
,
1000
0000
0010
0100
0020
0000
1030
0000
,
0001
0000
0010
0100
0020
0000
0031
0000
,
1000
0010
0100
0001
,
1000
0000
0100
0010
0100
0000
1000
0001
,
2000
0000
3000
0020
0000
0030
0200
0000
,
0300
0002
0000
0003
1000
0000
0001
0000
,
2002
0000
0000
0000
,
0000
0000
0000
3003
;
