#TITLE:GENTLEMAN;
#SUBTITLE:;
#ARTIST:싸이;
#TITLETRANSLIT:;
#SUBTITLETRANSLIT:;
#ARTISTTRANSLIT:PSY;
#GENRE:;
#CREDIT:;
#BANNER:GENTLEMAN.png;
#BACKGROUND:GENTLEMAN-bg.png;
#LYRICSPATH:;
#CDTITLE:;
#MUSIC:GENTLEMAN.mp3;
#OFFSET:-0.071;
#SAMPLESTART:60.980;
#SAMPLELENGTH:17.220;
#SELECTABLE:YES;
#BPMS:0.000=126.000
;
#STOPS:
;
#BGCHANGES:;
#KEYSOUNDS:;
#ATTACKS:;

//---------------dance-single - ----------------
#NOTES:
     dance-single:
     :
     Hard:
     8:
     0.594,0.643,0.299,0.238,0.192,471.000,39.000,31.000,0.000,0.000,0.000,0.594,0.643,0.299,0.238,0.192,471.000,39.000,31.000,0.000,0.000,0.000:
0000
0000
0000
0000
,
0000
0000
0000
0000
,
0000
0000
0000
0000
,
0000
0000
0000
0000
,
2000
0000
0000
0000
3001
0000
0100
0010
0100
0000
0100
0000
0001
0000
0001
0000
,
1000
0100
0010
0100
0001
0100
0010
0010
,
0002
0000
0000
0000
1003
0000
0010
0100
0010
0000
0010
0000
1000
0000
1000
0000
,
0001
0000
0100
0010
0100
0000
0010
0100
0010
0000
1000
0000
0001
0000
0010
0000
,
0100
0000
1010
0000
1000
0100
0001
0100
,
0010
0001
1000
0000
0001
0100
1000
0100
,
0001
0000
1100
0000
1000
0010
0001
0010
,
0100
0001
1000
0000
0001
0010
1000
0010
,
0001
0000
1000
0010
0100
0010
0001
0010
,
0100
0001
1000
0000
0001
0010
1000
0010
,
0001
0000
1000
0010
1000
1000
1000
0001
,
1000
0100
0001
0010
1000
0001
2000
0000
,
0100
3100
0000
1000
0010
0100
0001
0010
,
1000
0010
0001
0100
0010
1000
0200
0000
,
0010
0310
0000
0000
0100
0010
0001
0100
,
1000
0000
0100
0001
0010
0001
2000
0000
,
0010
3010
1000
0010
0001
0010
1000
0100
,
0001
0100
1000
0010
0001
0010
0200
0000
,
0001
0301
0000
2010
0000
3001
0000
0000
,
1000
0100
0001
0100
1100
0000
0101
0000
,
1002
1000
1000
1000
,
0100
0100
0100
0100
,
0010
0010
0010
0010
,
1000
1000
1003
1001
,
1010
0000
0000
1010
0000
0000
1010
0000
0000
0000
0010
0000
0100
0000
0001
0000
,
0101
0000
0000
0101
0000
0000
0101
0000
0000
0000
0001
0000
0010
0000
0100
0000
,
1000
1000
0010
0010
0100
0100
0001
1000
,
0000
0000
0000
0110
,
2001
0000
0000
0000
3100
0000
1000
0001
1000
0000
0010
0000
0100
0000
0100
0000
,
0001
0010
1000
0010
0001
0010
0100
0100
,
0020
0000
0000
0000
0031
0000
1000
0100
1000
0000
0010
0000
0100
0000
0100
0000
,
0001
0000
1000
0100
1000
0000
0001
0100
0001
0000
1000
0000
0110
0000
0000
0000
,
1002
0000
0000
0000
0013
0000
0001
1000
0001
0000
0100
0000
0010
0000
0010
0000
,
1000
0100
0001
0100
1000
0100
0010
0010
,
0200
0000
0000
0000
1300
0000
0001
0010
0001
0000
0100
0000
0010
0000
0010
0000
,
1000
0000
0001
0010
0001
0000
1000
0010
1000
0000
0001
0000
1001
0000
0000
0000
,
0101
0000
0001
1000
0001
0000
0010
0000
0002
0000
0000
0000
1003
0000
0000
0000
,
0100
0000
1000
0001
1000
0000
0010
0000
2000
0000
0000
0000
3001
0000
0000
0000
,
1000
0010
1000
0000
0010
0000
0100
0000
0002
0000
0000
0000
1003
0000
0000
0000
,
0001
1010
0012
0103
,
1010
0000
1000
0001
1000
0000
0100
0000
2000
0000
0001
0000
0001
0000
3001
0000
,
0010
0000
0001
1000
0001
0000
0100
0000
0002
0000
1000
0000
1000
0000
1003
0000
,
0001
0100
0001
0000
0100
0000
0010
0000
2000
0000
0001
0000
0001
0000
3001
0000
,
1000
0000
0001
0100
0001
0000
1000
0000
0200
0000
0010
0000
0010
0000
0310
0000
,
0110
0010
0001
0100
0110
0010
1000
0100
,
0011
0001
0101
0100
0110
0010
1010
1000
,
0001
1000
0001
1000
0001
1000
0001
1000
0001
1000
0001
1000
0010
0000
0100
0000
,
0000
0000
0000
0110
,
2001
0000
0000
0000
3100
0000
1000
0001
1000
0000
0010
0000
0100
0000
0100
0000
,
0001
0010
1000
0010
0001
0010
0100
0100
,
0020
0000
0000
0000
0031
0000
1000
0100
1000
0000
0010
0000
0100
0000
0100
0000
,
0001
0000
1000
0100
1000
0000
0001
0100
0001
0000
1000
0000
0110
0000
0000
0000
,
1002
0000
0000
0000
0013
0000
0001
1000
0001
0000
0100
0000
0010
0000
0010
0000
,
1000
0100
0001
0100
1000
0100
0010
0010
,
0200
0000
0000
0000
1300
0000
0001
0010
0001
0000
0100
0000
0010
0000
0010
0000
,
1000
0000
0001
0010
0001
0000
1000
0010
1000
0000
0001
0000
1001
0000
0000
0000
,
1000
0010
1000
0000
1000
0000
0010
0100
0010
0000
0010
0000
0200
0000
0301
0000
,
0100
0000
0001
0010
0001
0000
0010
0001
0010
0000
0100
0000
2000
0000
3001
0000
,
0001
0100
0001
0000
0001
0000
0100
0010
0100
0000
0100
0000
0020
0000
1030
0000
,
0001
0000
1000
0100
0001
0000
0001
0100
1000
0000
0001
0000
2002
0000
3003
0000
,
1000
0010
1000
0000
1010
0000
0010
0100
0010
0000
0100
0000
0102
0000
1003
0000
,
0001
0000
0001
0010
0100
0000
0100
1000
0001
0000
0100
0000
2010
0000
3001
0000
,
1000
0100
1000
0000
1100
0000
0100
0010
0001
0000
0100
0000
0010
1000
0001
0000
,
1001
0000
0000
0000
;

//---------------dance-single - ----------------
#NOTES:
     dance-single:
     :
     Easy:
     3:
     0.283,0.283,0.069,0.123,0.000,233.000,9.000,16.000,0.000,0.000,0.000,0.283,0.283,0.069,0.123,0.000,233.000,9.000,16.000,0.000,0.000,0.000:
0000
0000
0000
0000
,
0000
0000
0000
0000
,
0000
0000
0000
0000
,
0000
0000
0000
0000
,
1000
0100
1000
1000
,
0001
0100
0001
0001
,
1000
0010
1000
1000
,
0001
0010
0100
1000
,
0001
0100
0010
0100
,
0001
0010
0100
0100
,
1000
0010
0100
0010
,
1000
0100
0010
0010
,
0100
1000
0001
0010
,
0001
0100
0010
0010
,
0100
0001
0001
0001
,
1000
1000
0001
0010
,
0200
0300
0010
0001
,
0100
0010
1000
0100
,
0020
0030
0100
1000
,
0010
0100
0001
1000
,
0002
0013
0100
1000
,
0010
1000
0001
0100
,
2000
3000
0001
0001
,
1000
0100
0010
0001
,
2000
3000
0200
0300
,
0020
0030
0002
0003
,
2000
3000
0020
0030
,
0200
0300
0001
1001
,
0001
0001
0001
0001
,
0010
0010
0010
0010
,
0100
1000
0001
1000
,
0000
0000
0000
1001
,
1000
0010
0001
0010
,
1000
0010
0100
0100
,
0001
0010
1000
0010
,
0100
0100
1000
1000
,
0001
0100
1000
0100
,
0001
0100
0010
0010
,
1000
0100
0001
0100
,
1000
0010
0100
1001
,
0001
0010
0200
0300
,
1000
0010
0200
0300
,
0001
1000
0200
0300
,
1000
0101
2200
3300
,
0001
0010
0100
0100
,
1000
0010
0100
0100
,
0001
1000
0010
0010
,
1000
0001
0010
0010
,
0001
0001
0100
0100
,
0010
0010
1000
1000
,
0001
0001
0001
0001
,
0000
0000
0000
1001
,
1000
0010
0001
0010
,
1000
0010
0100
0100
,
0001
0010
1000
0010
,
0100
0100
1000
1000
,
0001
0100
1000
0100
,
0001
0100
0010
0010
,
1000
0100
0001
0100
,
1000
0010
0100
1001
,
1000
0100
1000
0010
,
1000
0100
1000
0010
,
0001
0100
0001
1000
,
0001
0010
0001
1001
,
1000
0010
0100
0001
,
0100
0010
1000
0001
,
1000
0100
0010
0001
,
1001
0000
0000
0000
;

//---------------dance-single - ----------------
#NOTES:
     dance-single:
     :
     Medium:
     6:
     0.438,0.412,0.177,0.123,0.023,360.000,23.000,16.000,0.000,0.000,0.000,0.438,0.412,0.177,0.123,0.023,360.000,23.000,16.000,0.000,0.000,0.000: // measure 0
0000
0000
0000
0000
,  // measure 1
0000
0000
0000
0000
,  // measure 2
0000
0000
0000
0000
,  // measure 3
0000
0000
0000
0000
,  // measure 4
2000
0000
3001
0000
0100
0010
0100
0000
,  // measure 5
0001
0100
0001
0000
1000
0100
1000
0000
,  // measure 6
0002
0000
1003
0000
0010
0100
0010
0000
,  // measure 7
1000
0010
0100
0001
1000
0100
0010
0001
,  // measure 8
1000
0000
1001
0000
0001
0100
0001
0000
,  // measure 9
1000
0100
1000
0000
0001
1000
0001
1000
,  // measure 10
0001
0000
1001
0000
1000
0010
1000
0000
,  // measure 11
0001
0010
0001
0000
1000
0001
1000
0001
,  // measure 12
1000
0000
1001
0000
0001
0100
0010
0000
,  // measure 13
1000
0010
0100
0000
0001
1000
0001
1000
,  // measure 14
0001
0000
1001
0000
1000
1000
1000
0000
,  // measure 15
0001
0010
0100
1000
0001
1000
0001
0000
,  // measure 16
0102
0000
1003
0000
0001
0010
0100
0000
,  // measure 17
1000
0010
1000
0000
0001
0100
0001
0000
,  // measure 18
2000
0000
3100
0000
1000
0010
0100
0000
,  // measure 19
0001
0000
1000
0100
0010
0000
0002
0000
,  // measure 20
1003
0000
0001
0100
0001
0000
0100
1000
,  // measure 21
0100
0000
1000
0010
1000
0000
0020
0000
,  // measure 22
0031
0000
0000
0101
0000
0110
0000
0000
,  // measure 23
1000
0100
0010
0001
1000
0000
1001
0000
,  // measure 24
2100
0100
0100
0100
,  // measure 25
0010
0010
0010
0010
,  // measure 26
0001
0001
0001
0001
,  // measure 27
0100
0100
3100
1001
,  // measure 28
1000
0000
0000
1000
0000
0000
1000
0000
0000
0000
0100
0000
0100
0000
0000
0000
,  // measure 29
0010
0000
0000
0010
0000
0000
0010
0000
0000
0000
0001
0000
0001
0000
0000
0000
,  // measure 30
1000
0010
0100
0001
0100
0010
1000
0001
,  // measure 31
0000
0000
0000
1001
,  // measure 32
2100
0000
3001
0000
1000
0010
1000
0000
,  // measure 33
0001
0001
0001
0001
1000
1000
1000
0000
,  // measure 34
0102
0000
1003
0000
0001
0010
0001
0000
,  // measure 35
1000
1000
0100
0100
0010
0010
0001
0000
,  // measure 36
2100
0000
3001
0000
1000
0010
1000
0000
,  // measure 37
0001
0001
0010
0010
0100
0100
1000
0000
,  // measure 38
0102
0000
1003
0000
0001
0010
0001
0000
,  // measure 39
1000
0100
0010
0001
0010
0100
1000
0000
,  // measure 40
0102
0100
0100
0100
,  // measure 41
1000
1000
1000
1000
,  // measure 42
0010
0010
0010
0010
,  // measure 43
1000
0100
0013
1001
,  // measure 44
0001
0000
0000
0001
0000
0000
0001
0000
0000
0000
0010
0000
0010
0000
0010
0000
,  // measure 45
0100
0000
0000
0100
0000
0000
0100
0000
0000
0000
1000
0000
1000
0000
1000
0000
,  // measure 46
0010
0000
0000
0010
0000
0000
0010
0000
0000
0000
0100
0000
0100
0000
0100
0000
,  // measure 47
0001
0000
0000
0001
0000
0000
0001
0000
0000
0000
1000
0000
1000
0000
1000
0000
,  // measure 48
0001
0010
0001
0010
0100
1000
0100
1000
,  // measure 49
0001
0001
0100
0100
0010
0010
1000
1000
,  // measure 50
0001
0001
0001
0001
0001
0001
1000
0100
,  // measure 51
0000
0000
0000
1001
,  // measure 52
0012
0000
1003
0000
0001
0100
0001
0000
,  // measure 53
1000
1000
1000
1000
0001
0001
0001
0000
,  // measure 54
2010
0000
3001
0000
1000
0100
1000
0000
,  // measure 55
0001
0001
0010
0010
0100
0100
1000
0000
,  // measure 56
0012
0000
1003
0000
0001
0100
0001
0000
,  // measure 57
1000
1000
0100
0100
0010
0010
0001
0000
,  // measure 58
2010
0000
3001
0000
1000
0100
1000
0000
,  // measure 59
0001
0010
0100
1000
0100
0010
0001
0000
,  // measure 60
1000
0010
1000
0010
1000
1000
1000
0000
,  // measure 61
0001
0010
0001
0010
0001
0001
0001
0000
,  // measure 62
1000
0100
1000
0100
1000
1000
1000
0000
,  // measure 63
0001
0100
0001
0100
0001
0001
0001
0000
,  // measure 64
1000
0100
0010
0001
0010
0010
0010
0000
,  // measure 65
1000
0010
0100
0001
0100
0100
0100
0000
,  // measure 66
0001
0010
1000
0010
0100
1000
0001
1000
,  // measure 67
1001
0000
0000
0000
;
