#VERSION:0.81;
#TITLE:ふしぎなくすり;
#SUBTITLE:;
#ARTIST:上野圭市 feat. SATOE;
#TITLETRANSLIT:Fushigi na kusuri;
#SUBTITLETRANSLIT:;
#ARTISTTRANSLIT:Keiichi Ueno feat. SATOE;
#GENRE:;
#ORIGIN:;
#CREDIT:;
#BANNER:Fushigi na kusuri.png;
#BACKGROUND:Fushigi na kusuri-bg.png;
#PREVIEWVID:;
#JACKET:Fushigi na kusuri-jacket.png;
#CDIMAGE:;
#DISCIMAGE:;
#LYRICSPATH:;
#CDTITLE:;
#MUSIC:Fushigi na kusuri.mp3;
#OFFSET:-0.118;
#SAMPLESTART:14.700;
#SAMPLELENGTH:16.420;
#SELECTABLE:YES;
#BPMS:0.000=162.000;
#STOPS:;
#DELAYS:;
#WARPS:;
#TIMESIGNATURES:0.000=4=4;
#TICKCOUNTS:0.000=4;
#COMBOS:0.000=1;
#SPEEDS:0.000=1.000=0.000=0;
#SCROLLS:0.000=1.000;
#FAKES:;
#LABELS:0.000=Song Start;
#BGCHANGES:;
#KEYSOUNDS:;
#ATTACKS:
;

//---------------dance-single - ----------------
#NOTEDATA:;
#CHARTNAME:;
#STEPSTYPE:dance-single;
#DESCRIPTION:;
#CHARTSTYLE:;
#DIFFICULTY:Hard;
#METER:8;
#RADARVALUES:0.673,0.637,0.517,0.652,0.059,418.000,61.000,77.000,0.000,0.000,0.000,0.000,0.000,0.673,0.637,0.517,0.652,0.059,418.000,61.000,77.000,0.000,0.000,0.000,0.000,0.000;
#CREDIT:;
#NOTES:
// measure 0
0000
0000
0000
0000
,  // measure 1
0000
0000
0000
0000
0000
0000
0000
2000
,  // measure 2
0000
0001
3001
0000
1100
0000
1000
0002
,  // measure 3
0000
1000
1003
0000
0102
0010
0013
0200
,  // measure 4
0000
1000
1300
0000
1100
0000
0100
0101
,  // measure 5
0000
0011
0000
1010
1010
1000
1000
0002
,  // measure 6
0000
1000
1003
0000
0011
0000
0001
2000
,  // measure 7
0000
0001
3001
0000
2010
0100
3100
0020
,  // measure 8
0000
0001
0031
0000
0011
0000
0010
1010
,  // measure 9
0000
1100
0000
0101
0101
0000
0000
1001
,  // measure 10
0000
1000
0100
0010
0001
0010
0100
2000
,  // measure 11
0000
0010
0010
0100
3100
0000
1000
0002
,  // measure 12
0000
0010
0010
0100
0103
0000
0001
0200
,  // measure 13
0000
0010
0310
1000
0002
0000
1000
1000
,  // measure 14
1003
0000
0001
0010
0100
1000
0000
0001
,  // measure 15
1000
1000
0010
0010
0100
0100
0001
0101
,  // measure 16
0000
1100
1100
0000
0110
0000
0000
1001
,  // measure 17
0000
0001
0010
0100
1000
0100
0000
0020
,  // measure 18
0000
0001
0001
1000
1030
0000
0010
0200
,  // measure 19
0000
1000
1000
0001
0301
0100
0100
0020
,  // measure 20
0000
0031
0100
0010
2000
0000
0001
0001
,  // measure 21
3001
0000
2100
0000
3001
0010
0100
2000
,  // measure 22
0000
0010
3010
0000
0101
0000
0001
0010
,  // measure 23
0000
0110
0110
0000
1100
1100
0000
1001
,  // measure 24
0000
0000
0001
0100
0001
0000
0000
0000
2000
0000
0000
0000
0001
0000
3001
0000
,  // measure 25
1000
0000
0010
1000
0010
0000
0100
0010
0100
0000
0001
0100
0001
0000
0010
0000
,  // measure 26
0000
0000
0100
1000
0001
0000
0000
0000
0020
0000
0000
0000
0100
0000
0130
0000
,  // measure 27
0010
0000
0001
0100
0001
0000
1000
0100
1000
0000
0001
1000
0001
0000
0000
0000
,  // measure 28
2000
0000
3010
0200
0000
0301
0001
0002
,  // measure 29
0000
0013
0000
2000
0000
0001
3001
0000
,  // measure 30
1010
0101
0011
1100
,  // measure 31
2010
3100
0012
0103
,  // measure 32
1002
0000
0103
0100
2000
0000
3100
0101
,  // measure 33
0000
0011
0011
0000
1001
0000
0000
0110
,  // measure 34
0000
1000
0100
0001
0100
0010
0001
2000
,  // measure 35
0000
0010
0010
0100
3100
0000
1000
0002
,  // measure 36
0000
0010
0010
0100
0103
0000
0001
0100
,  // measure 37
0020
0000
0100
0130
0002
0000
1000
1003
,  // measure 38
0100
0000
1001
0000
1000
0010
0000
0102
,  // measure 39
0000
0010
0010
0000
1003
0000
0001
2000
,  // measure 40
0000
0000
0000
0100
0000
0000
3100
0000
0000
0000
0000
0000
1000
0000
0000
0000
0010
0000
0000
0000
0100
0000
0000
0000
,  // measure 41
0002
0103
2000
3100
,  // measure 42
0002
0103
2000
3100
,  // measure 43
0002
0013
2000
3010
,  // measure 44
0002
0013
2000
3010
,  // measure 45
0002
0103
2000
3100
,  // measure 46
0020
0130
0002
0103
,  // measure 47
0002
0013
2000
3010
,  // measure 48
0200
0000
0000
0310
0000
0000
0001
0000
0100
0000
0010
0000
,  // measure 49
1000
0000
0001
0100
0001
0000
0001
0100
,  // measure 50
0001
0000
0100
1000
0100
0000
0100
1000
,  // measure 51
0100
0000
1000
0010
1000
0000
1000
0010
,  // measure 52
1000
0000
0010
0001
0010
0000
0010
0001
,  // measure 53
0010
0000
0001
0100
0001
0000
1000
0010
,  // measure 54
1000
0000
0010
0001
0010
0000
0001
0100
,  // measure 55
0002
0203
2300
3020
,  // measure 56
0230
0302
2003
3200
,  // measure 57
1300
0010
0100
0001
1000
0100
0010
0001
,  // measure 58
1000
0000
0010
0000
0100
0000
0001
0000
1000
0001
1000
0001
1000
0000
1001
0000
,  // measure 59
0000
0001
0010
1000
0010
0100
1000
0002
,  // measure 60
0000
0100
0100
0010
0013
0000
0001
2000
,  // measure 61
0000
0100
0100
0010
3010
0000
1000
0010
,  // measure 62
0200
0000
0010
0310
2000
0000
0001
3001
,  // measure 63
0010
0000
1001
0000
0001
0100
0000
2010
,  // measure 64
0000
0100
0100
0000
3001
0000
1000
0002
,  // measure 65
0000
0010
0013
0000
0001
0000
1000
0010
,  // measure 66
0200
0000
0010
0310
2000
0000
0001
3001
,  // measure 67
1000
0000
1001
0000
0001
0010
0100
2000
,  // measure 68
0000
0001
3001
0000
1100
0000
1000
0002
,  // measure 69
0000
1000
1003
0000
0102
0010
0013
0200
,  // measure 70
0000
1000
1300
0000
1100
0000
0100
0101
,  // measure 71
0000
0011
0000
1010
1010
1000
1000
0002
,  // measure 72
0000
1000
1003
0000
0011
0000
0001
2000
,  // measure 73
0000
0001
3001
0000
2010
0100
3100
0020
,  // measure 74
0000
0001
0031
0000
0011
0000
0010
1010
,  // measure 75
0000
1100
0000
0101
0101
0000
0000
2002
,  // measure 76
0000
0000
0000
0000
,  // measure 77
0000
0000
0000
0000
,  // measure 78
0000
0000
0000
0000
0000
3003
0000
0220
,  // measure 79
0000
0330
0000
0000
;

//---------------dance-single - Blank----------------
#NOTEDATA:;
#CHARTNAME:;
#STEPSTYPE:dance-single;
#DESCRIPTION:Blank;
#CHARTSTYLE:;
#DIFFICULTY:Easy;
#METER:4;
#RADARVALUES:0.350,0.302,0.161,0.305,0.000,234.000,19.000,36.000,0.000,0.000,0.000,0.000,0.000,0.350,0.302,0.161,0.305,0.000,234.000,19.000,36.000,0.000,0.000,0.000,0.000,0.000;
#CREDIT:;
#NOTES:
0000
0000
0000
0000
,
0000
0000
0000
0000
,
1000
0100
0010
0001
,
0010
0100
1000
0000
,
0001
0100
0010
1000
,
0001
1000
1001
0000
,
0001
0010
0100
1000
,
0100
0010
0001
0000
,
1000
0010
0100
0001
,
1000
0001
1001
0000
,
0001
0100
0010
1000
,
0001
0001
0001
0000
,
1000
1000
1000
0000
,
0001
0010
0100
1000
,
0001
0100
0010
1000
,
0001
0001
0010
0010
,
0100
1000
1001
0000
,
1000
0010
0100
0001
,
1000
1000
1000
0000
,
0001
0001
0001
0000
,
1000
0100
0010
0001
,
0000
1001
1000
0100
,
1000
0010
0100
0001
,
1000
0100
0010
0001
,
1000
0000
0001
0000
,
0202
0000
0303
0000
,
0001
0000
1000
0000
,
2200
0000
3300
0000
,
1000
0010
0100
0001
,
0100
0010
1000
0000
,
0001
0010
0100
1000
,
1001
0000
0110
0000
,
0101
0000
1100
0000
,
1000
0001
1001
0000
,
1000
0010
0001
0010
,
0100
0001
1000
0000
,
0010
0100
0010
0000
,
1000
0100
0010
0001
,
0000
1001
1000
0010
,
0100
0001
0010
0001
,
0100
0010
1000
1000
,
0002
0003
0020
0030
,
0200
0300
2000
3000
,
0020
0030
0200
0300
,
0002
0003
2000
3000
,
0200
0300
2000
3000
,
0020
0030
0200
0300
,
0002
0003
0020
0030
,
0200
0300
1000
0001
,
2000
3000
0020
0030
,
0200
0300
0002
0003
,
2000
3000
0200
0300
,
0020
0030
0002
0003
,
2000
3000
0020
0030
,
0002
0003
0020
0030
,
1000
1000
0001
0001
,
0010
0010
0100
0100
,
0010
0001
0100
0001
,
0010
0100
1000
1001
,
0001
0100
1000
0100
,
0010
1000
0001
0000
,
0100
0010
0100
0000
,
0001
0010
0100
1000
,
0000
1001
0001
0100
,
0010
1000
0100
1000
,
0010
0100
0002
0003
,
1000
0100
0001
0100
,
1000
1001
0001
0100
,
0001
0010
0100
1000
,
0100
0010
0001
0000
,
1000
0010
0100
0001
,
1000
0001
1001
0000
,
1000
0100
0010
0001
,
0010
0100
1000
0000
,
0001
0100
0010
1000
,
0001
1000
1001
0000
,
0220
0000
0000
0000
,
0000
0000
0000
0000
,
0000
0000
0000
0000
0000
0330
0000
2002
,
0000
3003
0000
0000
;

//---------------dance-single - Blank----------------
#NOTEDATA:;
#CHARTNAME:;
#STEPSTYPE:dance-single;
#DESCRIPTION:Blank;
#CHARTSTYLE:;
#DIFFICULTY:Medium;
#METER:6;
#RADARVALUES:0.553,0.537,0.381,0.567,0.017,345.000,45.000,67.000,0.000,1.000,0.000,0.000,0.000,0.553,0.537,0.381,0.567,0.017,345.000,45.000,67.000,0.000,1.000,0.000,0.000,0.000;
#CREDIT:;
#NOTES:
// measure 0
0000
0000
0000
0000
,  // measure 1
0000
0000
0000
0000
0000
0000
0000
0001
,  // measure 2
0000
0100
0010
0000
1000
0000
0010
0100
,  // measure 3
0000
0001
1000
0000
1001
0000
0000
1000
,  // measure 4
0000
0100
0010
0000
0001
0000
0010
0100
,  // measure 5
0000
1000
0000
0001
1001
0000
0000
1000
,  // measure 6
0000
0010
0100
0000
0001
0000
0100
0010
,  // measure 7
0000
1000
0001
0000
1001
0000
0000
0001
,  // measure 8
0000
0010
0100
0000
1000
0000
0100
0010
,  // measure 9
0000
0001
0000
1000
1001
0000
0000
0001
,  // measure 10
0000
1000
0100
0000
1000
0000
0010
0000
,  // measure 11
0100
0001
0100
0001
0002
0000
1003
0000
,  // measure 12
0100
1000
0100
1000
2000
0000
3001
0000
,  // measure 13
1000
0010
0100
0001
2000
0000
3002
0000
,  // measure 14
0103
0001
0010
0100
,  // measure 15
1000
0010
1000
0000
0001
0010
0001
1000
,  // measure 16
0000
0001
1000
0000
0110
0000
0000
1000
,  // measure 17
0000
0001
0010
0000
0001
0000
0100
0000
,  // measure 18
0010
1000
0010
1000
2000
0000
3001
0000
,  // measure 19
0010
0001
0010
0001
0002
0000
1003
0000
,  // measure 20
0001
0100
0010
1000
0002
0000
2003
0000
,  // measure 21
3010
0000
0101
0000
1000
0100
0010
0001
,  // measure 22
0000
0100
0010
0000
1000
0000
0010
0100
,  // measure 23
0000
0001
0010
0000
0100
1000
0000
0001
,  // measure 24
0000
0000
1001
0000
1000
0000
0010
0100
,  // measure 25
0002
0000
0010
0000
0100
0000
1003
0001
,  // measure 26
0000
0000
1001
0000
0001
0000
0010
0100
,  // measure 27
2000
0010
0100
3001
,  // measure 28
1000
0010
0001
0010
,  // measure 29
1000
0100
0001
0100
,  // measure 30
1010
1010
0101
0101
,  // measure 31
2002
3003
0220
0330
,  // measure 32
1000
0100
0010
0000
0001
0100
0010
1000
,  // measure 33
0000
0001
1000
0000
1001
0000
0000
0001
,  // measure 34
0000
1000
0100
0000
1000
0000
0010
0000
,  // measure 35
1000
0100
0001
0100
2000
0000
3001
0000
,  // measure 36
1000
0010
0001
0010
2000
0000
3001
0000
,  // measure 37
2000
3010
0200
0301
,  // measure 38
1000
0000
1001
0000
0010
0100
0000
0101
,  // measure 39
0000
0100
0010
0000
1000
0000
0010
0100
,  // measure 40
0000
0000
0000
0001
0000
0000
1000
0000
0000
0000
0000
0000
0001
0000
0000
0000
0001
0000
0000
0000
0001
0000
0000
0000
,  // measure 41
2000
3020
0230
0302
,  // measure 42
0203
0320
2030
3020
,  // measure 43
2030
3200
0320
0032
,  // measure 44
0023
0230
2300
3200
,  // measure 45
2300
3020
0032
0023
,  // measure 46
2030
3020
0032
0023
,  // measure 47
2030
3200
0302
0203
,  // measure 48
2300
0000
0000
3002
0000
0000
1003
0000
1000
0000
1000
0000
,  // measure 49
0001
0101
0001
0101
,  // measure 50
1000
1100
1000
1100
,  // measure 51
0001
0011
0001
0011
,  // measure 52
1000
1010
1000
1010
,  // measure 53
0001
0101
1000
1100
,  // measure 54
0001
0011
1000
1010
,  // measure 55
2000
3020
0230
0302
,  // measure 56
2003
3200
0320
0032
,  // measure 57
1103
0011
0101
1010
,  // measure 58
1001
0000
0110
0000
0001
0010
0100
1000
,  // measure 59
0000
0001
0010
0000
0001
0000
0100
0000
,  // measure 60
0001
0010
1000
0010
0002
0000
1003
0000
,  // measure 61
0001
0100
1000
0100
0002
0000
1003
0000
,  // measure 62
0002
0103
0020
1030
,  // measure 63
0001
0000
1001
0000
0100
0010
0000
1010
,  // measure 64
0000
0010
0100
0000
0001
0000
0100
0010
,  // measure 65
0000
1000
0001
0000
2100
0000
3001
0000
,  // measure 66
2000
3010
0002
0013
,  // measure 67
1000
0000
1001
0000
1000
0100
0010
0001
,  // measure 68
0000
0100
0010
0000
1000
0000
0010
0100
,  // measure 69
0000
0001
1000
0000
1001
0000
0000
1000
,  // measure 70
0000
0100
0010
0000
0001
0000
0010
0100
,  // measure 71
0000
1000
0000
0001
1001
0000
0000
1000
,  // measure 72
0000
0010
0100
0000
0001
0000
0100
0010
,  // measure 73
0000
1000
0001
0000
1001
0000
0000
0001
,  // measure 74
0000
0010
0100
0000
1000
0000
0100
0010
,  // measure 75
0000
0001
0000
1000
1001
0000
0000
0220
,  // measure 76
0000
0000
0000
0000
,  // measure 77
0000
0000
0000
0000
,  // measure 78
0000
0000
0000
0000
0000
0330
0000
2002
,  // measure 79
0000
3003
0000
0000
;
