#TITLE:FRIENDSHIP;
#SUBTITLE:;
#ARTIST:PON;
#TITLETRANSLIT:;
#SUBTITLETRANSLIT:;
#ARTISTTRANSLIT:;
#CREDIT:;
#BANNER:FRIENDSHIP.png;
#BACKGROUND:FRIENDSHIP-bg.png;
#JACKET:FRIENDSHIP-jacket.png
#LYRICSPATH:;
#CDTITLE:;
#MUSIC:FRIENDSHIP.mp3;
#OFFSET:-0.602;
#SAMPLESTART:43.940;
#SAMPLELENGTH:15.620;
#SELECTABLE:YES;
#BPMS:0.000=208.000;
#STOPS:;
#BGCHANGES:;

//---------------dance-single - ----------------
#NOTES:
     dance-single:
     :
     Hard:
     8:
     0.685,0.689,0.596,0.512,0.019: // measure 1
0000
0000
0000
0000
,  // measure 2
0000
0000
0000
0000
,  // measure 3
0000
0000
0000
0000
,  // measure 4
0000
0000
0000
0000
,  // measure 5
2001
0000
0010
0000
,  // measure 6
0000
0000
0010
0000
,  // measure 7
0000
0000
0001
0000
,  // measure 8
0000
0000
3000
0000
0001
1000
0000
0000
,  // measure 9
0102
0010
0100
1003
,  // measure 10
2100
0010
0100
3001
,  // measure 11
1002
0010
0100
1003
,  // measure 12
0001
0100
1000
0100
0001
1000
0000
0000
,  // measure 13
1001
0000
1000
1100
0000
0101
0000
2001
,  // measure 14
0000
0000
3100
0000
1000
0010
0100
0000
,  // measure 15
1001
0000
0001
0011
0000
1010
0000
2001
,  // measure 16
0000
0000
3010
0000
1000
1000
0001
0000
,  // measure 17
1000
0010
0100
0010
0001
0010
0100
0000
,  // measure 18
1000
0100
0010
0100
0001
0100
0010
0000
,  // measure 19
0001
0100
0010
1000
0010
0100
0001
0000
,  // measure 20
1000
0100
0010
0001
1000
1000
0001
0000
,  // measure 21
2100
0000
3001
0000
1000
0010
0100
0000
,  // measure 22
0102
0000
1003
0000
0001
0010
0100
0000
,  // measure 23
2000
0000
3010
0020
0000
0130
0200
0000
,  // measure 24
0001
0000
1300
0000
0100
0001
0000
0101
,  // measure 25
0000
1010
0000
0001
0000
1100
0000
1002
,  // measure 26
0000
0103
0000
2001
0000
3100
1000
0002
,  // measure 27
0000
0010
0010
0000
0100
0000
1003
1001
,  // measure 28
0000
0001
0100
0010
1000
1000
0001
0000
,  // measure 29
1001
0000
0001
0011
0000
1010
0000
1002
,  // measure 30
0000
0000
0013
0000
0001
0100
0010
0000
,  // measure 31
1001
0000
1000
1100
0000
0101
0000
1002
,  // measure 32
0000
0000
0103
0000
0001
0001
1000
0000
,  // measure 33
0001
0010
1000
0010
0001
1000
0001
0000
,  // measure 34
1000
0100
0001
0100
1000
0001
1000
0000
,  // measure 35
0001
0100
0010
2000
0000
3010
0000
0002
,  // measure 36
0000
0013
0000
1000
0100
0010
0001
0000
,  // measure 37
1000
0010
0100
0002
0000
0103
0000
2000
,  // measure 38
0000
3100
0000
0001
1000
0001
0010
0100
,  // measure 39
1000
0010
0001
0010
1000
0000
0001
0010
,  // measure 40
1000
0010
0001
0000
1000
1000
0001
0000
,  // measure 41
1000
0100
0001
0100
1000
0000
0001
0100
,  // measure 42
1000
0100
0001
0000
1000
1000
0001
0000
,  // measure 43
1000
0100
0010
0001
0010
0100
0000
0100
,  // measure 44
1000
0010
0100
0000
0001
0010
0100
0000
,  // measure 45
1100
0000
0000
0011
0000
0000
2001
0000
,  // measure 46
0000
0100
3100
0000
1000
0010
0100
0001
,  // measure 47
1000
0100
0010
0100
0001
0100
0010
0100
,  // measure 48
1000
0010
0001
0000
1000
0100
0001
1000
,  // measure 49
0001
0010
0100
2000
0000
0001
3001
0000
,  // measure 50
1000
0101
1010
0011
,  // measure 51
2100
0000
0010
0010
0000
0001
3001
0000
,  // measure 52
2100
3010
0102
0013
,  // measure 53
1002
0000
0010
0000
0103
0000
0001
0100
,  // measure 54
0020
0000
0130
0100
0002
0000
1003
0000
,  // measure 55
1001
0000
0000
0010
0100
0001
1000
0000
,  // measure 56
2100
0000
3001
0000
1000
0010
0100
0000
,  // measure 57
0102
0000
1003
0000
0001
0010
0100
0000
,  // measure 58
2000
0000
3010
0020
0000
0130
0200
0000
,  // measure 59
0001
0000
1300
0000
0100
0001
0000
0101
,  // measure 60
0000
1010
0000
0001
0000
1100
0000
1002
,  // measure 61
0000
0103
0000
2001
0000
3100
1000
0002
,  // measure 62
0000
0010
0010
0000
0100
0000
1003
1001
,  // measure 63
0000
0001
0100
0010
1000
1000
0001
0000
,  // measure 64
1001
0000
0001
0011
0000
1010
0000
1002
,  // measure 65
0000
0000
0013
0000
0001
0100
0010
0000
,  // measure 66
1001
0000
1000
1100
0000
0101
0000
1002
,  // measure 67
0000
0000
0103
0000
0001
0001
1000
0000
,  // measure 68
0001
0010
1000
0010
0001
1000
0001
0000
,  // measure 69
1000
0100
0001
0100
1000
0001
1000
0000
,  // measure 70
0001
0100
0010
1000
0001
0010
0100
2000
,  // measure 71
0000
0000
0000
0001
0000
0000
3001
0000
0000
0000
0000
0000
0100
0000
0010
0000
0100
0000
0010
0000
0100
0000
0010
0000
,  // measure 72
2000
0000
0000
0100
0000
0000
3010
0000
,  // measure 73
0002
0000
0000
0100
0000
0000
1003
0000
,  // measure 74
0000
0000
0000
0000
0000
0000
0000
2002
,  // measure 75
0000
0000
0000
3003
,  // measure 76
1000
0010
0100
0010
0001
0010
0100
0010
,  // measure 77
1000
0100
0001
0000
1000
0010
0001
1000
,  // measure 78
0001
0100
0010
2000
0000
0001
3002
0000
,  // measure 79
0103
1010
0011
1001
,  // measure 80
2010
0000
0100
0100
0000
0001
3001
0000
,  // measure 81
0102
0013
2100
3010
,  // measure 82
2002
0000
0000
0000
,  // measure 83
0000
0000
0000
0003
,  // measure 84
0200
0000
0000
0300
,  // measure 85
0020
0030
0002
3003
,  // measure 86
2002
0000
0000
0000
,  // measure 87
0000
0000
0000
0000
,  // measure 88
3003
0000
0000
0000
;

//---------------dance-single - ----------------
#NOTES:
     dance-single:
     :
     Easy:
     4:
     0.357,0.405,0.140,0.214,0.000: // measure 1
0000
0000
0000
0000
,  // measure 2
0000
0000
0000
0000
,  // measure 3
0000
0000
0000
0000
,  // measure 4
0000
0000
0000
0000
,  // measure 5
1002
0000
0010
0000
,  // measure 6
0000
0000
0010
0000
,  // measure 7
0000
0000
0100
0000
,  // measure 8
0000
0000
0103
0000
,  // measure 9
0001
0100
0001
0100
,  // measure 10
1000
0100
1000
0100
,  // measure 11
0010
0100
0010
0100
,  // measure 12
0001
1000
0001
0000
,  // measure 13
1000
0100
0010
0001
,  // measure 14
2000
0000
3001
0000
,  // measure 15
1000
0010
0100
0001
,  // measure 16
2000
0000
3001
0000
,  // measure 17
1000
1000
1000
1000
,  // measure 18
0001
0001
0001
0001
,  // measure 19
0010
0010
0010
0010
,  // measure 20
0100
0100
0100
0100
,  // measure 21
0002
0000
1003
0000
,  // measure 22
0200
0000
0310
0000
,  // measure 23
1001
0000
0100
0000
,  // measure 24
1001
0000
0010
0000
,  // measure 25
1000
0010
0100
0000
,  // measure 26
0001
0100
0010
0000
,  // measure 27
1000
0100
0010
0000
,  // measure 28
0001
0010
0100
0000
,  // measure 29
1000
0001
1000
0001
,  // measure 30
0200
0000
0310
0000
,  // measure 31
0001
1000
0001
1000
,  // measure 32
0020
0000
0130
0000
,  // measure 33
0001
0100
0001
0100
,  // measure 34
1000
0100
1000
0100
,  // measure 35
0010
0000
0110
0000
,  // measure 36
0100
0000
0101
0000
,  // measure 37
0001
0000
1001
0000
,  // measure 38
1000
0000
1100
0000
,  // measure 39
1000
0010
1000
0010
,  // measure 40
0100
0001
0100
0001
,  // measure 41
1000
0100
1000
0100
,  // measure 42
0010
0001
0010
0001
,  // measure 43
1000
0010
0100
0001
,  // measure 44
1000
0100
0010
0001
,  // measure 45
1000
0000
0000
0001
0000
0000
2002
0000
,  // measure 46
0000
0000
0000
3003
,  // measure 47
1000
0010
0100
0001
,  // measure 48
1000
0100
0010
0001
,  // measure 49
1000
0001
0100
0020
,  // measure 50
0000
0100
0100
0130
,  // measure 51
0001
0100
0001
0100
,  // measure 52
1000
0100
1000
0100
,  // measure 53
0010
0100
0010
0100
,  // measure 54
0001
1000
0001
1000
,  // measure 55
0110
0000
0000
0000
,  // measure 56
0002
0000
1003
0000
,  // measure 57
0200
0000
0310
0000
,  // measure 58
1001
0000
0100
0000
,  // measure 59
1001
0000
0010
0000
,  // measure 60
1000
0010
0100
0000
,  // measure 61
0001
0100
0010
0000
,  // measure 62
1000
0100
0010
0000
,  // measure 63
0001
0010
0100
0000
,  // measure 64
1000
0001
1000
0001
,  // measure 65
0200
0000
0310
0000
,  // measure 66
0001
1000
0001
1000
,  // measure 67
0020
0000
0130
0000
,  // measure 68
0001
0100
0001
0100
,  // measure 69
1000
0100
1000
0100
,  // measure 70
0010
0001
0100
0010
,  // measure 71
1000
0001
1000
0001
,  // measure 72
2002
0000
3003
0000
,  // measure 73
0220
0000
0330
0000
,  // measure 74
0000
0000
0000
0000
0000
0000
0000
2002
,  // measure 75
0000
0000
0000
3003
,  // measure 76
1000
0100
0010
0001
,  // measure 77
1000
0010
0100
0001
,  // measure 78
1000
0100
0001
0200
,  // measure 79
0000
0010
0010
0310
,  // measure 80
0100
1000
0010
1000
,  // measure 81
0100
0010
0001
0010
,  // measure 82
2002
0000
0000
0000
,  // measure 83
0000
0000
0000
0000
,  // measure 84
0000
0000
0000
0000
,  // measure 85
0000
0000
0000
0000
,  // measure 86
0000
0000
0000
0000
,  // measure 87
0000
0000
0000
0000
,  // measure 88
3003
0000
0000
0000
;

//---------------dance-single - ----------------
#NOTES:
     dance-single:
     :
     Medium:
     7:
     0.555,0.594,0.289,0.289,0.000: // measure 1
0000
0000
0000
0000
,  // measure 2
0000
0000
0000
0000
,  // measure 3
0000
0000
0000
0000
,  // measure 4
0000
0000
0000
0000
,  // measure 5
1002
0000
0100
0000
,  // measure 6
0000
0000
0100
0000
,  // measure 7
0000
0000
0010
0000
,  // measure 8
0000
0000
0003
0000
1000
0001
0000
0000
,  // measure 9
2100
0001
0001
3001
,  // measure 10
0102
1000
1000
1003
,  // measure 11
2001
0100
0010
3100
,  // measure 12
1000
0001
1000
0000
0010
0010
0000
0000
,  // measure 13
1000
0000
0010
0100
0000
0001
0000
2000
,  // measure 14
0000
0000
3001
0000
0100
0010
0100
0000
,  // measure 15
0001
0000
0010
0100
0000
1000
0000
0002
,  // measure 16
0000
0000
1003
0000
0010
0100
0010
0000
,  // measure 17
1000
0100
1000
0000
0100
1000
0100
0000
,  // measure 18
0010
0001
0010
0000
0001
0010
0001
0000
,  // measure 19
0100
0001
0100
0000
0001
0100
0001
0000
,  // measure 20
1000
0010
0100
0002
0000
1000
1003
0000
,  // measure 21
2010
0010
0001
3100
,  // measure 22
0012
0000
1003
0000
0010
0100
0010
0000
,  // measure 23
2000
0000
0000
0010
0000
0000
3001
0000
,  // measure 24
1000
0000
0010
0000
0100
0001
0100
0000
,  // measure 25
0001
1010
0001
1010
,  // measure 26
0002
0000
1003
0000
0010
0100
0010
0000
,  // measure 27
1000
0101
1000
0011
,  // measure 28
1000
0001
1000
0000
0010
0100
0010
0000
,  // measure 29
1000
0000
0010
0100
0000
0001
0000
2000
,  // measure 30
0000
0000
3001
0000
0100
0010
0100
0000
,  // measure 31
0001
0000
0010
0100
0000
1000
0000
0002
,  // measure 32
0000
0000
1003
0000
0010
0100
0010
0000
,  // measure 33
1000
0100
1000
0000
0001
0100
0001
0000
,  // measure 34
1000
0010
1000
0000
0001
0010
0001
0000
,  // measure 35
1000
0000
0010
0001
0000
0010
0000
1000
,  // measure 36
0000
0100
0000
0001
0100
0000
1000
0000
,  // measure 37
0001
0000
0100
1000
0000
0100
0000
0001
,  // measure 38
0000
0010
0000
1000
0010
0000
0001
0000
,  // measure 39
1000
0100
1000
0000
1000
0100
1000
0000
,  // measure 40
1000
0001
1000
0000
1000
0001
1000
0000
,  // measure 41
1000
0010
1000
0000
1000
0010
1000
0000
,  // measure 42
1000
0001
1000
0000
1000
0001
1000
0000
,  // measure 43
0001
0100
0001
0000
0001
1000
0001
0000
,  // measure 44
0001
0010
0001
0000
0001
1000
0001
0000
,  // measure 45
1100
0000
0000
0101
0000
0000
2002
0000
,  // measure 46
0000
0000
3003
0110
,  // measure 47
1000
0100
0010
0000
0100
0010
0001
0000
,  // measure 48
0010
0001
1000
0000
0001
1000
0100
0000
,  // measure 49
1000
0010
0100
0002
0000
1000
1003
0000
,  // measure 50
0000
0101
1100
1001
,  // measure 51
1000
0010
1000
0000
0010
0001
0010
0000
,  // measure 52
0001
0100
0001
0000
0100
1000
0100
0000
,  // measure 53
1000
0010
1000
0000
0001
0100
0001
0000
,  // measure 54
1000
0100
0010
0001
0010
0100
1000
0000
,  // measure 55
1001
0000
0000
0000
1000
0001
0100
0000
,  // measure 56
0102
0100
1000
0013
,  // measure 57
2100
0000
3001
0000
0100
0010
0100
0000
,  // measure 58
0002
0000
0000
0100
0000
0000
1003
0000
,  // measure 59
0001
0000
0100
0000
0010
1000
0010
0000
,  // measure 60
1000
0101
1000
0101
,  // measure 61
2000
0000
3001
0000
0100
0010
0100
0000
,  // measure 62
0001
1010
0001
1100
,  // measure 63
0001
1000
0001
0000
0100
0010
0100
0000
,  // measure 64
0001
0000
0100
0010
0000
1000
0000
0002
,  // measure 65
0000
0000
1003
0000
0010
0100
0010
0000
,  // measure 66
1000
0000
0100
0010
0000
0001
0000
2000
,  // measure 67
0000
0000
3001
0000
0100
0010
0100
0000
,  // measure 68
0001
0010
0001
0000
1000
0010
1000
0000
,  // measure 69
0001
0100
0001
0000
1000
0100
1000
0000
,  // measure 70
0001
0100
0010
0000
1000
0100
0010
0000
,  // measure 71
0001
0010
0100
1000
0010
0100
0001
0000
,  // measure 72
2020
0000
0000
3030
,  // measure 73
0202
0000
0000
0303
,  // measure 74
0000
0000
0000
0000
0000
0000
0000
2002
,  // measure 75
0000
0000
0000
3003
,  // measure 76
1000
0100
1000
0000
0001
0100
0001
0000
,  // measure 77
1000
0010
1000
0000
0001
0010
0001
0000
,  // measure 78
1000
0010
0100
0002
0000
1000
1003
0000
,  // measure 79
0101
0000
1100
0000
1001
0000
1000
0010
,  // measure 80
0001
0000
0001
0010
1000
0000
1000
0100
,  // measure 81
0001
0000
0001
0100
1000
0000
2002
0000
,  // measure 82
0000
0000
0000
0000
,  // measure 83
0000
0000
0000
0000
,  // measure 84
0000
0000
0000
0000
,  // measure 85
0000
0000
0000
0000
,  // measure 86
3003
0000
0000
0000
;
