#TITLE:FANTASTIC BABY;
#SUBTITLE:;
#ARTIST:BIGBANG;
#TITLETRANSLIT:;
#SUBTITLETRANSLIT:;
#ARTISTTRANSLIT:;
#GENRE:;
#CREDIT:;
#BANNER:FANTASTIC BABY.png;
#BACKGROUND:FANTASTIC BABY-bg.png;
#LYRICSPATH:;
#CDTITLE:;
#MUSIC:FANTASTIC BABY.mp3;
#OFFSET:-0.087;
#SAMPLESTART:84.994;
#SAMPLELENGTH:15.000;
#SELECTABLE:YES;
#BPMS:0.000=130.000
;
#STOPS:39.875=1.846,
179.875=1.846
;
#BGCHANGES:;
#KEYSOUNDS:;
#ATTACKS:;

//---------------dance-single - Blank----------------
#NOTES:
     dance-single:
     :
     Hard:
     7:
     0.515,0.436,0.401,0.359,0.038,333.000,47.000,42.000,0.000,0.000,0.000,0.515,0.436,0.401,0.359,0.038,333.000,47.000,42.000,0.000,0.000,0.000:
0000
0000
0000
0000
,
0000
0000
0000
0000
,
0000
0000
0000
0000
,
0000
0000
0000
0000
,
1000
0010
0100
0001
2000
0000
3010
0100
,
0002
0000
1000
1003
1000
0001
0010
0001
,
0000
0010
0100
0010
0000
0100
1000
0200
,
0000
2300
0000
3002
0000
0203
0000
0300
,
0001
0000
0010
0100
2000
0000
3001
0000
,
1000
0000
0010
0100
0002
0000
1003
0000
,
0102
0000
1003
0000
0001
0010
0100
1000
,
0002
0000
1003
0000
0001
0100
0010
1000
,
1010
0000
0101
0000
0012
0000
1000
1003
,
0100
0000
1000
0010
0100
0100
0001
0001
,
2010
0000
3001
0000
1000
0100
0010
0001
,
2000
0000
3001
0000
1000
0010
0100
0001
,
0101
0000
1010
0000
2100
0000
0001
3001
,
1000
0001
1000
0001
1000
0000
0000
0000
0000
0000
0000
0000
0110
0000
0000
0000
,
1000
0010
0100
0001
1000
1000
0001
0000
,
1000
0100
0010
0001
1000
1000
0001
0000
,
0100
0001
0010
0001
1000
1000
0100
0100
,
1000
0010
0001
0010
1000
1000
0001
0000
,
1000
0001
1000
0100
0020
0000
0130
0000
,
1000
0001
1000
0010
0200
0000
0310
0000
,
1000
0001
0100
0001
0010
0010
0100
0000
,
2000
0000
3010
0010
0200
0000
0302
1003
,
0001
0100
0010
1000
0010
0100
0001
1000
,
1100
0000
0110
0000
0012
0000
1003
0001
,
1000
0010
0100
0001
0100
0010
1000
0001
,
0011
0000
0110
0000
2100
0000
3001
1000
,
1100
0000
0101
0000
1001
0000
0001
1000
,
1010
0000
0011
0000
1001
0000
0110
0100
,
0001
0010
1000
0010
0001
0100
1000
0100
,
0101
1010
2001
3100
,
1010
0000
0101
0000
1000
0100
0010
0002
,
0000
1000
1003
0000
0001
0100
0010
2000
,
0000
0001
3001
0000
1000
0100
0001
0200
,
0000
0320
0000
0032
0000
1000
1003
0000
,
0101
0000
1010
0000
0001
0010
0100
2000
,
0000
3001
0000
0001
1000
0010
0100
0002
,
0000
2003
0000
3000
0001
0010
0100
2000
,
0000
3020
0000
0130
0000
0001
1000
0001
,
1000
0000
0000
1000
0000
0000
0010
0000
0001
0000
0000
0001
0000
0000
0010
0000
,
1000
0000
0000
0100
0000
0010
0000
0000
0001
0000
1000
0000
0001
0000
0000
0000
,
1000
0000
0000
0010
0000
0100
0000
0002
2000
0000
0000
0000
3003
0000
0000
0000
,
0102
0000
1003
0000
0001
0010
0100
1000
,
0002
0000
1003
0000
0001
0100
0010
1000
,
1010
0000
0101
0000
0012
0000
1000
1003
,
0100
0000
1000
0010
0100
0100
0001
0001
,
2010
0000
3001
0000
1000
0100
0010
0001
,
2000
0000
3001
0000
1000
0010
0100
0001
,
0101
0000
1010
0000
2100
0000
0001
3001
,
0020
0000
0031
1000
0010
0010
0100
0100
,
0101
0000
0100
0100
0010
0010
1000
0000
,
1100
0000
0100
0100
0010
0010
0001
0000
,
1001
0000
1000
1000
0010
0010
0100
0000
,
0101
0000
1100
0000
1002
0000
0103
0100
,
1010
0000
0010
0010
0100
0100
0001
0000
,
0011
0000
0010
0010
0100
0100
1000
0000
,
1001
0000
0001
0001
0100
0100
0010
0000
,
1001
0000
0000
0000
;

//---------------dance-single - Blank----------------
#NOTES:
     dance-single:
     :
     Easy:
     3:
     0.255,0.256,0.017,0.068,0.000,199.000,2.000,8.000,0.000,0.000,0.000,0.255,0.256,0.017,0.068,0.000,199.000,2.000,8.000,0.000,0.000,0.000:
0000
0000
0000
0000
,
0000
0000
0000
0000
,
0000
0000
0000
0000
,
0000
0000
0000
0000
,
1000
0010
1000
0010
,
0100
0001
0100
0001
,
1000
0100
1000
0100
,
0010
0001
0010
0001
,
2000
3000
0002
0003
,
0200
0300
0020
0030
,
1000
0001
0100
0100
,
0001
1000
0100
0100
,
1000
0010
0001
0010
,
1000
0000
0001
0001
,
1000
0001
0010
0010
,
0001
1000
0010
0010
,
1000
0100
0001
0100
,
1000
0000
0001
0001
,
1000
0010
0100
0000
,
0001
0100
0010
0000
,
1000
0100
0010
0001
,
0010
0100
1000
0000
,
0001
0100
0010
0000
,
1000
0010
0100
0000
,
0001
0010
0100
1000
,
0002
0003
2000
3000
,
0001
0100
1000
0100
,
0010
0010
0010
0000
,
1000
0100
0001
0100
,
0010
0010
0010
0000
,
0001
0010
0100
0000
,
1000
0010
0100
0000
,
0001
0100
1000
0100
,
0001
0001
1000
0000
,
0001
0010
0001
0010
,
0100
1000
0100
1000
,
0001
0100
0001
0100
,
0010
1000
0001
0001
,
1000
0100
1000
0100
,
0010
0001
0010
0001
,
1000
0010
1000
0010
,
0100
0001
0100
0001
,
1000
1000
0100
0100
,
0010
0010
0001
0001
,
1000
0001
2002
3003
,
1000
0001
0100
0100
,
0001
1000
0100
0100
,
1000
0010
0001
0010
,
1000
0000
0001
0001
,
1000
0001
0010
0010
,
0001
1000
0010
0010
,
1000
0100
0001
0100
,
1000
0000
0001
0001
,
1000
1000
0010
0000
,
0100
0100
0001
0000
,
1000
1000
0100
0000
,
0010
0010
0001
0001
,
1000
1000
0010
0000
,
0100
0100
0001
0000
,
1000
0100
0010
0001
,
1001
0000
0000
0000
;

//---------------dance-single - Blank----------------
#NOTES:
     dance-single:
     :
     Medium:
     5:
     0.427,0.410,0.530,0.248,0.000,259.000,62.000,29.000,0.000,0.000,0.000,0.427,0.410,0.530,0.248,0.000,259.000,62.000,29.000,0.000,0.000,0.000: // measure 0
0000
0000
0000
0000
,  // measure 1
0000
0000
0000
0000
,  // measure 2
0000
0000
0000
0000
,  // measure 3
0000
0000
0000
0000
,  // measure 4
1000
0000
0010
0000
0100
0001
0100
0000
,  // measure 5
0010
0000
1000
0000
0001
1000
0001
0000
,  // measure 6
1000
0000
0100
0000
0010
0001
0010
0000
,  // measure 7
0100
0000
1000
0000
0001
1000
0001
0000
,  // measure 8
2000
0010
0100
3100
,  // measure 9
0002
0010
0100
0103
,  // measure 10
1002
0000
0103
0000
0001
0010
0001
0000
,  // measure 11
0200
0000
0310
0000
1000
0001
1000
0000
,  // measure 12
1100
1100
0101
0101
,  // measure 13
2000
0000
3001
0000
1000
0010
0100
0000
,  // measure 14
2001
0000
3010
0000
1000
0100
1000
0000
,  // measure 15
0020
0000
0130
0000
0001
1000
0001
0000
,  // measure 16
0011
0011
1010
1010
,  // measure 17
0001
1000
0001
0000
0000
0000
0110
0000
,  // measure 18
1000
0000
0100
0000
1000
0001
1000
0000
,  // measure 19
0001
0000
0100
0000
0001
1000
0001
0000
,  // measure 20
1000
0000
0001
0000
1000
0010
1000
0000
,  // measure 21
0001
0010
0001
0000
1000
0001
1000
0000
,  // measure 22
0001
0100
0010
0000
2000
0000
3001
0000
,  // measure 23
1000
0100
0010
0000
0002
0000
1003
0000
,  // measure 24
0001
0100
0010
0000
1000
0010
0100
0000
,  // measure 25
0101
1100
2002
3003
,  // measure 26
1000
0010
0100
0000
0001
0100
0010
0000
,  // measure 27
1010
0101
2001
3100
,  // measure 28
1000
0100
0010
0000
0001
0010
0100
0000
,  // measure 29
1100
0011
1002
0103
,  // measure 30
0101
0101
2100
3001
,  // measure 31
0011
0011
2010
3001
,  // measure 32
1000
0010
0100
0001
0100
0010
1000
0001
,  // measure 33
1000
1100
0202
0303
,  // measure 34
1000
1000
0010
0010
,  // measure 35
0001
0001
0010
0010
,  // measure 36
1000
1000
0100
0100
,  // measure 37
0001
0000
0001
0000
0100
1000
0001
0000
,  // measure 38
1000
1000
0010
0010
,  // measure 39
0001
0001
0010
0010
,  // measure 40
1000
1000
0100
0100
,  // measure 41
0001
0000
0001
0000
0100
1000
0001
1000
,  // measure 42
0010
0010
0100
0100
,  // measure 43
0001
0001
1000
1000
,  // measure 44
0010
0100
0001
1000
0002
0000
0003
0000
,  // measure 45
1002
0000
0103
0000
0001
0010
0001
0000
,  // measure 46
0200
0000
0310
0000
1000
0001
1000
0000
,  // measure 47
1100
1100
0101
0101
,  // measure 48
2000
0000
3001
0000
1000
0010
0100
0000
,  // measure 49
2001
0000
3010
0000
1000
0100
1000
0000
,  // measure 50
0020
0000
0130
0000
0001
1000
0001
0000
,  // measure 51
0011
0011
1010
1010
,  // measure 52
0002
0000
1003
0000
0010
0100
0001
0000
,  // measure 53
0011
0110
2100
3001
,  // measure 54
1010
0110
0102
1003
,  // measure 55
1001
0110
2001
3100
,  // measure 56
1010
1010
0011
0011
,  // measure 57
1100
0101
0210
0301
,  // measure 58
0011
1010
0210
1300
,  // measure 59
1010
0101
0011
1100
,  // measure 60
1001
0000
0000
0000
;
