#VERSION:0.81;
#TITLE:Everything Is AWESOME!!!;
#SUBTITLE:;
#ARTIST:Tegan and Sera feat. The Lonely Island;
#TITLETRANSLIT:;
#SUBTITLETRANSLIT:;
#ARTISTTRANSLIT:;
#GENRE:;
#ORIGIN:;
#CREDIT:;
#BANNER:Everything Is AWESOME!!!.png;
#BACKGROUND:Everything Is AWESOME!!!-bg.png;
#PREVIEWVID:;
#JACKET:Everything Is AWESOME!!!-jacket.png;
#CDIMAGE:;
#DISCIMAGE:;
#LYRICSPATH:;
#CDTITLE:;
#MUSIC:Everything Is AWESOME!!!.mp3;
#OFFSET:-0.972;
#SAMPLESTART:32.540;
#SAMPLELENGTH:16.380;
#SELECTABLE:YES;
#BPMS:0.000=148.000;
#STOPS:;
#DELAYS:;
#WARPS:;
#TIMESIGNATURES:0.000=4=4;
#TICKCOUNTS:0.000=4;
#COMBOS:0.000=1;
#SPEEDS:0.000=1.000=0.000=0;
#SCROLLS:0.000=1.000;
#FAKES:;
#LABELS:0.000=Song Start;
#BGCHANGES:;
#KEYSOUNDS:;
#ATTACKS:
;

//---------------dance-single - ----------------
#NOTEDATA:;
#CHARTNAME:;
#STEPSTYPE:dance-single;
#DESCRIPTION:;
#CHARTSTYLE:;
#DIFFICULTY:Hard;
#METER:7;
#RADARVALUES:0.557,0.484,0.208,0.307,0.000,341.000,21.000,31.000,0.000,0.000,0.000,0.000,0.000,0.557,0.484,0.208,0.307,0.000,341.000,21.000,31.000,0.000,0.000,0.000,0.000,0.000;
#CREDIT:;
#NOTES:
// measure 0
0000
0000
0000
0000
,  // measure 1
0000
0000
0000
0000
,  // measure 2
0000
0000
0000
0000
,  // measure 3
0000
0000
0000
0000
1000
0100
0010
0001
,  // measure 4
1000
1000
0010
0000
0001
0001
0010
0000
,  // measure 5
1000
0010
0100
0001
1000
0100
0010
0001
,  // measure 6
2000
3100
0002
0103
,  // measure 7
2000
3010
0002
0013
,  // measure 8
1000
0010
0100
0002
0000
1003
0000
1001
,  // measure 9
0000
1100
0000
1000
0000
0001
0000
1001
,  // measure 10
0000
0101
0000
0110
0000
0010
1000
0001
,  // measure 11
2000
3100
0002
0103
,  // measure 12
1000
0001
0100
0001
0000
1000
0100
1000
,  // measure 13
0000
0001
1000
0001
0000
1000
0000
2010
,  // measure 14
0000
3001
0000
1000
0100
0010
0001
0200
,  // measure 15
0000
0010
0310
0000
1000
1000
0001
0001
,  // measure 16
1000
0001
0100
0001
0000
0100
1000
0100
,  // measure 17
0000
1000
0010
1000
0000
0010
0001
0010
,  // measure 18
0000
0001
0100
0002
0000
0203
0000
0310
,  // measure 19
1000
1000
0001
0001
1000
0010
0100
0001
,  // measure 20
1000
1000
0010
0000
0001
0001
0010
0000
,  // measure 21
1000
1000
0001
0000
1000
0100
0010
0001
,  // measure 22
2000
0000
3010
0100
0001
0010
1000
0010
,  // measure 23
0002
0000
1003
0000
0001
0010
0100
1000
,  // measure 24
0001
0001
0100
0000
1000
1000
0100
0000
,  // measure 25
0001
0100
0010
1000
0001
0010
0100
1000
,  // measure 26
0002
0013
2000
3010
,  // measure 27
0101
1010
1100
0011
,  // measure 28
0001
0100
0010
0000
1000
0010
0100
0000
,  // measure 29
0001
0010
0100
1000
0100
0010
0001
0000
,  // measure 30
1000
0010
0100
0000
0001
0100
0010
0000
,  // measure 31
1000
0100
0010
0001
0010
0100
1000
0000
,  // measure 32
0001
0100
0010
1000
0010
0010
0100
0000
,  // measure 33
0001
0010
0100
1000
0100
0100
0010
0000
,  // measure 34
0001
0100
0010
1000
0001
0001
0100
0000
,  // measure 35
0001
0001
1000
0000
0100
0100
0010
0000
,  // measure 36
0001
0100
0010
1000
0010
0100
0101
0000
,  // measure 37
0001
0010
0100
1000
0100
0010
0011
0000
,  // measure 38
2010
3100
0012
0103
,  // measure 39
1000
1000
0010
0010
0100
0100
0001
0001
,  // measure 40
1000
0010
0100
0002
0000
1003
0000
1001
,  // measure 41
0000
1100
0000
1000
0000
0001
0000
1001
,  // measure 42
0000
0101
0000
0110
0000
0010
1000
0001
,  // measure 43
2000
3100
0002
0103
,  // measure 44
1000
0001
0100
0001
0000
1000
0100
1000
,  // measure 45
0000
0001
1000
0001
0000
1000
0000
2010
,  // measure 46
0000
3001
0000
1000
0100
0010
0001
0200
,  // measure 47
0000
0010
0310
0000
1000
1000
0001
0001
,  // measure 48
1000
0001
0100
0001
0000
0100
1000
0100
,  // measure 49
0000
1000
0010
1000
0000
0010
0001
0010
,  // measure 50
0000
0001
0100
0002
0000
0203
0000
0310
,  // measure 51
1000
1000
0001
0001
1000
0100
0010
0001
,  // measure 52
2000
0000
3000
0000
0001
0100
0010
1000
,  // measure 53
0001
0001
0100
0000
1000
1000
0100
0000
,  // measure 54
0001
0001
1000
0000
0001
0010
0100
1000
,  // measure 55
0002
0000
0103
0010
1000
0100
0001
0100
,  // measure 56
2000
0000
3001
0000
1000
0100
0010
0001
,  // measure 57
1000
1000
0010
0000
0001
0001
0010
0000
,  // measure 58
1000
0010
0100
0001
1000
0100
0010
0001
,  // measure 59
2000
3100
0002
0103
,  // measure 60
2002
0000
0000
0000
,  // measure 61
3003
0000
0000
0000
;

//---------------dance-single - Blank----------------
#NOTEDATA:;
#CHARTNAME:;
#STEPSTYPE:dance-single;
#DESCRIPTION:Blank;
#CHARTSTYLE:;
#DIFFICULTY:Easy;
#METER:3;
#RADARVALUES:0.229,0.238,0.000,0.000,0.000,162.000,0.000,0.000,0.000,0.000,0.000,0.000,0.000,0.229,0.238,0.000,0.000,0.000,162.000,0.000,0.000,0.000,0.000,0.000,0.000,0.000;
#CREDIT:;
#NOTES:
// measure 0
0000
0000
0000
0000
,  // measure 1
0000
0000
0000
0000
,  // measure 2
0000
0000
0000
0000
,  // measure 3
0000
0000
0000
0000
,  // measure 4
1000
0000
0010
0000
,  // measure 5
0100
0000
0001
0000
,  // measure 6
1000
0000
0100
0000
,  // measure 7
0010
0000
0001
0000
,  // measure 8
1000
0100
1000
0000
,  // measure 9
0010
0000
0100
0000
,  // measure 10
0001
0100
0001
0000
,  // measure 11
0010
0000
0100
0000
,  // measure 12
1000
0010
1000
0000
,  // measure 13
0010
0000
0100
0000
,  // measure 14
0001
0010
0001
0000
,  // measure 15
0010
0000
0100
0000
,  // measure 16
1000
0001
0010
0000
,  // measure 17
0001
1000
0010
0000
,  // measure 18
1000
0001
0100
0000
,  // measure 19
0001
1000
0100
0100
,  // measure 20
1000
0010
0100
0000
,  // measure 21
0001
0100
0010
0000
,  // measure 22
1000
0100
0010
0000
,  // measure 23
0001
0010
0100
0000
,  // measure 24
1000
0001
0010
0000
,  // measure 25
0001
1000
0010
0000
,  // measure 26
1000
0001
0100
0000
,  // measure 27
0001
0001
1000
1000
,  // measure 28
0001
0000
0010
0000
,  // measure 29
0100
1000
0001
1000
,  // measure 30
0010
0000
0100
0000
,  // measure 31
0001
0010
0001
1000
,  // measure 32
0001
0000
0100
0000
,  // measure 33
0010
1000
0001
1000
,  // measure 34
0100
0000
0010
0000
,  // measure 35
0001
0001
1000
1000
,  // measure 36
0001
0100
0010
1000
,  // measure 37
0001
0010
0100
1000
,  // measure 38
0001
0001
1000
1000
,  // measure 39
0001
0001
0100
0100
,  // measure 40
1000
0100
1000
0000
,  // measure 41
0010
0000
0100
0000
,  // measure 42
0001
0100
0001
0000
,  // measure 43
0010
0000
0100
0000
,  // measure 44
1000
0010
1000
0000
,  // measure 45
0010
0000
0100
0000
,  // measure 46
0001
0010
0001
0000
,  // measure 47
0010
0000
0100
0000
,  // measure 48
1000
0001
0010
0000
,  // measure 49
0001
1000
0010
0000
,  // measure 50
1000
0001
0100
0000
,  // measure 51
0001
1000
0100
0100
,  // measure 52
0000
0000
0000
0000
,  // measure 53
1000
0010
0100
0000
,  // measure 54
0001
0100
0010
0000
,  // measure 55
1000
0100
0010
0000
,  // measure 56
0001
0010
0100
0000
,  // measure 57
1000
0001
0010
0000
,  // measure 58
0001
1000
0010
0000
,  // measure 59
1000
0100
0010
0001
,  // measure 60
1000
0000
0000
0000
;

//---------------dance-single - Blank----------------
#NOTEDATA:;
#CHARTNAME:;
#STEPSTYPE:dance-single;
#DESCRIPTION:Blank;
#CHARTSTYLE:;
#DIFFICULTY:Medium;
#METER:6;
#RADARVALUES:0.411,0.423,0.317,0.010,0.000,257.000,32.000,1.000,0.000,0.000,0.000,0.000,0.000,0.411,0.423,0.317,0.010,0.000,257.000,32.000,1.000,0.000,0.000,0.000,0.000,0.000;
#CREDIT:;
#NOTES:
// measure 0
0000
0000
0000
0000
,  // measure 1
0000
0000
0000
0000
,  // measure 2
0000
0000
0000
0000
,  // measure 3
0000
0000
0000
0000
,  // measure 4
1000
0100
0001
0100
,  // measure 5
1000
0010
0001
0010
,  // measure 6
1000
1000
0010
0010
,  // measure 7
0100
0100
0001
0001
,  // measure 8
1000
0001
1000
0000
0010
0000
0100
0000
,  // measure 9
0001
0010
0100
1000
,  // measure 10
0001
1000
0001
0000
0100
0000
0010
0000
,  // measure 11
1000
0100
0010
0001
,  // measure 12
1000
0010
1000
0000
0010
0000
0100
0000
,  // measure 13
0001
0100
0010
1000
,  // measure 14
0001
0010
0001
0000
0010
0000
0100
0000
,  // measure 15
1000
0100
0010
0001
,  // measure 16
1000
1000
0010
0010
,  // measure 17
0001
0001
0100
0100
,  // measure 18
1000
0010
0100
0000
0001
0100
0010
0000
,  // measure 19
1000
0100
0010
0000
0001
0010
0100
0000
,  // measure 20
1000
1010
1000
1010
,  // measure 21
0001
0011
0001
0011
,  // measure 22
1000
1100
1000
1100
,  // measure 23
0001
0101
0001
0101
,  // measure 24
0010
1001
0010
1001
,  // measure 25
0100
1001
0100
1001
,  // measure 26
1000
0010
0100
0000
0001
0010
0100
0000
,  // measure 27
1100
1100
0101
0101
,  // measure 28
1000
0010
1000
0000
0010
0000
0100
0000
,  // measure 29
0001
0010
0001
0000
0010
0000
0100
0000
,  // measure 30
1000
0100
1000
0000
0100
0000
0010
0000
,  // measure 31
0001
0100
0001
0000
0100
0000
0010
0000
,  // measure 32
1000
0001
0100
0000
0001
0000
1000
0000
,  // measure 33
0100
1000
0001
0000
0100
0000
0001
0000
,  // measure 34
1000
0001
0010
0000
0001
0000
1000
0000
,  // measure 35
0100
0100
0100
0000
0010
0010
0010
0000
,  // measure 36
0001
1000
0100
0000
1100
0000
0101
0000
,  // measure 37
1000
0001
0100
0000
0101
0000
1100
0000
,  // measure 38
0010
0010
0100
0100
,  // measure 39
0001
0000
0001
0000
1000
0100
0010
0001
,  // measure 40
1000
0001
1000
0000
0010
0000
0100
0000
,  // measure 41
0001
0010
0100
1000
,  // measure 42
0001
1000
0001
0000
0100
0000
0010
0000
,  // measure 43
1000
0100
0010
0001
,  // measure 44
1000
0010
1000
0000
0010
0000
0100
0000
,  // measure 45
0001
0100
0010
1000
,  // measure 46
0001
0010
0001
0000
0010
0000
0100
0000
,  // measure 47
1000
0100
0010
0001
,  // measure 48
1000
1000
0010
0010
,  // measure 49
0001
0001
0100
0100
,  // measure 50
1000
0010
0100
0000
0001
0100
0010
0000
,  // measure 51
1000
0100
0010
0000
0001
0010
0100
1000
,  // measure 52
0000
0000
0000
0000
,  // measure 53
0010
0101
0010
0101
,  // measure 54
0010
1100
0010
1100
,  // measure 55
0100
0011
0100
0011
,  // measure 56
0100
1010
0100
1010
,  // measure 57
0010
1001
0010
1001
,  // measure 58
0100
1001
0100
1001
,  // measure 59
1000
0010
0100
0001
0100
0010
1000
0001
,  // measure 60
2000
0000
0000
0000
,  // measure 61
3000
0000
0000
0000
;
