#VERSION:0.81;
#TITLE:Evans;
#SUBTITLE:;
#ARTIST:DJ YOSHITAKA;
#TITLETRANSLIT:;
#SUBTITLETRANSLIT:;
#ARTISTTRANSLIT:;
#GENRE:;
#ORIGIN:;
#CREDIT:;
#BANNER:Evans.png;
#BACKGROUND:Evans-bg.png;
#PREVIEWVID:;
#JACKET:Evans-jacket.png;
#CDIMAGE:;
#DISCIMAGE:;
#LYRICSPATH:;
#CDTITLE:;
#MUSIC:Evans.mp3;
#OFFSET:-0.065;
#SAMPLESTART:61.010;
#SAMPLELENGTH:10.378;
#SELECTABLE:YES;
#DISPLAYBPM:93.000:185.000;
#BPMS:0.000=185.000,
68.000=92.500,
72.000=185.000,
176.000=92.500,
178.000=185.000,
246.000=370.000,
247.000=185.000;
#STOPS:246.000=0.162,
277.750=0.324;
#DELAYS:;
#WARPS:;
#TIMESIGNATURES:0.000=4=4;
#TICKCOUNTS:0.000=4;
#COMBOS:0.000=1;
#SPEEDS:0.000=1.000=0.000=0;
#SCROLLS:0.000=1.000;
#FAKES:;
#LABELS:0.000=Song Start;
#BGCHANGES:;
#KEYSOUNDS:;
#ATTACKS:
;

//---------------dance-single - ----------------
#NOTEDATA:;
#CHARTNAME:;
#STEPSTYPE:dance-single;
#DESCRIPTION:;
#CHARTSTYLE:;
#DIFFICULTY:Hard;
#METER:9;
#RADARVALUES:0.747,0.775,0.699,0.261,0.368,458.000,75.000,28.000,0.000,0.000,0.000,0.000,0.000,0.747,0.775,0.699,0.261,0.368,458.000,75.000,28.000,0.000,0.000,0.000,0.000,0.000;
#CREDIT:Riakodoadm;
#DISPLAYBPM:93.000:185.000;
#NOTES:
// measure 0
0000
0000
0000
0000
,  // measure 1
1000
0100
0010
0002
0000
0000
0003
0000
,  // measure 2
0000
1001
0000
0000
1100
0000
0101
0000
,  // measure 3
1001
0010
0100
0002
0000
0000
0000
0000
,  // measure 4
1000
0000
0000
0000
1003
0000
0000
0000
0001
0100
0001
0100
0001
0000
1000
0000
,  // measure 5
0001
2010
3001
1000
,  // measure 6
0001
1001
0000
0000
1100
0000
0101
0000
,  // measure 7
2010
3100
0012
0103
,  // measure 8
0001
0000
0100
0000
1000
0000
0100
0000
0010
0000
0000
0010
0000
0000
1000
0000
,  // measure 9
0001
0102
0100
0010
,  // measure 10
0100
0000
1000
0000
0100
0100
0103
0000
,  // measure 11
2000
0100
0010
3001
,  // measure 12
1100
1100
0000
0000
0011
0000
0101
0000
,  // measure 13
1010
0000
0102
0000
1003
0000
0001
1000
,  // measure 14
2100
0000
0100
0000
3001
0000
1000
0001
,  // measure 15
0011
0001
0100
0000
1010
1000
0100
0000
,  // measure 16
1000
0100
0001
0100
1000
0010
0001
0010
,  // measure 17
2002
0000
0000
0000
0000
0000
0000
3003
,  // measure 18
1000
0000
0000
0010
0000
0000
0100
0000
0000
0001
0000
0000
0100
0000
0010
0000
,  // measure 19
1000
0000
0000
0100
0000
0000
0010
0000
0000
0001
0000
0000
0010
0000
0100
0000
,  // measure 20
1000
0000
0000
0010
0000
0000
0001
0000
0000
0010
0000
0000
0100
0000
0001
0000
,  // measure 21
1000
0000
0000
0100
0000
0000
0001
0000
0000
0100
0000
0000
0010
0000
0001
0000
,  // measure 22
1000
0000
0000
0010
0000
0000
0100
0000
0000
1000
0000
0000
0100
0000
0010
0000
,  // measure 23
1000
0000
0000
0100
0000
0000
0001
0000
0000
0100
0000
0000
0010
0000
0001
0000
,  // measure 24
1000
0000
0000
0010
0000
0000
0100
0000
0000
0001
0000
0000
0010
0000
1000
0000
,  // measure 25
0010
0000
0000
0100
0000
0000
1000
0000
0000
0010
0000
0000
0100
0000
0001
0000
,  // measure 26
1000
1100
1000
1001
,  // measure 27
1000
1010
1000
1001
,  // measure 28
0001
0011
0001
0101
,  // measure 29
0001
1001
0001
0011
,  // measure 30
0001
0100
0010
1000
0010
0100
0001
1000
,  // measure 31
0001
0010
0100
1000
0100
0010
0001
1000
,  // measure 32
0001
0100
1000
0100
0001
0010
1000
0010
,  // measure 33
0001
0100
1000
0010
0001
1000
0001
1000
,  // measure 34
0102
0000
0000
0000
0010
0000
0000
0000
0100
0000
0000
0000
1003
0000
1000
0001
,  // measure 35
2000
0000
0000
0000
0010
0000
0000
0000
0100
0000
0000
0000
3001
0000
0001
1000
,  // measure 36
0001
0000
0000
0000
0102
0000
0000
0000
0010
0000
0000
0000
1003
0000
1000
0001
,  // measure 37
2000
0000
0000
0000
0010
0000
0000
0000
3100
0000
0000
0000
1000
0001
1000
0001
,  // measure 38
1000
0000
0100
0001
0100
0000
0001
0010
,  // measure 39
0001
0000
0010
1000
0010
0000
1000
0100
,  // measure 40
0011
0011
1100
1100
,  // measure 41
0101
0101
1010
1010
,  // measure 42
0001
0100
0010
1000
0001
0010
0100
1000
,  // measure 43
0001
0000
0001
0000
0001
0000
0001
0000
1000
0001
1000
0001
1000
0001
1000
0001
,  // measure 44
0020
0000
0000
0000
0000
0000
0000
0000
0130
0000
1000
0000
0001
0000
0000
0100
,  // measure 45
0000
0000
0010
0000
1001
0000
0000
0000
0110
0000
0000
0010
0000
0000
1000
0000
,  // measure 46
0000
0100
0000
0000
0001
0000
0100
0000
0010
0000
0000
0001
0000
0000
1000
0000
,  // measure 47
0000
0010
0000
0000
0001
0000
0010
0000
0100
0000
0000
0001
0000
0000
0010
0000
,  // measure 48
0000
0100
0000
0000
0001
0000
0100
0000
2100
0000
0000
0000
3001
0000
0000
0000
,  // measure 49
1010
0000
0000
0011
0000
0000
1000
0000
0001
0000
0000
0000
1001
0000
1000
0000
,  // measure 50
0000
0001
0000
0000
0010
0000
1000
0000
0010
0000
0000
0001
0000
0000
0100
0000
,  // measure 51
0000
0010
0000
0000
0001
0000
0010
0000
1000
0000
0000
0100
0000
0000
0010
0000
,  // measure 52
0000
0001
0000
0000
0100
0000
0010
0000
1000
0001
1000
0001
1000
0000
0002
0000
,  // measure 53
0000
0000
0100
0000
0100
0000
0103
0000
0001
0000
0000
0010
0000
0000
1000
0000
,  // measure 54
0000
0010
0000
0000
0100
0000
1000
0000
0010
0000
0000
0001
0000
0000
0010
0000
,  // measure 55
0000
0100
0000
0000
0001
0000
0010
0000
0100
0000
0000
0010
0000
0000
0001
0000
,  // measure 56
0000
0100
0000
0000
0010
0000
1000
0000
1100
0000
0000
0000
0101
0000
0000
0000
,  // measure 57
1010
0000
0000
0101
0000
0000
0001
0000
1001
0000
0000
0001
0000
0000
0100
0000
,  // measure 58
0000
1000
0000
0000
0100
0000
0001
0000
1001
0000
0000
1000
0000
0000
0100
0000
,  // measure 59
0000
0001
0000
0000
0100
0000
1000
0000
1001
0000
0001
0000
0100
0000
0001
0000
,  // measure 60
1001
0000
1000
0000
0100
0000
1000
0000
0001
0100
0010
1000
0001
0000
2000
0000
,  // measure 61
0000
0010
0010
3010
1001
0000
0102
0100
,  // measure 62
1000
0013
0001
1010
,  // measure 63
0101
0011
2100
3001
,  // measure 64
0102
0000
1003
0001
1100
0000
0101
0000
,  // measure 65
1010
0000
0000
1010
0000
0000
0011
0000
0012
0000
0000
0000
1000
0000
1000
0000
,  // measure 66
1003
0101
2100
0010
,  // measure 67
3100
1100
0012
0103
,  // measure 68
2010
0000
0000
0000
3100
0000
0000
0000
1000
0001
1000
0001
1000
0000
0010
0100
,  // measure 69
0000
0010
0100
0000
0001
0000
1000
0000
1001
0000
0001
0000
0000
0100
0000
0000
,  // measure 70
1000
0000
0100
0000
0010
0000
0000
1000
0000
0000
0100
0000
0000
0001
0000
0000
,  // measure 71
0100
0000
0010
0000
0001
0000
0000
1000
0000
0000
0010
0000
0000
0001
0000
0000
,  // measure 72
0010
0100
0101
0102
1003
0000
0001
0100
,  // measure 73
1010
0000
0000
0000
0001
1000
0001
1000
0000
0000
0000
0000
0100
0000
0100
0000
,  // measure 74
0010
0000
0010
0000
0001
1000
0001
1000
0000
0000
0000
0000
0010
0000
0010
0000
,  // measure 75
0100
0000
0100
0001
1000
0000
1000
0000
0100
0000
0100
0000
0010
0000
0010
0000
,  // measure 76
0001
0000
0001
0000
1000
0010
1000
0010
0100
0001
0100
0001
1000
0100
1000
0100
,  // measure 77
0010
0001
0010
0001
2000
0000
0000
0000
0000
0000
0000
0000
0000
0000
0000
0000
,  // measure 78
0000
0000
0000
0000
,  // measure 79
0000
3000
0000
0000
;

//---------------dance-single - ----------------
#NOTEDATA:;
#CHARTNAME:;
#STEPSTYPE:dance-single;
#DESCRIPTION:;
#CHARTSTYLE:;
#DIFFICULTY:Medium;
#METER:7;
#RADARVALUES:0.653,0.628,0.773,0.307,0.098,375.000,83.000,33.000,0.000,0.000,0.000,0.000,0.000,0.653,0.628,0.773,0.307,0.098,375.000,83.000,33.000,0.000,0.000,0.000,0.000,0.000;
#CREDIT:;
#DISPLAYBPM:93.000:185.000;
#NOTES:
0000
0000
0000
0000
,
0000
0000
0000
0000
,
0000
1001
0000
0000
0110
0000
1001
0000
,
0110
0000
0000
0000
,
0000
0000
0000
0000
1000
0100
0001
0100
,
1000
0010
0100
0001
0000
0000
0010
0000
,
1000
0001
0000
1000
1001
0000
0110
0000
,
0101
0010
1100
0010
,
0001
0000
1001
0000
1000
0000
0100
0000
0010
0000
0000
0011
0000
0000
1001
0000
,
0000
0001
0100
1000
,
0100
0000
0001
0010
0000
0100
1000
0010
,
0000
0001
0010
1000
,
0010
0000
0100
0001
0000
0011
0000
1100
,
0000
1000
0100
0001
,
0100
0000
1000
0010
0000
0100
0000
0001
,
0011
0001
1010
1000
,
0001
0100
0010
1000
0100
0100
0100
0100
,
2002
0000
0000
3003
,
1100
0000
0000
2200
0000
3300
0000
0000
,
0101
0000
0000
0202
0000
0303
0010
0000
,
2010
0000
3001
0000
0012
0000
1003
0100
,
0010
0001
0000
1001
0000
0010
0100
0010
,
0110
0000
1000
0010
2020
0000
3030
0000
,
0011
0010
0100
1000
,
2001
0000
0000
3001
0000
1000
0100
0010
,
0001
0100
1000
0100
0001
0010
1000
0010
,
0012
0000
0100
0000
0010
0000
0103
0001
,
1000
0100
0010
0001
,
0012
0000
1003
0000
2010
0000
3001
0100
,
0010
1000
0000
1001
0000
0010
0100
0010
,
2010
0000
0100
0000
0010
0000
3100
1000
,
0001
0100
0010
1000
,
1002
0000
0000
1003
0000
0001
0100
0010
,
1000
0100
0010
0001
0100
0010
1000
0001
,
0010
0000
1100
0000
1010
0000
1100
1000
,
0000
0001
0101
0000
0011
0000
0101
0100
,
0000
0010
0011
0000
1100
0000
0011
0001
,
0000
1000
1010
0000
0101
0000
1010
0010
,
0000
1000
0010
1000
0000
0001
0010
0001
,
0000
1000
0100
0001
0000
0001
0100
1000
,
0001
0101
1000
1100
,
0001
0011
1000
1010
,
0110
1001
0110
1001
,
0001
0100
0010
1000
0100
0010
0001
1000
,
0200
0000
0000
0000
0310
0010
0010
0000
,
0110
1001
2010
0001
,
0010
0000
0000
0000
3001
0000
0001
0000
0010
0000
0000
0100
0000
0000
1000
0000
,
0000
0001
0000
0000
0100
0000
0000
0000
0010
0000
0000
0000
1000
0000
0000
0000
,
0001
1000
0010
0000
0110
0000
0100
0000
,
0101
0000
0000
1010
0000
0000
1100
0000
0000
0000
0000
0000
1001
0000
0000
0000
,
0100
0000
0010
0001
1000
0000
0001
0000
,
0100
0000
0010
0100
0120
0000
1030
0000
,
0120
0000
0031
0000
1000
0100
0010
0001
,
0000
1000
0010
0010
0010
0000
1002
0000
,
0010
0000
0000
0000
1003
0000
1000
0000
0010
0000
0000
0100
0000
0000
0001
0000
,
0000
1000
0000
0000
0100
0000
0000
0000
0010
0000
0000
0000
0001
0000
0000
0000
,
1000
0000
0001
1000
1001
0000
0110
0000
,
1100
0000
0000
0011
0000
0000
0101
0000
0100
0000
0000
0000
0001
0000
0000
0000
,
0100
0000
0010
1000
0001
0000
1000
0000
,
0100
0000
0010
0100
0120
0000
0031
0000
,
0120
0000
1030
0000
0001
0100
0010
1000
,
0000
0100
0010
0010
0110
0000
1000
0002
,
0000
0000
1003
0110
,
0001
0110
2001
3010
,
1002
0000
0013
0100
1000
0010
0100
0001
,
0101
0000
0000
1001
0000
0000
1100
0000
0200
0000
0000
0000
0000
0000
0000
0000
,
0310
0011
2001
0100
,
3010
0000
1000
0000
0101
0000
0001
1000
,
0000
0000
1000
0000
0100
0000
0010
0000
0001
0000
0100
0000
0100
0000
0000
0010
,
0000
0010
1000
0001
1000
0100
0001
0100
,
1000
0000
0100
0000
0001
0000
0000
0100
0000
0000
1000
0000
0000
0010
0000
0000
,
0100
0000
0001
0000
0010
0000
0000
0100
0000
0000
1000
0000
0000
1000
0000
0000
,
0010
0000
1000
0000
0100
0000
0000
0010
0000
0000
0001
0000
0000
0001
0000
0000
,
0100
0000
1000
0000
0200
0000
0000
0001
0000
0000
0010
0000
0000
0301
0000
0000
,
0001
0000
0010
0000
0200
0000
0000
0010
0000
0000
1000
0000
0000
0310
0000
0000
,
0010
0000
0001
0000
0020
0000
0000
0100
0000
0000
0001
0000
0000
0130
0000
0000
,
0100
1000
0100
0001
0100
1000
0100
0001
,
0100
1000
2002
0000
0000
0000
0000
0000
,
0000
0000
0000
0000
,
0000
3003
0000
0000
;

//---------------dance-single - Blank----------------
#NOTEDATA:;
#CHARTNAME:;
#STEPSTYPE:dance-single;
#DESCRIPTION:Blank;
#CHARTSTYLE:;
#DIFFICULTY:Easy;
#METER:5;
#RADARVALUES:0.381,0.443,0.093,0.196,0.000,255.000,10.000,21.000,0.000,0.000,0.000,0.000,0.000,0.381,0.443,0.093,0.196,0.000,255.000,10.000,21.000,0.000,0.000,0.000,0.000,0.000;
#CREDIT:;
#DISPLAYBPM:93.000:185.000;
#NOTES:
0000
0000
0000
0000
,
0000
0000
0000
0000
,
0000
0000
0000
0000
,
0000
0000
0000
0000
,
0000
0000
0000
0000
,
1000
1000
0000
0000
,
0000
0010
0000
0000
0100
0000
0100
0000
,
0001
0000
1000
0000
,
0001
0010
0100
1000
,
0000
0001
0100
1000
,
0100
0010
1000
1000
,
0001
0010
1000
0010
,
0001
0001
0000
0000
0010
0000
0100
0000
,
1000
0001
0100
0100
,
0010
1000
0100
0100
,
1000
0100
0001
0100
,
1000
0010
0001
0010
,
2002
0000
0000
0000
0000
0000
0000
3003
,
2000
3000
0200
0300
,
0020
0030
0002
0003
,
2000
3000
0020
0030
,
0200
0300
0002
0003
,
2000
3000
0200
0300
,
0002
0003
0200
0300
,
2000
3000
0020
0030
,
0002
0003
0020
0030
,
1000
0010
1000
0010
,
0001
0010
0001
0010
,
1000
0100
1000
0100
,
0001
0100
0001
0100
,
1000
0010
0001
0010
,
1000
0100
0001
0100
,
1000
0010
0001
0100
,
1000
0100
0001
0010
,
1000
1000
1000
1000
,
0010
0010
0010
0010
,
0100
0100
0100
0100
,
0001
0001
0001
0001
,
0011
0010
0100
1000
,
1010
0010
0100
0001
,
1100
1000
1100
1000
,
0101
0001
0101
0001
,
1000
0010
0001
0100
,
1000
0100
0001
0010
,
2002
0000
0000
3003
1000
0000
0010
0000
,
0100
1001
0101
0001
,
0010
1000
0010
0001
,
0100
1000
0100
0010
,
1000
0100
0001
0100
,
0010
0001
0010
1000
,
0010
0100
1000
0010
,
0001
0010
0100
0001
,
0100
1000
0100
0010
,
1000
0001
1000
0100
,
0001
0100
0010
0001
,
0010
1000
0010
0100
,
1000
0010
0001
0010
,
0100
0001
0100
1000
,
0100
0010
1000
0100
,
0001
0100
0010
0001
,
0010
1000
0001
0100
,
1000
0001
0100
0100
,
0000
0000
0010
1000
,
1000
0001
0001
0000
,
0010
0000
0100
1000
,
0001
0001
0100
0000
,
0000
0010
0010
0000
,
0000
1000
1000
0000
,
0001
0000
1000
0100
,
0010
0001
1000
0010
,
0001
1000
0100
0001
,
1000
0100
0001
1000
,
0010
0001
0100
0010
,
1000
0001
0010
1000
,
0010
0001
0100
1000
,
0100
0001
0010
1000
,
0100
0001
0100
1000
,
0001
1000
0002
0000
0000
0000
0000
0000
,
0000
0000
0000
0000
,
0000
0003
0000
0000
;
