#TITLE:Dizzy Boogie;
#SUBTITLE:;
#ARTIST:Iceman;
#TITLETRANSLIT:;
#SUBTITLETRANSLIT:;
#ARTISTTRANSLIT:;
#GENRE:;
#CREDIT:;
#BANNER:Dizzy Boogie.png;
#BACKGROUND:Dizzy Boogie-bg.png;
#JACKET:Dizzy Boogie-jacket.png;
#LYRICSPATH:;
#CDTITLE:;
#MUSIC:Dizzy Boogie.mp3;
#OFFSET:-0.096;
#SAMPLESTART:57.040;
#SAMPLELENGTH:17.220;
#SELECTABLE:YES;
#BPMS:0.000=120.000
;
#STOPS:
;
#BGCHANGES:;
#KEYSOUNDS:;
#ATTACKS:;

//---------------dance-single - ----------------
#NOTES:
     dance-single:
     :
     Hard:
     8:
     0.479,0.464,0.332,0.188,0.170,316.000,37.000,21.000,0.000,0.000,0.000,0.479,0.464,0.332,0.188,0.170,316.000,37.000,21.000,0.000,0.000,0.000: // measure 0
0000
0000
0000
0000
,  // measure 1
0000
0000
0000
0000
,  // measure 2
0000
0000
0000
0000
,  // measure 3
0000
0000
0000
0000
,  // measure 4
0000
1000
0000
0000
0100
0000
0000
0001
0000
0000
0010
0000
0001
0000
0001
0000
,  // measure 5
0000
0100
0000
0000
1000
0000
0000
0010
0000
0000
0001
0000
0010
0000
0010
0000
,  // measure 6
0000
1000
0000
0000
0100
0000
0000
0010
0000
0000
1000
0000
0010
0000
0010
0000
,  // measure 7
0000
0100
0000
0000
1000
0000
0000
0001
0000
0000
0100
0000
1000
0000
0100
0001
,  // measure 8
0100
0010
0000
0000
1000
0000
0000
0100
0000
0000
0001
0000
0010
0000
0001
0000
,  // measure 9
0000
0100
0000
0000
1000
0000
0000
0010
0000
0000
0001
0000
0100
0000
0001
0000
,  // measure 10
0010
0001
0010
0001
0000
0000
0010
1000
0010
1000
0000
0000
0001
0000
0000
0000
,  // measure 11
1000
0100
1000
0100
0000
0000
0001
0100
0001
0100
0000
0000
1000
0000
0000
0000
,  // measure 12
0001
0100
1000
0100
0010
1000
0100
0001
,  // measure 13
0010
0001
0100
0000
1000
0010
0001
0100
,  // measure 14
1000
0000
0000
0000
1010
0000
0000
0000
0110
0000
0000
0000
0101
0000
0000
0001
,  // measure 15
1000
0000
0010
0000
0001
0000
1000
0100
0000
0001
0100
0000
0010
0000
1000
0001
,  // measure 16
1000
0010
0001
0010
0100
0001
0010
1000
,  // measure 17
0100
1000
0010
0000
0001
0100
1000
0010
,  // measure 18
0001
0000
0000
0000
0101
0000
0000
0000
0110
0000
0000
0000
1010
0000
0000
1000
,  // measure 19
0001
0000
0100
0000
1000
0000
0001
0010
0000
1000
0010
0000
1000
0001
1000
0001
,  // measure 20
1000
0000
0000
0100
0000
0000
0001
0000
0020
0000
0000
0000
0031
0000
0100
0000
,  // measure 21
1000
0000
0000
0010
0000
0000
0001
0000
0200
0000
0000
0000
0301
0000
0000
0000
,  // measure 22
0010
0000
0000
1000
0000
0000
0100
0000
0002
0000
0000
0000
0103
0000
1000
0000
,  // measure 23
0001
0011
1100
1001
,  // measure 24
0001
0000
0000
0010
0000
0000
1000
0000
0200
0000
0000
0000
1300
0000
0010
0000
,  // measure 25
0001
0000
0000
0100
0000
0000
1000
0000
0020
0000
0000
0000
1030
0000
0000
0000
,  // measure 26
0100
0000
0000
0001
0000
0000
1000
0000
0001
0000
0010
0000
1000
0000
0100
0000
,  // measure 27
0001
0101
1010
1001
,  // measure 28
1100
1100
0101
0000
1000
0100
0001
0010
,  // measure 29
1000
0000
0002
0100
0103
0000
2000
0100
,  // measure 30
3100
0001
0010
0100
1000
0000
1010
0000
,  // measure 31
0011
0000
0000
0000
0101
0000
0000
0100
1000
0000
0010
0000
0001
0000
0100
0000
,  // measure 32
2000
0000
3001
0000
1000
0010
0001
0100
,  // measure 33
1000
0000
0002
0010
0013
0000
2000
0010
,  // measure 34
3010
0001
0100
0010
1000
0000
1100
0000
,  // measure 35
0101
0000
0011
0000
1000
0100
0001
0010
,  // measure 36
1000
0000
1001
0000
0001
0010
1000
0100
,  // measure 37
0001
0000
2000
0010
3010
0000
0002
0010
,  // measure 38
0013
1000
0100
0010
0001
0000
0101
0000
,  // measure 39
1100
0000
0000
0000
1010
0000
0000
0010
0001
0000
0100
0000
1000
0000
0010
0000
,  // measure 40
0002
0000
1003
0000
0001
0100
1000
0010
,  // measure 41
0001
0000
2000
0100
3100
0000
0002
0100
,  // measure 42
0103
1000
0010
0100
0001
0000
0011
0000
,  // measure 43
1010
0000
1100
0000
0001
0010
1000
0100
,  // measure 44
0001
0000
1001
0000
0001
0100
1000
0010
,  // measure 45
0002
0100
0103
0001
2000
0100
3100
1000
,  // measure 46
0001
0010
1000
0100
0001
0000
0011
0000
,  // measure 47
1010
0000
1100
0000
1000
0100
0001
0010
,  // measure 48
1000
0000
1001
0000
1000
0010
0001
0100
,  // measure 49
2000
0010
3010
1000
0002
0010
0013
0001
,  // measure 50
1000
0100
0001
0010
1000
0000
1100
0000
,  // measure 51
0101
0000
0011
0000
0001
0010
1000
0100
,  // measure 52
0001
0001
1000
1000
0220
0000
0000
0000
,  // measure 53
0000
0000
0000
0000
,  // measure 54
0000
0000
0330
0000
;

//---------------dance-single - Blank----------------
#NOTES:
     dance-single:
     :
     Easy:
     2:
     0.200,0.195,0.009,0.018,0.000,153.000,1.000,2.000,0.000,0.000,0.000,0.200,0.195,0.009,0.018,0.000,153.000,1.000,2.000,0.000,0.000,0.000: // measure 0
0000
0000
0000
0000
,  // measure 1
0000
0000
0000
0000
,  // measure 2
0000
0000
0000
0000
,  // measure 3
0000
0000
0000
0000
,  // measure 4
1000
0100
1000
0000
,  // measure 5
0001
0100
0001
0000
,  // measure 6
1000
0010
1000
0000
,  // measure 7
0001
0010
0001
0000
,  // measure 8
1000
0010
0100
0000
,  // measure 9
0001
0100
0010
0000
,  // measure 10
1000
0100
0010
0000
,  // measure 11
0001
0010
0100
0000
,  // measure 12
1000
0000
0001
0000
,  // measure 13
0100
0000
0010
0000
,  // measure 14
1000
0100
0010
0001
,  // measure 15
1000
0001
1000
0000
,  // measure 16
0001
0000
0100
0000
,  // measure 17
0010
0000
1000
0000
,  // measure 18
0001
0010
0100
1000
,  // measure 19
0001
1000
0001
0000
,  // measure 20
1000
0010
0100
0000
,  // measure 21
0001
0100
0010
0000
,  // measure 22
1000
0100
0010
0000
,  // measure 23
0001
0010
0100
0000
,  // measure 24
1000
0010
0001
0000
,  // measure 25
0001
0010
1000
0000
,  // measure 26
1000
0100
0001
0000
,  // measure 27
0001
0100
1000
0000
,  // measure 28
0001
0001
1000
0010
,  // measure 29
0100
0000
0001
0000
,  // measure 30
1000
0000
0001
0010
,  // measure 31
1000
0010
0100
1000
,  // measure 32
0001
0000
1000
0010
,  // measure 33
0100
0000
0001
0000
,  // measure 34
1000
0000
0001
0100
,  // measure 35
1000
0100
0010
1000
,  // measure 36
0001
0000
1000
0100
,  // measure 37
0010
0000
0001
0000
,  // measure 38
1000
0000
0001
0100
,  // measure 39
1000
0100
0010
1000
,  // measure 40
0001
0000
1000
0100
,  // measure 41
0010
0000
0001
0000
,  // measure 42
1000
0000
0001
0010
,  // measure 43
1000
0010
0100
1000
,  // measure 44
0001
0000
1000
0100
,  // measure 45
1000
0100
0001
0100
,  // measure 46
0001
0100
1000
0010
,  // measure 47
1000
0010
0001
0010
,  // measure 48
0001
0010
1000
0100
,  // measure 49
0001
0100
1000
0010
,  // measure 50
0001
0010
1000
0100
,  // measure 51
0001
0010
1000
0010
,  // measure 52
0001
0100
2002
0000
,  // measure 53
0000
0000
0000
0000
,  // measure 54
0000
0000
3003
0000
;

//---------------dance-single - Blank----------------
#NOTES:
     dance-single:
     :
     Medium:
     5:
     0.327,0.318,0.099,0.197,0.000,222.000,11.000,22.000,0.000,0.000,0.000,0.327,0.318,0.099,0.197,0.000,222.000,11.000,22.000,0.000,0.000,0.000: // measure 0
0000
0000
0000
0000
,  // measure 1
0000
0000
0000
0000
,  // measure 2
0000
0000
0000
0000
,  // measure 3
0000
0000
0000
0000
,  // measure 4
1000
0100
0001
0100
,  // measure 5
1000
0010
0001
0010
,  // measure 6
1000
0100
0001
0010
,  // measure 7
0001
0100
1000
0010
,  // measure 8
1000
0100
0001
0100
,  // measure 9
1000
0010
0001
0010
,  // measure 10
1000
0010
1000
0000
0001
0000
0101
0000
,  // measure 11
0001
0010
0001
0000
1000
0000
1100
0000
,  // measure 12
1000
0010
0001
0010
,  // measure 13
0100
0000
0001
0000
1000
0001
1000
0000
,  // measure 14
0001
0100
1000
0100
,  // measure 15
0010
0000
1000
0000
0001
1000
0001
0000
,  // measure 16
1000
0100
0001
0100
,  // measure 17
0010
0000
0001
0000
1000
0001
1000
0000
,  // measure 18
0001
0010
1000
0010
,  // measure 19
0100
0000
1000
0000
0001
1000
0001
0000
,  // measure 20
1000
0010
0200
0310
,  // measure 21
1000
0100
0020
0130
,  // measure 22
1000
0010
0001
0010
,  // measure 23
0100
0001
0101
1100
,  // measure 24
0001
0100
0020
0130
,  // measure 25
0001
0010
0200
0310
,  // measure 26
0001
0100
1000
0100
,  // measure 27
0010
1000
1010
0011
,  // measure 28
1000
0001
1000
0000
0001
0000
0100
0000
,  // measure 29
0010
0000
0000
1000
1000
0000
0000
0001
,  // measure 30
0001
1000
0002
0023
,  // measure 31
2030
0000
3200
0000
0301
1000
0001
0000
,  // measure 32
0100
1010
1000
0010
,  // measure 33
0100
0000
0000
0001
0001
0000
0000
1000
,  // measure 34
1000
0001
2000
3200
,  // measure 35
0302
0000
0023
0000
1030
0001
1000
0000
,  // measure 36
0010
0101
0001
0010
,  // measure 37
0100
0000
0000
1000
1000
0000
0000
0001
,  // measure 38
0001
1000
0002
0203
,  // measure 39
2300
0000
3020
0000
0031
1000
0001
0000
,  // measure 40
0010
1100
1000
0100
,  // measure 41
0010
0000
0000
0001
0001
0000
0000
1000
,  // measure 42
1000
0001
2000
3020
,  // measure 43
0032
0000
0203
0000
1300
0001
1000
0000
,  // measure 44
0100
0000
1001
0000
1000
0010
1000
0000
,  // measure 45
0010
0001
0010
0000
0001
0100
0001
0000
,  // measure 46
0100
1000
0100
0000
1000
0010
1000
0000
,  // measure 47
0010
0001
0010
0000
0001
0100
0001
0000
,  // measure 48
0100
1000
0100
0000
0001
0010
0001
0000
,  // measure 49
0010
1000
0010
0000
1000
0100
1000
0000
,  // measure 50
0100
0001
0100
0000
0001
0010
0001
0000
,  // measure 51
0010
1000
0010
0000
1000
0100
1000
0000
,  // measure 52
0001
0100
0001
0000
2002
0000
0000
0000
,  // measure 53
0000
0000
0000
0000
,  // measure 54
0000
0000
3003
0000
;
