#VERSION:0.81;
#TITLE:Dancing in the fire;
#SUBTITLE:;
#ARTIST:AXEL.K;
#TITLETRANSLIT:;
#SUBTITLETRANSLIT:;
#ARTISTTRANSLIT:;
#GENRE:;
#ORIGIN:;
#CREDIT:;
#BANNER:Dancing in the fire.png;
#BACKGROUND:Dancing in the fire-bg.png;
#PREVIEWVID:;
#JACKET:Dancing in the fire-jacket.png;
#CDIMAGE:;
#DISCIMAGE:;
#LYRICSPATH:;
#CDTITLE:;
#MUSIC:Dancing in the fire.mp3;
#OFFSET:-0.075;
#SAMPLESTART:48.640;
#SAMPLELENGTH:17.220;
#SELECTABLE:YES;
#BPMS:0.000=158.000;
#STOPS:;
#DELAYS:;
#WARPS:;
#TIMESIGNATURES:0.000=4=4;
#TICKCOUNTS:0.000=4;
#COMBOS:0.000=1;
#SPEEDS:0.000=1.000=0.000=0;
#SCROLLS:0.000=1.000;
#FAKES:;
#LABELS:0.000=Song Start;
#BGCHANGES:;
#KEYSOUNDS:;
#ATTACKS:
;

//---------------dance-single - ----------------
#NOTEDATA:;
#CHARTNAME:;
#STEPSTYPE:dance-single;
#DESCRIPTION:;
#CHARTSTYLE:;
#DIFFICULTY:Hard;
#METER:8;
#RADARVALUES:0.594,0.518,0.202,0.329,0.117,342.000,19.000,31.000,0.000,0.000,0.000,0.000,0.000,0.594,0.518,0.202,0.329,0.117,342.000,19.000,31.000,0.000,0.000,0.000,0.000,0.000;
#CREDIT:;
#NOTES:
0000
0000
0000
0000
,
0000
0000
0000
0000
,
0000
0000
0000
0000
,
0000
0000
0000
0000
0000
0000
0000
1000
,
0001
0100
0010
1000
0001
0001
1000
1000
,
0001
0010
0100
1000
0001
0001
1000
1000
,
0001
0100
1000
0100
0001
0010
0100
2002
,
0000
0000
0000
3003
,
1000
0010
0100
0001
0100
0010
1000
0000
,
0001
0010
0100
1000
0001
0001
1000
1000
,
0001
0100
0010
1000
0010
0100
0001
0000
,
1000
0000
0100
0000
0001
0000
0100
1000
0000
0001
1000
0000
0001
0000
0100
0000
,
0001
0010
0100
0010
0001
1000
0100
0000
,
1000
0010
0100
0010
1000
1000
0001
0001
,
1000
0100
0010
0100
1000
0001
0100
0000
,
0001
0000
0010
0000
0100
0000
1000
0000
0001
1000
0001
1000
0001
0000
0000
0000
,
1001
0000
1000
0010
0100
0000
0010
2000
,
0000
0100
0000
0001
3001
0000
1000
0002
,
0000
0100
0000
1000
1003
0000
0001
1000
,
0001
0000
0100
0010
0000
0100
0010
0000
1000
0000
0100
0010
0000
0100
0010
0000
,
0001
0000
1100
0000
0101
0000
0001
2000
,
0000
0010
0000
0001
3001
0000
1000
0002
,
0000
0010
0000
1000
1003
0000
0001
2000
,
0000
0010
0000
0100
3200
0000
0310
0000
,
0012
0000
0100
0000
1003
0000
0001
0100
,
1010
0000
0011
0000
1000
0001
1000
0000
,
0001
0100
1000
0200
0000
0010
0310
0000
,
2000
0000
0010
0010
0000
0001
3001
0000
,
1010
0000
0012
0000
1003
0000
0001
1000
,
0101
0000
1100
0000
0001
1000
0001
0000
,
1000
0010
0001
0020
0000
0100
0130
0000
,
0001
0000
0100
0000
0010
0000
1000
0000
0001
1000
0001
1000
0001
0000
0000
0000
,
1000
0100
0001
0100
1000
1000
0000
0002
,
0000
0100
0103
0000
1001
0000
1000
0010
,
0100
0000
0000
0100
0000
0000
0001
0000
1000
0000
0000
1000
0000
0000
0100
0000
,
0020
0001
0130
1001
,
2000
0000
3010
0010
0002
0000
0013
0010
,
2000
0000
0100
0000
3001
0000
1000
0001
,
1000
0000
0000
0010
0000
0000
0100
0000
0001
0000
0000
1000
0000
0000
0100
0000
,
0020
0130
1100
0101
,
1000
0010
0001
0010
1000
1000
0000
0002
,
0000
0010
0013
0000
1001
0000
1000
0100
,
0010
0000
0000
0010
0000
0000
0001
0000
1000
0000
0000
1000
0000
0000
0010
0000
,
0200
0001
0310
1001
,
2000
0000
3100
0100
0002
0000
0103
0100
,
2000
0000
0010
0000
3001
0000
1000
0001
,
1000
0000
0000
0100
0000
0000
0010
0000
0001
0000
0000
1000
0000
0000
2002
0000
,
0000
0003
0100
3100
,
1000
0010
0100
0001
0100
0010
1000
0000
,
0001
0010
0100
1000
0001
0001
1000
1000
,
0001
0100
0010
1000
0010
0100
0001
0000
,
1000
0000
0100
0000
0001
0000
0100
1000
0000
0001
1000
0000
0001
0000
0100
0000
,
0001
0010
0100
0010
0001
1000
0100
0000
,
1000
0010
0100
0010
1000
1000
0001
0001
,
1000
0100
0010
0100
1000
0001
0100
0000
,
0001
0000
0010
0000
0100
0000
1000
0000
0001
1000
0001
1000
0001
0000
0000
0000
,
2010
0000
0000
0100
0000
0100
3000
0100
,
0020
0000
0000
0001
0000
0001
0030
0001
,
0200
0000
0000
0010
0000
0010
0300
0010
,
2000
0000
0000
0001
3000
0001
0100
0010
,
2000
0000
0000
0000
,
3000
0000
0000
0000
;

//---------------dance-single - ----------------
#NOTEDATA:;
#CHARTNAME:;
#STEPSTYPE:dance-single;
#DESCRIPTION:;
#CHARTSTYLE:;
#DIFFICULTY:Easy;
#METER:4;
#RADARVALUES:0.334,0.291,0.106,0.202,0.000,191.000,10.000,19.000,0.000,0.000,0.000,0.000,0.000,0.334,0.291,0.106,0.202,0.000,191.000,10.000,19.000,0.000,0.000,0.000,0.000,0.000;
#CREDIT:;
#NOTES:
0000
0000
0000
0000
,
0000
0000
0000
0000
,
0000
0000
0000
0000
,
0000
0000
0000
0000
,
1000
0100
0010
0001
,
0010
0100
1000
0001
,
1000
0000
0010
0000
0100
0000
0001
2000
,
0000
0000
0000
3000
,
0001
0100
0010
0010
,
1000
0100
0010
0001
,
1000
0010
0100
0100
,
0001
1000
0010
0101
,
0001
0010
0100
0100
,
1000
0010
0100
0001
,
1000
0100
0010
0010
,
0001
0100
0010
1000
,
1001
0001
0100
0000
,
0001
1000
0100
0000
,
1000
0001
0010
0000
,
0001
0100
0010
0010
,
1000
0010
0100
0000
,
0001
0010
0100
0000
,
1000
0001
0010
0000
,
0001
1000
0010
0000
,
1000
0010
0100
0001
,
0100
0010
1000
0001
,
1000
0100
0010
0001
,
0010
0100
1000
0001
,
1000
0010
0001
0010
,
0100
0001
1000
1000
,
0001
0010
1000
0010
,
0100
1000
0001
1001
,
0001
0100
0010
0100
,
0001
0001
0000
0010
,
0100
1000
0010
0100
,
0001
0001
1000
1000
,
0200
0300
0020
0030
,
0002
0000
0003
0100
,
0010
1000
0100
1000
,
0002
0003
1000
1001
,
1000
0010
0100
0010
,
1000
1000
0000
0100
,
0010
0001
0100
0010
,
1000
1000
0001
0001
,
0020
0030
0200
0300
,
2000
0000
3000
0010
,
0100
0000
0001
0000
0010
0000
0001
2000
,
0000
0000
0001
3001
,
1000
0010
0100
0100
,
0001
0010
0100
1000
,
0001
0100
0010
0010
,
1000
0001
0100
1010
,
1000
0100
0010
0010
,
0001
0100
0010
1000
,
0001
0010
0100
0100
,
1000
0010
0100
0001
,
2002
0000
0000
3003
,
2200
0000
0000
3300
,
0202
0000
0000
0303
,
2002
0000
0000
3003
,
0220
0000
0000
0000
,
0330
0000
0000
0000
;

//---------------dance-single - ----------------
#NOTEDATA:;
#CHARTNAME:;
#STEPSTYPE:dance-single;
#DESCRIPTION:;
#CHARTSTYLE:;
#DIFFICULTY:Medium;
#METER:6;
#RADARVALUES:0.490,0.453,0.223,0.372,0.005,267.000,21.000,35.000,0.000,0.000,0.000,0.000,0.000,0.490,0.453,0.223,0.372,0.005,267.000,21.000,35.000,0.000,0.000,0.000,0.000,0.000;
#CREDIT:;
#NOTES:
0000
0000
0000
0000
,
0000
0000
0000
0000
,
0000
0000
0000
0000
,
0000
0000
0000
0000
,
1000
0100
1000
0100
1000
0000
1001
0000
,
0001
0100
0001
0100
0001
0000
1001
0000
,
1000
0100
0010
0001
0010
0100
1000
0002
,
0000
0000
0000
0003
,
1000
0000
0010
0000
0100
0001
0100
0000
,
0001
0010
0100
1100
,
1000
0000
0010
0000
0100
0001
0100
0000
,
0001
0000
0010
0000
0100
1000
0001
0010
,
0001
0000
0100
0000
0010
1000
0001
0000
,
1000
0100
0010
1001
,
0001
0000
0100
0000
0010
1000
0001
0000
,
1000
0100
0010
0001
1000
0001
1000
0000
,
1001
0000
0001
0100
0002
0000
1003
0000
,
0001
0000
1000
0100
2000
0000
3001
0000
,
1000
0000
0001
0010
0002
0000
1003
0000
,
0001
0100
0010
1000
0010
0100
0001
0000
,
2000
0000
0010
0000
3100
0000
1000
0001
,
2000
0000
3200
0000
0310
0000
0001
1000
,
0002
0000
0203
0000
0310
0000
1000
0001
,
2000
3020
0230
0301
,
2010
0100
0010
3001
,
1100
0000
0101
0000
1000
0001
1000
0000
,
0001
0100
0010
0000
1000
0010
0100
0000
,
0002
0013
2000
3010
,
0011
2100
0010
3100
,
1010
0000
0011
0000
1000
0001
1000
0000
,
0001
0010
0100
0000
1000
0010
0100
0000
,
0001
0010
0100
1000
0001
1000
1001
0000
,
0001
0000
0100
0000
0010
0010
0000
2000
,
0000
0001
3001
0000
1000
0000
0101
0000
,
1000
0000
0100
0010
0100
0000
0010
0001
,
0020
0100
1000
0031
,
2000
3100
0002
0103
,
2000
0010
0100
3001
,
1000
0000
0001
0100
0010
0000
1000
0010
,
0200
0301
1100
0101
,
1000
0000
0010
0000
0100
0100
0000
0002
,
0000
1000
1003
0000
0001
0000
1010
0000
,
0001
0000
0010
0100
0010
0000
0100
1000
,
0200
0010
0001
1300
,
0002
0013
2000
3010
,
0002
0100
0010
1003
,
0001
0000
0000
0000
1000
0000
0010
0000
0100
0000
0000
0001
0000
0000
2002
0000
,
0000
0003
0100
3100
,
1000
0000
0010
0000
0100
0001
0100
0000
,
0001
0010
0100
1100
,
1000
0000
0010
0000
0100
0001
0100
0000
,
0001
0000
0010
0000
0100
1000
0001
0010
,
0001
0000
0100
0000
0010
1000
0001
0000
,
1000
0100
0010
1001
,
0001
0000
0100
0000
0010
1000
0001
0000
,
1000
0100
0010
0001
1000
0001
1000
0000
,
2002
0000
0000
0000
0000
0000
3003
0001
,
0200
0000
0000
0000
0000
0000
0300
0010
,
2000
0000
0000
0000
0000
0000
3000
0100
,
0020
0000
0000
0000
0030
0001
0010
0100
,
2000
0000
0000
0000
,
3000
0000
0000
0000
;
