#TITLE:Dancin' & Dreamin';
#SUBTITLE:;
#ARTIST:HINOIチーム;
#TITLETRANSLIT:;
#SUBTITLETRANSLIT:;
#ARTISTTRANSLIT:HINOI Team;
#GENRE:;
#CREDIT:;
#BANNER:Dancin' & Dreamin'.png;
#BACKGROUND:Dancin' & Dreamin'-bg.png;
#JACKET:Dancin' & Dreamin'-jacket.png;
#LYRICSPATH:;
#CDTITLE:;
#MUSIC:Dancin' & Dreamin'.mp3;
#OFFSET:-0.069;
#SAMPLESTART:50.900;
#SAMPLELENGTH:17.220;
#SELECTABLE:YES;
#BPMS:0.000=151.000
;
#STOPS:
;
#BGCHANGES:;
#KEYSOUNDS:;
#ATTACKS:;

//---------------dance-single - ----------------
#NOTES:
     dance-single:
     :
     Hard:
     7:
     0.593,0.576,0.478,0.446,0.103,297.000,44.000,41.000,0.000,0.000,0.000,0.593,0.576,0.478,0.446,0.103,297.000,44.000,41.000,0.000,0.000,0.000:
0000
0000
0000
0000
,
0000
0000
0000
0000
,
0000
0000
0000
0000
,
0000
0000
0000
0000
,
2000
3200
0320
0032
,
1003
0100
0000
0002
0000
0103
0000
1001
,
0000
1000
0010
0001
1000
0100
0001
1000
,
0001
0010
0100
1000
0002
0000
0003
0000
,
1100
0110
0012
1003
,
0001
0100
1000
0200
0010
0300
0100
0100
,
0001
0000
0000
0010
0000
0000
0100
0000
1000
0000
0000
0010
0000
0000
0100
0000
,
0001
0010
0100
2000
0001
3000
1000
0100
,
0011
0110
2100
3001
,
1000
0010
0001
0020
0100
0030
0010
0100
,
0001
0000
0000
0010
0000
0000
1000
0000
0001
0000
0100
0000
1000
0000
0020
0000
,
0000
0000
0100
0000
0100
0000
0130
0000
0001
1000
0001
1000
0001
0000
0000
0000
,
1001
0000
1000
0100
0010
0001
0010
0100
,
0000
0000
1000
0001
0000
1000
0001
0000
0200
0000
0000
0000
0300
0000
0010
0000
,
0000
1000
0010
0100
0001
0100
0000
0020
,
0000
2030
0000
3002
0000
1000
1003
0000
,
1001
0000
0001
0100
0010
1000
0010
0100
,
0000
0000
0001
1000
0000
0001
1000
0000
0020
0000
0000
0000
0130
0000
0001
0000
,
0000
1000
0100
0001
0100
0010
0000
0011
,
0000
0101
0000
0110
0000
1010
0000
1001
,
1000
0000
0100
0001
0000
1000
0000
0010
,
0002
1003
0101
1100
,
0001
0100
1000
0200
0000
0320
0000
2030
,
0000
0001
3001
0000
1100
0000
0101
0000
,
1001
0000
0001
0100
0000
1000
0000
0001
,
0000
0010
1000
0000
0001
0000
1001
0000
,
1000
0100
0001
0200
0000
2300
0000
3010
,
1000
0100
1000
0000
0001
0100
0001
0100
0001
0000
1000
0000
0100
0000
0010
0000
,
0011
1100
0101
1010
,
0001
0100
0000
2000
0000
3100
0000
0001
,
0010
1000
0001
0200
0000
0320
0000
0031
,
0000
0000
1000
0001
0000
1000
0001
0000
1000
0000
0100
0000
0010
0000
0001
0000
,
0101
1010
0011
1100
,
0001
0010
0000
2000
0000
3001
0000
1001
,
0000
0001
0100
1000
0010
0001
1000
0200
,
0000
0001
0001
0001
0301
0100
0010
1000
,
1100
0011
0101
1010
,
1000
0100
0000
0002
0000
0103
0000
0001
,
0100
1000
0010
0002
0000
0023
0000
1030
,
0000
0000
0001
1000
0000
0010
0100
0000
0001
0000
0010
0000
0100
0000
1000
0000
,
1010
0101
0011
1100
,
0001
0010
0000
2000
0000
3010
0000
0011
,
0000
0001
0100
1000
0001
0010
0100
0002
,
0000
1000
1000
1000
2003
0000
0000
3000
,
0011
0110
2100
3001
,
1000
0010
0001
0020
0100
0030
0010
0010
,
1000
0000
0000
0100
0000
0000
0010
0000
0001
0000
0000
0100
0000
0000
0010
0000
,
1000
0100
0010
0002
1000
0003
0001
0010
,
1100
0110
0012
1003
,
0001
0100
1000
0200
0010
0300
0100
0010
,
1000
0000
0000
0100
0000
0000
0001
0000
1000
0000
0010
0000
0001
0000
0200
0000
,
0000
0010
0010
0020
0000
0000
0330
0000
;

//---------------dance-single - ----------------
#NOTES:
     dance-single:
     :
     Easy:
     3:
     0.267,0.339,0.043,0.087,0.000,160.000,4.000,8.000,0.000,0.000,0.000,0.267,0.339,0.043,0.087,0.000,160.000,4.000,8.000,0.000,0.000,0.000:
0000
0000
0000
0000
,
0000
0000
0000
0000
,
0000
0000
0000
0000
,
0000
0000
0000
0000
,
1000
0100
0010
0001
,
0010
0100
1000
0000
,
0001
0100
0010
1000
,
0002
0000
0003
0000
,
1000
0010
0100
0000
,
0001
0010
0100
0000
,
1000
1000
0100
0100
,
0010
0010
0001
0001
,
1000
0010
0100
0000
,
0001
0100
0010
0000
,
1000
0100
0010
0001
,
1000
1000
0001
1001
,
0001
0000
0010
0000
,
0100
0000
1000
0000
,
0010
0000
0100
0000
,
0001
0001
1000
1000
,
0001
0000
0010
0000
,
0100
0000
1000
0000
,
0010
0000
0100
0000
,
0001
0001
1000
1000
,
0001
0000
0001
0000
,
0010
0000
0010
0000
,
0100
0000
0100
0000
,
1000
0000
1000
0000
,
0010
0000
0010
0000
,
0100
0000
0100
0000
,
0001
0000
0001
0000
,
1000
0001
1001
0000
,
1000
0010
0100
0010
,
1000
0100
0010
0000
,
0001
0010
0100
1000
,
0002
0000
1003
0000
,
0001
0100
0010
1000
,
0010
0100
0001
0000
,
1000
0100
0001
0010
,
2000
0000
3001
0000
,
1000
0010
0100
0001
,
0100
0010
1000
0000
,
0001
0010
0100
1000
,
0002
0000
1003
0000
,
0001
0100
1000
0100
,
0010
1000
0001
0000
,
1000
0010
0001
0100
,
1000
0001
2002
3003
,
1000
0010
0100
0010
,
1000
0001
1000
0000
,
0001
0001
0010
0010
,
0100
0100
1000
1000
,
0001
0100
0010
0100
,
0001
1000
0001
0000
,
1000
0100
0010
0001
,
1000
0001
1000
2002
,
0000
0000
0000
3003
;

//---------------dance-single - ----------------
#NOTES:
     dance-single:
     :
     Medium:
     6:
     0.536,0.485,0.533,0.446,0.000,255.000,49.000,41.000,0.000,0.000,0.000,0.536,0.485,0.533,0.446,0.000,255.000,49.000,41.000,0.000,0.000,0.000:
0000
0000
0000
0000
,
0000
0000
0000
0000
,
0000
0000
0000
0000
,
0000
0000
0000
0000
,
2000
3200
0320
0032
,
2003
3020
0230
0301
,
1000
0010
0100
0000
0001
0010
0100
0000
,
1000
0001
1000
0001
0200
0000
0300
0000
,
1010
0011
2010
3001
,
0101
1100
0102
1003
,
0001
0100
0001
0000
1000
0100
1000
0000
,
0001
0010
0001
0000
2000
0000
3001
0000
,
1010
0011
2010
3001
,
0101
1100
0102
1003
,
0001
0100
0010
0000
1000
0010
0100
0000
,
0001
1000
0001
1000
0020
0000
0130
0000
,
0001
0010
0100
1000
,
0001
1000
0001
1000
0002
0000
0003
0000
,
1000
0010
0100
0001
,
1100
1100
0101
0101
,
1000
0010
0100
0001
,
1000
0001
1000
0001
2000
0000
3001
0000
,
1000
0010
0001
0010
,
1100
1100
0101
0101
,
2000
3010
0200
0301
,
2000
3100
0020
0031
,
2000
3010
0200
0301
,
2000
3100
0020
0031
,
2000
3010
0002
0013
,
2000
3100
0002
0103
,
1000
0010
0100
0000
0001
0010
0100
0000
,
1000
1000
0001
0001
0200
0000
0310
0000
,
1010
1010
0011
0011
,
1000
0001
1000
0000
0100
0010
0100
0000
,
0001
0010
0100
0000
1000
0100
0010
0000
,
0001
1000
0001
1000
0020
0000
0130
0000
,
0101
0101
1100
1100
,
0001
1000
0001
0000
0100
0010
0100
0000
,
0001
0010
0100
1000
0001
0100
0010
1000
,
0002
0010
0100
1003
,
0101
1010
0011
1100
,
1000
0100
0010
0000
0001
0010
0100
0000
,
1000
0010
0001
0000
0001
0010
1000
0000
,
0001
1000
0001
1000
0020
0000
0130
0000
,
0011
1100
0101
1010
,
0001
0100
1000
0000
1000
0100
0001
0000
,
1000
0100
0010
0001
1000
0010
0100
0001
,
2000
3001
0220
0330
,
1010
0011
2010
3001
,
0101
1100
0102
1003
,
0001
0100
0001
0000
1000
0100
1000
0000
,
0001
0010
0001
0000
2000
0000
3001
0000
,
1010
0011
2010
3001
,
0101
1100
0102
1003
,
0001
0100
0010
0000
1000
0010
0100
0000
,
0001
1000
0001
1000
0020
0000
0130
0000
;
