#TITLE:Dance My Generation;
#SUBTITLE:;
#ARTIST:ゴールデンボンバー;
#TITLETRANSLIT:;
#SUBTITLETRANSLIT:;
#ARTISTTRANSLIT:Golden Bomber;
#GENRE:;
#CREDIT:;
#BANNER:Dance My Generation.png;
#BACKGROUND:Dance My Generation-bg.png;
#JACKET:Dance My Generation-jacket.png;
#LYRICSPATH:;
#CDTITLE:;
#MUSIC:Dance My Generation.mp3;
#OFFSET:-1.902;
#SAMPLESTART:68.640;
#SAMPLELENGTH:12.000;
#SELECTABLE:YES;
#BPMS:0.000=133.000
;
#STOPS:
;
#BGCHANGES:;
#KEYSOUNDS:;
#ATTACKS:;

//---------------dance-single - ----------------
#NOTES:
     dance-single:
     :
     Hard:
     8:
     0.602,0.548,0.394,0.192,0.466,377.000,41.000,20.000,0.000,0.000,0.000,0.602,0.548,0.394,0.192,0.466,377.000,41.000,20.000,0.000,0.000,0.000:
0000
0000
0000
0000
,
0000
0000
0000
0000
,
0000
0000
0000
0000
,
0000
0000
0000
0000
,
1000
0000
0010
0100
0010
0100
0000
0000
0001
0000
0000
0001
0000
0000
0010
0001
,
0010
0000
0100
1000
0000
0100
1000
0000
0010
0000
0000
1000
0000
0000
0001
0000
,
1000
0000
0010
0100
0010
0100
0000
0000
0001
0000
0000
0001
0000
0000
1000
0001
,
1000
0000
0001
0100
0000
0001
0100
0000
0001
0000
0010
0000
0100
0000
1000
0000
,
0001
0000
1000
0010
0100
0001
0000
0000
1000
0000
0000
1000
0000
0000
0001
0010
,
0001
0000
0100
0010
0000
0100
0010
0000
1000
0000
0000
0100
0000
0000
0010
0000
,
0001
0000
1000
0010
0100
0001
0000
0000
1000
0000
0000
1000
0000
0000
0001
0000
,
1000
0000
0001
0010
0100
1000
0000
0000
0001
0100
0001
0000
1000
0100
1000
0000
,
0001
0000
0100
0000
0010
0000
1000
0000
0010
0000
0100
0001
0000
0000
1000
0000
,
0001
0000
0010
0000
0100
0000
1000
0000
0100
0000
0010
0002
0000
0000
0003
0000
,
1000
0000
0010
0000
0001
0000
0010
0000
0100
0000
0001
1000
0000
0100
0000
0001
,
0100
1000
0010
0100
0002
0000
1003
0000
,
0001
0000
0010
0000
0100
0000
1000
0000
0100
0000
0010
0001
0000
0010
0000
0100
,
1000
0010
0100
0001
2000
0000
3001
0000
,
1000
0000
0010
0000
0001
0000
0010
0000
0100
0000
0001
1000
0000
0001
0000
1000
,
0001
0000
0010
0000
0100
1000
0000
0100
1000
0000
0100
2000
0000
0000
3000
0000
,
0001
0000
0100
0000
0010
0000
1000
0000
0010
0000
0100
0001
0000
0000
1000
0000
,
0001
0000
0010
0000
0100
0000
1000
0000
0100
0000
0010
0001
0020
0000
0030
0000
,
0001
0000
0100
0000
1000
0000
0100
0000
0010
0000
1000
0001
0000
0010
0000
1000
,
0010
0001
0100
0010
2000
0000
3001
0000
,
1000
0000
0100
0000
0010
0000
0001
0000
0010
0000
0100
1000
0000
0100
0000
0010
,
0001
0100
0010
1000
0002
0000
1003
0000
,
0001
0000
0100
0000
1000
0000
0100
0000
0010
0000
1000
0001
0000
1000
0000
0001
,
1000
0000
0100
0000
0010
0000
0001
0000
1000
0100
1000
0000
0001
0100
0001
0000
,
1001
0000
0000
0000
0001
0000
0100
0000
0010
0000
0000
0010
0000
0000
1000
0000
,
0100
0000
0000
0100
0000
0000
0010
0000
0002
0000
0000
0000
1003
0000
0000
0000
,
1001
0000
0000
0000
0001
0000
0100
0000
0010
0000
0000
0010
0000
0000
1000
0000
,
1100
0000
0011
0000
0101
0000
1010
0010
,
0100
0000
0000
0000
0001
0000
0010
0000
1000
0000
0000
0010
0000
0000
0100
0000
,
1000
0000
0000
0010
0000
0000
0001
0000
0020
0000
0000
0000
0130
0000
0001
0000
,
1000
0000
0100
0010
0000
0001
0000
0010
0100
0000
0100
0000
1100
0000
1100
0000
,
1000
0010
1000
0000
0001
0010
0001
0000
1000
0100
1000
0000
0001
0000
0000
0000
,
1100
0000
0000
0011
0000
0000
0101
0000
2002
0000
0000
0000
3003
0000
0000
0000
,
1100
0000
0000
0000
0101
0000
0000
0000
1010
0000
0000
0010
1000
0000
1001
0000
,
0001
0000
0010
0000
0100
0000
1000
0100
1000
0100
0000
0010
0100
0000
1000
0000
,
1010
0000
0000
0000
0101
0000
0000
0000
0011
0000
0000
0001
1000
0000
1001
0000
,
1000
0000
0010
0000
0100
0000
0001
0000
1000
0001
1000
0001
2000
0000
3001
0000
,
0011
0000
0000
0000
1100
0000
0000
0000
1010
0000
0000
1000
0001
0000
1001
0000
,
0001
0000
0010
0000
1000
0000
0010
0000
0100
1000
0000
0001
0000
0000
0100
0000
,
0020
0000
0000
0000
0130
0000
0000
0000
0001
0000
0000
0010
0000
0000
0200
0000
,
0000
0000
1000
0000
1300
0000
0000
0000
0001
0100
0001
0000
1000
0100
1000
0000
,
1010
0000
0000
0000
0101
0000
0000
0000
1100
0000
0000
0010
0001
0000
1001
0000
,
0000
0000
0001
0100
0001
0000
0000
0000
1000
0100
1000
0200
0000
0000
0300
0000
,
1010
0000
0000
0000
0101
0000
0000
0000
1100
0000
0000
0010
1000
0000
1001
0000
,
0000
0000
1000
0010
1000
0000
0000
0000
0001
0010
0001
0020
0000
0000
0030
0000
,
0101
0000
0000
0000
1010
0000
0000
0000
0011
0000
0000
0100
0001
0000
1001
0000
,
0000
0000
1000
0010
1000
0000
0000
0000
0001
0100
0001
0200
0000
0000
0310
0000
,
2000
0000
0000
0000
3001
0000
0000
0000
1000
0000
0000
0010
0000
0000
0100
0000
,
0001
0000
1000
0100
0010
0001
0000
0000
1000
0000
0010
0100
0000
0010
0100
0000
,
0101
0000
0100
0000
0110
0000
0010
0000
1010
0000
0000
0011
0000
0000
0100
0000
,
2002
3003
0000
0000
;

//---------------dance-single - ----------------
#NOTES:
     dance-single:
     :
     Challenge:
     5:
     0.374,0.417,0.587,0.721,0.010,136.000,61.000,75.000,248.000,0.000,0.000,0.374,0.417,0.587,0.721,0.010,136.000,61.000,75.000,248.000,0.000,0.000:
0000
0000
0000
0000
,
0000
0000
0000
0000
,
0000
0000
0000
0000
,
0000
0000
0000
0000
,
0110
M0MM
0010
M0MM
,
2002
0000
0000
0000
0000
0000
3003
MMMM
,
0110
M0MM
0010
M0MM
,
2002
0000
0000
0000
0000
0000
3003
MMMM
,
0110
M0MM
0010
M0MM
,
2002
0000
0000
0000
0000
0000
3003
MMMM
,
0110
M0MM
0010
M0MM
,
2002
0000
0000
0000
0000
0000
3003
MMMM
,
2000
0100
3002
0100
,
2003
0010
3002
0010
,
2003
0010
3002
0010
,
2003
0100
3002
0100
,
2003
0010
3200
0001
,
0320
0001
0230
1000
,
0320
1000
0032
0010
,
0203
0001
2300
0100
,
3002
0010
2003
0010
,
3002
0100
2003
0100
,
3002
0100
2003
0100
,
3002
0010
2003
0010
,
3002
0100
0023
1000
,
0230
1000
0320
0001
,
0230
0001
2300
0100
,
3020
0130
0002
1000
,
2000
0000
0000
0000
,
0000
0000
0000
0000
,
0000
0000
0000
0000
,
0000
0000
0000
0000
,
0000
0000
0000
0000
,
0000
0000
0000
0000
,
0000
3003
0001
1000
,
0001
0100
0001
0100
,
0000
0000
0000
0000
,
1001
MMMM
1001
MMMM
2002
0000
3003
MMMM
,
1001
MMMM
1001
MMMM
2002
0000
3003
MMMM
,
1001
MMMM
1001
MMMM
2002
0000
3003
MMMM
,
1001
MMMM
1001
MMMM
2002
0000
3003
MMMM
,
1001
MMMM
1001
MMMM
2002
0000
3003
MMMM
,
1001
MMMM
1001
MMMM
2002
0000
3003
MMMM
,
1001
MMMM
1001
MMMM
2002
0000
3003
MMMM
,
1001
MMMM
1001
MMMM
2002
0000
3003
MMMM
,
1001
MMMM
1001
MMMM
2002
0000
3003
MMMM
,
1001
MMMM
1001
MMMM
2002
0000
3003
MMMM
,
1001
MMMM
1001
MMMM
2002
0000
3003
MMMM
,
1001
MMMM
1001
MMMM
2002
0000
3003
MMMM
,
1001
MMMM
1001
MMMM
2002
0000
3003
MMMM
,
1001
MMMM
1001
MMMM
2002
0000
3003
MMMM
,
1001
MMMM
1001
MMMM
2002
0000
3003
MMMM
,
1001
MMMM
1001
MMMM
2002
0000
3003
MMMM
,
1100
0000
0000
0000
0000
0000
MMMM
0000
0000
0000
0000
0000
0011
0000
0000
0000
0000
0000
MMMM
0000
0000
0000
0000
0000
0101
0000
0000
0000
MMMM
0000
0000
0000
0000
1010
0000
0000
0000
0000
0000
0000
0000
0000
MMMM
0000
0000
0000
0000
0000
,
2002
3003
0000
0000
;

//---------------dance-single - ----------------
#NOTES:
     dance-single:
     :
     Easy:
     4:
     0.282,0.235,0.029,0.164,0.000,185.000,3.000,17.000,0.000,0.000,0.000,0.282,0.235,0.029,0.164,0.000,185.000,3.000,17.000,0.000,0.000,0.000:
0000
0000
0000
0000
,
0000
0000
0000
0000
,
0000
0000
0000
0000
,
0000
0000
0000
0000
,
1000
0100
2000
3000
,
0001
0100
0002
0003
,
1000
0010
2000
3000
,
0001
0010
0001
1001
,
0001
0100
0002
0003
,
1000
0100
2000
3000
,
0001
0010
0001
0001
,
1000
0010
1000
1000
,
0001
0010
0001
0010
,
0100
1000
0100
1000
,
0001
0100
0001
0100
,
0010
1000
0010
1000
,
0001
1000
0001
1000
,
0010
0100
0010
0100
,
0001
1000
0001
1000
,
0100
0010
0100
0010
,
0100
1000
0010
1000
,
0100
0010
0001
0010
,
0100
1000
0001
1000
,
0010
0100
0001
0100
,
0010
1000
0100
0010
,
0001
0010
0100
1000
,
0001
0100
0010
1000
,
0010
0100
0001
1000
,
0002
0003
0020
0030
,
0200
0300
2000
3000
,
0002
0003
0200
0300
,
0010
1000
0001
0100
,
0002
0003
0020
0030
,
0200
0300
2000
3000
,
0001
0001
1000
1000
,
0010
0010
0100
0100
,
0001
1000
1001
0000
,
1000
0010
0001
0010
,
0100
0010
1000
1000
,
0001
0010
1000
0010
,
0100
0010
0001
0001
,
1000
0100
0001
0100
,
0010
0100
1000
1000
,
0001
0100
1000
0100
,
0010
0100
0001
0001
,
1000
0100
0001
0010
,
0001
0100
1000
1000
,
0001
0100
1000
0010
,
1000
0100
0001
0001
,
1000
0010
0001
0100
,
0001
0010
1000
1000
,
0001
0010
1000
0100
,
1000
0010
0001
0001
,
1000
0010
0100
0001
,
2002
3003
0000
0000
;

//---------------dance-single - ----------------
#NOTES:
     dance-single:
     :
     Medium:
     6:
     0.474,0.391,0.356,0.279,0.024,279.000,37.000,29.000,0.000,0.000,0.000,0.474,0.391,0.356,0.279,0.024,279.000,37.000,29.000,0.000,0.000,0.000:
0000
0000
0000
0000
,
0000
0000
0000
0000
,
0000
0000
0000
0000
,
0000
0000
0000
0000
,
1000
0100
1000
0000
0002
0000
1003
0000
,
0001
0010
0001
0000
1100
0000
0101
0000
,
1000
0010
1000
0000
0002
0000
1003
0000
,
0001
0010
0001
0000
1000
1000
0001
0001
,
0100
0010
0100
0000
0002
0000
1003
0000
,
0010
0100
0010
0000
1010
0000
0011
0000
,
1000
0010
0100
0000
0002
0000
1003
0000
,
0001
0010
0100
0000
1000
0001
1000
0001
,
1000
0010
1000
0010
0200
0000
0301
0000
,
1000
0100
1000
0100
0010
0010
0010
0000
,
0001
0010
0001
0010
0200
0000
1300
0000
,
0001
1000
0001
1000
0010
0010
0101
0000
,
1000
0100
1000
0001
2000
0000
3010
0000
,
0001
1000
0001
0100
0002
0000
0013
0000
,
1000
0100
0010
0000
0001
0100
0010
0000
,
1000
0100
0010
0001
1000
1000
1000
0000
,
0001
0100
0001
0100
0020
0000
1030
0000
,
0001
0010
0001
0010
0100
0100
0100
0000
,
1000
0100
1000
0100
0020
0000
0031
0000
,
1000
0001
1000
0001
0100
0100
1010
0000
,
0001
0010
0001
1000
0002
0000
0103
0000
,
1000
0001
1000
0010
2000
0000
3100
0000
,
0001
0010
0100
0000
1000
0010
0100
0000
,
0001
0010
0100
1000
0001
0001
0001
0000
,
2000
0100
0001
3010
,
0002
0100
1000
0013
,
2000
0010
0100
3001
,
1100
1100
0101
0101
,
1002
0010
0100
1003
,
2001
0100
0010
3001
,
1000
0100
0010
0000
0001
0001
1000
1000
,
0001
0100
0010
1000
0010
0100
0001
0000
,
1000
0000
0000
0010
0000
0000
0100
0000
2002
0000
0000
0000
3003
0000
0000
0000
,
1100
0101
2001
3100
,
1000
0010
0100
0010
1000
1000
0001
0000
,
0101
1100
1002
0103
,
0001
0010
1000
0010
0001
0001
1000
0000
,
0101
1100
2001
3100
,
1000
0010
0001
0010
0100
0100
0001
0001
,
2000
0000
0000
0000
3100
0000
0000
0000
1000
0000
0000
0010
0000
0000
0100
0000
,
0001
0000
1000
0000
1000
0000
0000
0000
0001
0000
0000
0010
0000
0000
0100
0000
,
1100
0101
0120
0130
,
0001
0010
0100
0000
1000
1000
1000
0000
,
1010
0011
0210
0310
,
1000
0010
0100
0000
0001
0001
0001
0000
,
1100
0011
0120
0130
,
0010
0001
0100
0000
0010
0010
0010
0000
,
2010
0000
0000
0000
3100
0000
0000
0000
1000
0000
0000
0100
0000
0000
0010
0000
,
0001
0000
1000
0000
0001
0000
0000
0000
0100
0000
0000
0010
0000
0000
1000
0000
,
0101
1010
1100
0011
,
2002
3003
0000
0000
;
