#TITLE:DM STAR ~関西 energy style~;
#SUBTITLE:;
#ARTIST:NAOKI;
#TITLETRANSLIT:DM STAR ~Kansai energy style~;
#SUBTITLETRANSLIT:;
#ARTISTTRANSLIT:;
#GENRE:;
#CREDIT:;
#BANNER:DM STAR ~Kansai energy style~.png;
#BACKGROUND:DM STAR ~Kansai energy style~-bg.png;
#LYRICSPATH:;
#CDTITLE:;
#MUSIC:DM STAR ~Kansai energy style~.mp3;
#OFFSET:-1.858;
#SAMPLESTART:39.700;
#SAMPLELENGTH:17.220;
#SELECTABLE:YES;
#BPMS:0.000=155.100
;
#STOPS:
;
#BGCHANGES:;
#KEYSOUNDS:;
#ATTACKS:;

//---------------dance-single - ----------------
#NOTES:
     dance-single:
     :
     Hard:
     9:
     0.758,0.693,0.390,0.224,0.506,566.000,47.000,27.000,0.000,0.000,0.000,0.758,0.693,0.390,0.224,0.506,566.000,47.000,27.000,0.000,0.000,0.000:
0000
0000
0000
0000
,
0000
0000
0000
0000
,
0000
0000
0000
0000
,
0000
0000
0000
0000
,
1000
0000
0201
0000
1300
0100
0001
0000
,
1000
0000
0021
0000
0031
0010
1000
0000
,
0010
0000
1200
0000
0301
0100
1000
0000
,
0001
0100
0010
1000
0001
0001
1000
0000
,
0010
0000
0010
0000
0100
0000
0001
0000
1000
0100
1000
0000
1001
0000
0000
0000
,
1000
0000
0010
0000
0100
0001
0100
0001
1000
0000
0010
0000
0100
0000
0000
0000
,
0001
0000
0010
0000
0100
1000
0100
1000
0001
0000
0010
0000
0100
0000
0000
0000
,
1000
0010
1000
0000
0001
0000
0010
0001
0010
0000
0001
0000
1000
0000
0000
0000
,
0001
0100
0000
0010
0000
1000
0010
0000
0100
0000
0001
0000
1000
0000
0000
0000
,
0001
0010
0000
1100
0000
0000
1000
0000
0001
0100
0010
0000
1000
0000
0000
0000
,
0001
0010
0000
0100
1000
0000
0001
1000
0001
0000
0100
0000
0010
0000
0000
0000
,
1000
0010
0100
0000
0001
0000
0010
0001
0100
0000
0010
1000
0100
0000
0000
0000
,
1000
0001
0000
1000
0001
0000
0100
0000
0010
1000
0001
0000
0200
0000
0300
0000
,
0001
0010
0001
0000
0010
0000
0100
0010
0100
0000
0010
0000
0100
1000
0100
0000
,
2000
0000
0010
0000
3010
0000
0000
0000
0100
0000
0001
0000
1000
0001
1000
0000
,
0001
0100
0001
0000
0100
0000
0010
0100
0010
0000
0100
0000
0010
1000
0010
0000
,
2000
0000
0100
0000
3100
0000
0000
0000
0010
0000
0001
0000
1000
0001
1000
0000
,
0001
0100
0010
0000
0100
0000
0010
1000
0001
0000
1000
0000
0001
1000
0100
0000
,
2000
0000
0010
0000
3010
0000
0000
0000
0100
0000
0001
0000
1000
0001
1000
0000
,
0001
0010
0100
0000
0010
0000
0100
1000
0001
0000
1000
0000
0001
0100
0010
0000
,
1000
0100
1000
0100
0010
0001
0010
0001
2000
0000
0000
0000
3001
0000
0000
0000
,
1020
0000
0031
0000
1000
0010
0100
0001
,
1000
1000
0011
0000
1000
1000
0101
0000
,
0021
1000
1030
0000
0001
0100
0010
1000
,
0001
0001
1100
0000
0001
0001
1010
0000
,
1200
0001
0301
0000
1000
0100
0010
0001
,
0100
0100
0011
0000
0100
0100
1010
0000
,
0201
1000
1300
0000
0001
0100
0010
1000
,
0010
0000
0010
0000
0101
0000
0000
0000
0010
0000
0100
1000
0001
1000
0001
0000
,
1000
0000
0010
0000
0100
0001
0000
0100
0001
0000
0010
0001
0000
0010
0001
0000
,
0010
0100
0000
0010
0100
0000
1000
0100
0000
1000
0100
0000
1000
0001
0000
0001
,
1000
0000
0100
0000
1000
0010
0000
1000
0010
0000
0100
0010
0000
0100
0010
0000
,
0100
0001
0000
0100
0001
0000
0010
0001
0000
0010
0001
0000
1000
0001
0000
0001
,
1000
0000
0010
0000
0100
0001
0000
0100
0001
0000
1000
0001
0000
1000
0001
0000
,
1000
0000
0100
0000
0010
0001
0000
0010
0001
0000
1000
0001
0000
1000
0001
0000
,
1000
0000
0010
0000
0100
0001
0000
1000
0010
0000
0100
0001
0000
1000
0010
0000
,
1000
0000
0100
0000
0010
0001
0000
1000
0100
0000
0010
0001
0000
1000
0100
0000
,
1000
1000
0001
0001
0101
0001
1100
0000
,
1000
0000
0010
0000
0001
0000
0010
0100
0010
0000
1000
0000
0001
0000
0000
0000
,
1000
0000
0001
0100
0001
0000
0001
0000
1000
0100
1000
0000
1000
0000
0000
0000
,
0001
0010
0000
1100
0000
0000
0000
1000
0001
0000
0001
1000
0000
0000
0000
0000
,
0011
0000
0010
0100
1000
0000
0000
0000
1010
0000
0010
0100
0001
0000
0000
0000
,
1000
0000
0100
0010
0001
0000
0010
0100
1000
0000
0001
0000
1000
0000
0000
0000
,
0011
0001
1010
0000
0101
0001
1100
0000
,
1000
0000
0001
1000
0000
0001
0000
0100
0010
0000
1000
0000
2002
0000
3003
0000
,
0001
0010
0001
0000
0010
0000
0100
0010
0100
0000
0010
0000
0100
1000
0100
0000
,
2000
0000
0010
0000
3010
0000
0000
0000
0100
0000
0001
0000
1000
0001
1000
0000
,
0001
0100
0001
0000
0100
0000
0010
0100
0010
0000
0100
0000
0010
1000
0010
0000
,
2000
0000
0100
0000
3100
0000
0000
0000
0010
0000
0001
0000
1000
0001
1000
0000
,
0001
0100
0010
0000
0100
0000
0010
1000
0001
0000
1000
0000
0001
1000
0100
0000
,
2000
0000
0010
0000
3010
0000
0000
0000
0100
0000
0001
0000
1000
0001
1000
0000
,
0001
0010
0100
0000
0010
0000
0100
1000
0001
0000
1000
0000
0001
0100
0010
0000
,
1000
0100
1000
0100
0010
0001
0010
0001
2000
0000
0000
0000
3001
0000
0000
0000
,
2000
0010
0100
3100
,
0002
0010
0100
0103
,
2000
0100
0010
3010
,
0002
0100
0010
0013
,
2000
0010
0001
3100
,
0002
0010
1000
0103
,
1100
0011
0101
1010
,
1001
0000
0000
0000
0110
0000
0000
0000
1000
0001
1000
0001
1000
0001
1000
0001
,
0010
0000
1001
0000
1000
0010
0100
0001
,
1000
1000
0011
0000
1000
1000
0101
0000
,
0010
0100
1001
0000
0001
0100
0010
1000
,
0001
0001
1100
0000
0001
0001
1010
0000
,
0100
0010
1001
0000
1000
0100
0010
0001
,
0100
0100
0011
0000
0100
0100
1010
0000
,
1100
1000
0001
0000
0101
0001
1000
0001
,
1001
0000
0001
0000
0100
0010
0000
0000
0100
0010
0000
0000
1000
0000
1002
0000
,
0000
0000
0103
0000
0010
0100
0000
0000
0010
0100
0001
0000
1000
0000
1001
0000
,
0001
0000
0001
0000
0100
0000
0010
1000
0001
0000
0100
0000
0001
1000
0100
0000
,
0010
2002
0000
0000
,
3003
0000
0000
0000
;

//---------------dance-single - ----------------
#NOTES:
     dance-single:
     :
     Medium:
     7:
     0.534,0.501,0.746,0.149,0.033,343.000,90.000,18.000,0.000,0.000,0.000,0.534,0.501,0.746,0.149,0.033,343.000,90.000,18.000,0.000,0.000,0.000:
0000
0000
0000
0000
,
0000
0000
0000
0000
,
0000
0000
0000
0000
,
0000
0000
0000
0000
,
1100
0101
0001
1000
,
1010
0011
0001
1000
,
0110
1001
0010
0100
,
0001
0010
0100
1000
0001
1000
0001
0000
,
2002
0000
0000
3003
,
1000
0100
0010
0000
0001
0010
0100
0000
,
1000
0010
0100
0000
0001
0100
0010
0000
,
1000
0001
0010
0000
0001
1000
0010
0000
,
1000
0001
0100
0000
0001
1000
0100
0000
,
1000
0100
0010
0000
0001
0001
0001
0000
,
1000
0010
0100
0000
0001
0001
0001
0000
,
1000
0100
0001
0000
1000
0010
0001
0000
,
1000
0010
0100
0001
0100
0010
1001
0000
,
0011
1100
0101
1010
,
1001
1001
0110
0110
,
0001
0010
1000
0010
,
0100
1000
0001
0000
0100
0001
1000
0000
,
1100
0011
1010
0101
,
1001
1001
0110
0110
,
1100
1000
0001
0000
0101
0001
1000
0000
,
0001
0010
1000
0010
0002
0000
1003
0000
,
1100
0000
0001
0100
,
0010
1000
0100
0000
0010
0001
0100
0000
,
0010
1001
0100
1001
,
1000
0010
0100
0001
1000
0001
1000
0000
,
0011
0000
0100
1000
,
0001
0100
0010
0000
1000
0100
0010
0000
,
0011
0001
0100
0000
1010
1000
0100
0000
,
1000
0100
0001
0100
1100
0101
1001
0000
,
2000
3000
0020
0030
,
0200
0300
0002
0003
,
2000
3000
0200
0300
,
0020
0030
0002
0003
,
0000
0000
1000
0000
0000
0001
0000
0000
0010
0000
0000
0001
0000
0000
1000
0000
,
0000
0000
0010
0000
0000
1000
0000
0000
0001
0000
0000
0010
0000
0000
0001
0000
,
0000
0000
1000
0000
0000
0100
0000
0000
1000
0000
0000
0001
0000
0000
0100
0000
,
0000
0000
0001
0000
0000
1000
0000
0000
0100
0000
0000
1000
0000
0000
0001
0000
,
0101
0000
1100
0000
0001
0010
0100
0000
,
1100
0000
0101
0000
1000
0010
0100
0000
,
0011
0000
1010
0000
0001
0010
0100
0000
,
1010
0000
0011
0000
1000
0010
0100
0000
,
0101
0000
1010
0000
0001
0010
0100
0000
,
1100
0000
0011
0000
1000
0010
0100
0000
,
0101
0001
1000
0000
1100
1000
0001
0000
,
1000
0010
0100
0001
0010
0100
1000
0000
,
0011
1100
0101
1010
,
1001
1001
0110
0110
,
0001
0010
1000
0010
,
0100
1000
0001
0000
0100
0001
1000
0000
,
1100
0011
1010
0101
,
1001
1001
0110
0110
,
1100
1000
0001
0000
0101
0001
1000
0000
,
0001
0010
1000
0010
0002
0000
1003
0000
,
0002
0000
0013
0000
,
0200
0000
1300
0000
,
0002
0000
0103
0000
,
0020
0000
1030
0000
,
0001
0010
1100
0000
,
1000
0010
0101
0000
,
0001
1000
0001
0000
0110
1001
0110
0000
,
0001
0010
0100
1000
0010
0100
1001
0000
,
1100
0101
0001
0100
,
0010
1000
0100
0000
0010
0001
0100
0000
,
0010
1001
0100
1001
,
1000
0010
0100
0001
1000
0001
1000
0000
,
0011
1100
0100
1000
,
0001
0100
0010
0000
1000
0100
0010
0000
,
0011
0001
0100
0000
1010
1000
0100
0000
,
1000
0100
0001
0100
1100
0000
0101
0000
,
1000
0010
0001
0010
1010
0000
0011
0000
,
1000
0100
0001
0100
0110
0000
1001
0000
,
1100
0101
2002
0000
3003
0000
0000
0000
;

//---------------dance-single - ----------------
#NOTES:
     dance-single:
     :
     Easy:
     4:
     0.392,0.409,0.547,0.166,0.000,245.000,66.000,20.000,0.000,0.000,0.000,0.392,0.409,0.547,0.166,0.000,245.000,66.000,20.000,0.000,0.000,0.000:
0000
0000
0000
0000
,
0000
0000
0000
0000
,
0000
0000
0000
0000
,
0000
0000
0000
0000
,
1000
0000
0001
0000
,
0100
0000
0010
0000
,
1000
0001
1000
0001
,
0100
0010
0100
0010
,
2002
0000
0000
3003
,
0010
0010
1000
0100
,
0010
0001
0100
0010
,
0100
0100
0001
0010
,
0100
1000
0010
0100
,
0010
0001
0010
1000
,
0100
0010
0001
0010
,
0100
1000
0100
0001
,
0100
0100
0100
0000
,
1001
0100
0001
1000
,
1001
0100
1000
0001
,
1001
1001
1100
1100
,
0110
1001
0110
1001
,
1001
0001
0100
0010
,
1001
1000
0100
0010
,
1001
1001
0101
0101
,
0110
1001
0100
0000
,
2000
0010
0001
3100
,
2000
0100
0001
3010
,
2000
3100
0002
0103
,
0110
1001
0110
0010
,
0002
0100
1000
0013
,
0002
0010
1000
0103
,
0002
0103
2000
3100
,
0110
1001
0110
1001
,
1000
0000
0000
1000
,
0001
0000
0000
0000
,
0001
1000
0000
0100
,
0100
0000
0000
0000
,
1001
0001
0000
0000
,
0001
0100
0000
0000
,
1000
0100
0000
0000
,
0110
1001
0000
0000
,
1000
1001
1000
1100
,
0100
0010
0001
0100
,
0001
1001
0001
0101
,
0100
1000
0010
0001
,
1000
1000
0001
0001
,
0010
0001
0100
1000
,
0001
0001
1000
1000
,
0100
1000
0010
0001
,
0110
1000
0001
0100
,
0110
0001
1000
0100
,
1001
1001
1010
1010
,
1001
0011
0110
0011
,
0110
1000
0010
0100
,
0110
0001
0010
0100
,
1001
1001
0101
0101
,
1001
1010
0100
0000
,
1000
0000
0100
0000
,
0010
0000
0001
0000
,
0001
0000
0100
0000
,
0010
0000
1000
0000
,
1000
0001
0000
0000
,
0100
0010
0000
0010
,
1000
0001
1000
0001
,
0010
0100
0010
0100
,
2000
0100
0001
3010
,
0002
0010
1000
0103
,
2000
3100
0002
0013
,
1001
1100
1001
0110
,
0002
0010
1000
0103
,
2000
0100
0001
3010
,
0002
0103
2000
3010
,
1001
0101
1001
0000
,
1001
1010
1001
0000
,
1001
0011
1001
0000
,
0110
2002
0000
0000
,
3003
0000
0000
0000
;
