#VERSION:0.81;
#TITLE:CLICK;
#SUBTITLE:;
#ARTIST:ClariS;
#TITLETRANSLIT:;
#SUBTITLETRANSLIT:;
#ARTISTTRANSLIT:;
#GENRE:;
#ORIGIN:;
#CREDIT:;
#BANNER:CLICK.png;
#BACKGROUND:CLICK-bg.png;
#PREVIEWVID:;
#JACKET:CLICK-jacket.png;
#CDIMAGE:;
#DISCIMAGE:;
#LYRICSPATH:;
#CDTITLE:;
#MUSIC:CLICK.mp3;
#OFFSET:-0.125;
#SAMPLESTART:48.080;
#SAMPLELENGTH:17.000;
#SELECTABLE:YES;
#BPMS:0.000=135.000;
#STOPS:;
#DELAYS:;
#WARPS:;
#TIMESIGNATURES:0.000=4=4;
#TICKCOUNTS:0.000=4;
#COMBOS:0.000=1;
#SPEEDS:0.000=1.000=0.000=0;
#SCROLLS:0.000=1.000;
#FAKES:;
#LABELS:0.000=Song Start;
#BGCHANGES:;
#KEYSOUNDS:;
#ATTACKS:
;

//---------------dance-single - Blank----------------
#NOTEDATA:;
#CHARTNAME:;
#STEPSTYPE:dance-single;
#DESCRIPTION:Blank;
#CHARTSTYLE:;
#DIFFICULTY:Hard;
#METER:7;
#RADARVALUES:0.501,0.501,0.284,0.318,0.142,256.000,25.000,28.000,0.000,0.000,0.000,0.000,0.000,0.501,0.501,0.284,0.318,0.142,256.000,25.000,28.000,0.000,0.000,0.000,0.000,0.000;
#CREDIT:;
#NOTES:
0000
0000
0000
0000
,
0000
0000
0000
0000
,
0000
0000
0000
0000
,
0000
0000
0000
0000
,
0000
0000
0000
0000
0000
0000
1000
0001
,
1000
0000
0000
0100
0000
0000
0010
0000
0002
0000
0000
0000
1003
0000
0001
0000
,
1000
0000
0000
0010
0000
0000
0100
0000
0002
0000
0000
0000
1003
0000
0001
0000
,
1000
0000
0000
0010
0000
0000
0001
0000
0020
0000
0000
0000
0130
0000
0001
0000
,
1000
0100
0010
0001
0010
0100
1000
0001
,
0101
0000
0001
0010
0100
1000
0002
1000
,
1003
0000
0001
0010
0100
1000
0002
1000
,
1003
0000
0101
0000
1100
0000
1000
0001
,
2000
0000
3001
1000
0001
0100
0010
1000
,
0001
0000
1100
0000
1000
0010
0100
0001
,
2000
0000
3001
0000
0010
0100
0010
0001
,
1000
0000
0101
0000
1100
0000
1000
0001
,
0100
0000
1010
0000
0011
0000
0001
1000
,
0001
0000
0000
0001
0000
0000
0001
0000
0000
0000
0010
0000
0100
0000
1000
0000
,
0010
0000
0000
0010
0000
0000
0010
0000
0200
0000
0000
0000
0301
0000
0010
0000
,
0100
0000
0000
0100
0000
0000
0100
0000
0000
0000
1000
0000
0010
0000
0100
0000
,
0002
0000
1003
0000
0001
0010
0100
1000
,
0010
0000
0000
0010
0000
0000
0010
0000
0000
0000
0100
0000
0001
0000
1000
0000
,
0001
0000
0000
0001
0000
0000
0002
0000
0000
0000
1000
0000
1003
0000
2100
0000
,
0000
0010
0010
0001
3001
0000
1000
0102
,
0000
0010
0010
1003
0001
0100
1000
0100
,
0020
2030
3002
0203
,
0310
0000
1000
0000
1000
0000
0000
1000
0001
0000
0010
0000
0100
0000
0000
0000
,
1100
0000
0101
0000
1001
0000
0001
0100
,
0001
0000
0000
1000
0000
0000
0100
0000
2000
0000
0000
0000
3001
0000
1000
0000
,
0001
0000
0000
0010
0000
0000
0100
0000
1000
0000
0000
0000
0001
0000
1000
0000
,
0001
0000
0000
0100
0000
0000
0010
0000
2000
0000
0000
0000
3001
0000
0000
0000
,
1010
0000
0011
0000
1001
0000
0001
0010
,
0001
0000
0000
1000
0000
0000
0010
0000
2000
0000
0000
0000
3001
0000
0010
0000
,
0100
0000
0000
1000
0000
0000
0100
0000
0010
0000
0000
0000
0001
0000
0100
0000
,
0010
0000
0000
1000
0000
0000
0010
0000
0200
0000
0000
0000
0301
0000
0000
0000
,
1100
0000
0110
0000
0011
0000
0001
0100
,
1000
0000
0000
0100
0000
0000
0001
0000
2000
0000
0000
0000
3001
0000
1000
0000
,
0100
0000
0000
0010
0000
0000
0001
0000
1000
0000
0000
0000
0001
0000
0100
0000
,
0010
0000
0000
1000
0000
0000
0001
0000
0020
0000
0000
0000
0130
0000
0000
0000
,
0101
0000
0110
0000
1010
0000
0001
0010
,
1000
0000
0000
0010
0000
0000
0001
0000
1000
0000
0000
0000
0001
0000
0100
0000
,
1000
0000
0000
0100
0000
0000
0010
0000
2000
0000
0000
0000
3100
0000
0001
0000
,
0100
0000
0000
0010
0000
0000
0001
0000
1000
0000
0000
0100
0000
0000
1000
0000
,
0001
0000
0000
0010
0000
0000
0100
0000
2000
0000
0000
0000
3001
0000
1000
0000
,
0001
0000
0000
0100
0000
0000
0010
0000
2000
0000
0000
0000
3001
0000
1000
0000
,
0001
0000
0000
0100
0000
0000
1000
0000
0200
0000
0000
0000
0310
0000
1000
0000
,
0001
0010
0100
1000
0100
0010
0001
1000
,
1010
0000
0001
0011
0000
1000
2002
0000
,
0000
0000
0000
0000
,
3003
0000
0000
0000
;

//---------------dance-single - Blank----------------
#NOTEDATA:;
#CHARTNAME:;
#STEPSTYPE:dance-single;
#DESCRIPTION:Blank;
#CHARTSTYLE:;
#DIFFICULTY:Easy;
#METER:3;
#RADARVALUES:0.258,0.250,0.011,0.102,0.000,149.000,1.000,9.000,0.000,0.000,0.000,0.000,0.000,0.258,0.250,0.011,0.102,0.000,149.000,1.000,9.000,0.000,0.000,0.000,0.000,0.000;
#CREDIT:;
#NOTES:
0000
0000
0000
0000
,
0000
0000
0000
0000
,
0000
0000
0000
0000
,
0000
0000
0000
0000
,
0000
0000
0000
0000
,
1000
0010
0200
0300
,
0001
0100
0020
0030
,
1000
0100
0020
0030
,
0001
0010
0100
1000
,
0001
0000
1000
0010
,
1000
0000
0001
0010
,
0001
0000
1000
0100
,
1000
0000
0001
0100
,
0001
0000
1000
0010
,
0100
0000
0001
0100
,
0010
0000
1000
0100
,
0010
0000
0001
0010
,
0100
1000
0010
1000
,
0001
1000
0100
0000
,
0010
0001
1000
0001
,
0200
0300
0020
0030
,
1000
0100
0001
0100
,
1000
0010
0001
0010
,
1000
0100
0010
0001
,
1000
0010
0100
0001
,
1000
0100
0001
0010
,
1000
0001
1000
1001
,
0001
0100
0010
1000
,
0010
0100
0001
0000
,
1000
0100
0010
0001
,
0010
0100
1000
1000
,
0001
0100
1000
0100
,
0010
1000
0001
0000
,
1000
0100
0001
0100
,
0010
0001
1000
0000
,
0001
0100
1000
0010
,
1000
0100
0001
0000
,
1000
0100
0001
0010
,
0001
0100
1000
1000
,
0001
0010
1000
0100
,
1000
0010
0001
0000
,
1000
0100
0001
0010
,
1000
0010
0001
0100
,
1000
0010
0200
0300
,
0001
0100
0020
0030
,
1000
0100
0020
0030
,
0001
0010
0100
1000
,
0001
0000
0000
0100
0000
0000
0020
0000
,
0000
0000
0000
0000
,
0030
0000
0000
0000
;

//---------------dance-single - Blank----------------
#NOTEDATA:;
#CHARTNAME:;
#STEPSTYPE:dance-single;
#DESCRIPTION:Blank;
#CHARTSTYLE:;
#DIFFICULTY:Medium;
#METER:5;
#RADARVALUES:0.355,0.361,0.091,0.193,0.028,194.000,8.000,17.000,0.000,0.000,0.000,0.000,0.000,0.355,0.361,0.091,0.193,0.028,194.000,8.000,17.000,0.000,0.000,0.000,0.000,0.000;
#CREDIT:;
#NOTES:
// measure 0
0000
0000
0000
0000
,  // measure 1
0000
0000
0000
0000
,  // measure 2
0000
0000
0000
0000
,  // measure 3
0000
0000
0000
0000
,  // measure 4
0000
0000
0000
0000
,  // measure 5
1000
0000
0010
0000
0100
0001
1000
0000
,  // measure 6
0001
0000
0010
0000
0100
1000
0001
0000
,  // measure 7
1000
0000
0010
0000
0100
0001
0010
0000
,  // measure 8
0100
0000
1000
0000
0001
0100
0010
1000
,  // measure 9
0001
0000
0010
0000
0100
1000
0100
0000
,  // measure 10
1000
0000
0010
0000
0100
0001
0100
0000
,  // measure 11
0010
1000
0100
0001
,  // measure 12
0010
0001
0100
1000
,  // measure 13
0001
0000
0100
0000
0010
1000
0001
0000
,  // measure 14
0010
0000
0001
0000
1000
0001
0100
0000
,  // measure 15
0010
0001
0100
1000
,  // measure 16
0010
1000
1100
0101
,  // measure 17
1000
0000
0000
1000
0000
0000
2000
0000
0000
0000
3000
0000
0100
0000
0000
0000
,  // measure 18
0010
0000
0000
0010
0000
0000
0020
0000
0000
0000
0030
0000
0001
0000
0000
0000
,  // measure 19
0100
0000
0000
0100
0000
0000
0200
0000
0000
0000
0300
0000
0010
0000
0000
0000
,  // measure 20
1000
0100
0001
0100
,  // measure 21
0010
0000
0000
0010
0000
0000
0020
0000
0000
0000
0030
0000
0100
0000
0000
0000
,  // measure 22
1000
0000
0000
1000
0000
0000
2000
0000
0000
0000
3000
0000
0001
0000
0002
0000
,  // measure 23
0000
0000
0100
0000
0103
0000
0010
2000
,  // measure 24
0000
0000
0001
0000
3001
0000
0200
0020
,  // measure 25
0000
0000
0000
0000
,  // measure 26
0330
1100
0101
1001
,  // measure 27
0001
0000
0100
0000
1000
0000
0100
0001
,  // measure 28
0100
0001
0020
0130
,  // measure 29
1000
0000
0010
0000
0001
0000
0010
1000
,  // measure 30
0010
0100
0001
1001
,  // measure 31
0001
0000
0010
0000
1000
0000
0010
0100
,  // measure 32
0010
0001
2000
3001
,  // measure 33
1000
0000
0010
0100
0001
0000
1000
0000
,  // measure 34
0001
0000
0010
0100
2000
0000
3001
0000
,  // measure 35
1000
0000
0010
0000
0001
0000
0010
1000
,  // measure 36
0010
1000
0200
0310
,  // measure 37
0001
0000
0100
0000
1000
0000
0100
0001
,  // measure 38
0100
0010
1000
1001
,  // measure 39
1000
0000
0100
0000
0001
0000
0100
0010
,  // measure 40
0100
1000
0002
1003
,  // measure 41
0001
0000
0100
0010
2000
0000
3001
0000
,  // measure 42
1000
0010
1000
0010
0100
0001
0100
0001
,  // measure 43
1000
0000
0010
0000
0100
0001
1000
0000
,  // measure 44
0001
0000
0010
0000
0100
1000
0001
0000
,  // measure 45
1000
0000
0010
0000
0100
0001
0010
0000
,  // measure 46
0100
0000
1000
0000
0001
0100
0010
1000
,  // measure 47
0001
0000
0000
1000
0000
0000
0220
0000
,  // measure 48
0000
0000
0000
0000
,  // measure 49
0330
0000
0000
0000
;
