#TITLE:Broken;
#SUBTITLE:;
#ARTIST:dj TAKA feat.AiMEE;
#TITLETRANSLIT:;
#SUBTITLETRANSLIT:;
#ARTISTTRANSLIT:;
#GENRE:;
#CREDIT:;
#BANNER:Broken.png;
#BACKGROUND:Broken-bg.png;
#LYRICSPATH:;
#CDTITLE:;
#MUSIC:Broken.mp3;
#OFFSET:-1.139;
#SAMPLESTART:59.480;
#SAMPLELENGTH:18.020;
#SELECTABLE:YES;
#BPMS:0.000=148.000
,80.000=74.000
,96.000=148.000
;
#STOPS:
;
#BGCHANGES:;
#KEYSOUNDS:;
#ATTACKS:;

//---------------dance-single - Blank----------------
#NOTES:
     dance-single:
     :
     Hard:
     9:
     0.709,0.748,0.311,0.671,0.408,409.000,32.000,69.000,0.000,0.000,0.000,0.709,0.748,0.311,0.671,0.408,409.000,32.000,69.000,0.000,0.000,0.000:
0000
0000
0000
0000
,
0000
0000
0000
0000
,
0000
0000
0000
0000
,
0000
0000
0000
0000
,
1000
0001
0011
0001
1000
0010
1010
1000
,
0001
0100
0101
0001
1000
0100
1100
1000
,
0001
0100
1010
1000
0100
0010
0011
0001
,
1001
0000
0000
1000
0001
0000
0100
0000
0010
0000
1000
0100
1000
0100
0010
0001
,
1000
0000
0001
0000
0100
0000
0010
1000
0000
0010
1000
0000
0010
0000
0100
0001
,
0000
0100
0001
0000
0100
0000
0001
0010
0000
0001
0010
0001
0000
1000
0001
0000
,
1000
0010
1000
0000
0010
0000
0100
0001
0000
0100
0001
0000
1000
0000
0100
1000
,
0000
0100
1000
0000
0001
0000
0010
0001
0000
1000
0001
1000
0000
0010
0100
0000
,
0001
0000
1000
0000
0010
0000
0100
0001
0000
0100
0001
0000
0100
0000
0010
1000
,
0000
0010
1000
0000
0010
0000
1000
0100
0000
1000
0100
1000
0000
0001
1000
0000
,
0001
0100
0001
0000
0100
0000
0010
1000
0000
0010
1000
0000
0001
0000
0010
0001
,
0000
0010
0001
0000
1000
0000
0100
1000
0000
0001
1000
0001
0000
0100
0010
0000
,
2001
3000
0020
0030
,
0200
0300
0002
0003
,
2000
3000
0200
0300
,
0020
0000
0030
0000
0001
0100
0010
1000
,
0002
0000
0000
0013
0000
0000
0100
1000
0002
0000
0000
0103
0000
0000
0001
0100
,
0020
0000
0000
1030
0000
0000
0001
1000
0001
0000
0010
0000
1000
0000
0010
0000
,
0200
0000
1300
1000
0002
0000
0010
0000
0103
0000
0002
0000
0023
0000
0230
0000
,
2300
0000
0010
0000
3100
0000
1000
0001
1000
0000
1010
0000
0101
0000
0001
1000
,
0001
1000
1010
1000
0000
0001
0011
0001
,
0000
1000
1100
1000
0000
0001
0101
0001
,
0000
0010
1100
1000
0000
0010
0101
0001
,
0000
0010
1001
0100
0000
0100
1001
0010
,
0102
0000
0010
0000
1000
1000
1003
0000
,
0002
1003
2010
3100
,
1002
0000
0100
0000
0010
0010
0013
0000
,
0001
0010
0001
0000
1000
0010
1000
0000
0001
1000
0001
1000
0010
0100
0010
0100
,
0002
0010
0013
0200
1300
0002
0203
0320
,
1000
0001
1000
0100
1030
0020
2030
3200
,
0010
0001
1300
0002
0010
0100
1003
0002
,
2003
3010
0002
0013
2000
3200
0301
0200
,
0010
0001
1300
0020
1000
0001
0100
0031
,
0010
1000
0100
0001
0200
0310
0002
1003
,
1010
2020
3030
0011
0022
0033
1001
2001
,
0000
0000
0010
0000
0000
0000
3100
0000
0000
0000
1000
0100
1000
0001
0100
0001
,
2000
0010
3010
0200
0001
0301
2000
3100
,
0020
0001
0031
2000
0100
3100
2000
3020
,
0032
0013
0200
0302
1003
0200
0301
0200
,
0010
0301
0100
0010
0002
0203
0320
1030
,
0102
0000
0000
0020
0000
0000
0030
0000
,
2000
0000
0003
0000
0020
0000
0000
3030
,
2002
0000
0000
0000
0000
0000
0000
3003
,
1000
0100
0010
0000
0001
0010
0100
0000
1000
0010
0100
0001
0100
0010
1000
0001
,
1000
0000
0100
0010
0000
0100
0010
0000
0001
0000
0100
0010
0000
0100
0010
0000
,
2000
0000
0010
0000
3010
0000
0100
0001
1000
0000
0100
0000
0001
0000
0100
0000
,
1000
0000
0010
0100
0000
0010
0100
0000
0001
0000
0010
0100
0000
0010
0100
0000
,
2000
0000
0100
0000
3100
0000
0010
0001
1000
0000
0010
0000
0001
0000
0010
0000
,
1000
0000
0001
0100
0000
0010
1000
0000
0001
0000
0010
0000
1000
0000
0010
0000
,
0002
0000
1003
0000
0010
0100
0010
0000
1000
0100
1000
0000
0001
0100
0001
0000
,
1000
0000
0001
0010
0000
0100
1000
0000
0001
0000
1000
0010
0000
0100
0001
0000
,
0101
0000
0001
0000
1100
0000
1000
0000
1001
0000
0001
0100
0010
1000
0010
0200
,
0002
0000
0000
0000
,
0303
0000
0000
0000
;

//---------------dance-single - Blank----------------
#NOTES:
     dance-single:
     :
     Medium:
     6:
     0.440,0.444,0.331,0.350,0.005,247.000,34.000,36.000,0.000,0.000,0.000,0.440,0.444,0.331,0.350,0.005,247.000,34.000,36.000,0.000,0.000,0.000:
0000
0000
0000
0000
,
0000
0000
0000
0000
,
0000
0000
0000
0000
,
0000
0000
0000
0000
,
1000
0100
1000
0000
0001
0100
0001
0000
,
1000
0010
1000
0000
0001
0010
0001
0000
,
1000
0001
1000
0001
0100
0010
0100
0010
,
1000
0000
0000
0001
0000
0000
1000
0000
0001
0000
0010
0000
0100
0000
1000
0000
,
0001
0102
1003
2100
,
3001
0000
1002
0000
0103
0000
0001
0010
,
0100
2100
3001
0102
,
1003
0000
2001
0000
3100
0000
1000
0010
,
0100
0012
1003
2010
,
3001
0000
1002
0000
0103
0000
0001
0010
,
0100
2010
3001
0012
,
1003
0000
2001
0000
3001
0010
0100
1000
,
0002
0003
0200
0300
,
0020
0030
2000
3000
,
0002
0003
0020
0030
,
0200
0300
1000
0001
,
1000
0010
1000
0000
0001
0100
0001
0000
,
1000
0100
1000
0000
0001
0010
0001
0000
,
1000
0010
0100
0000
0001
0100
0010
0000
,
1000
0100
0010
0000
0001
0010
0100
0000
,
2000
0010
0001
3100
,
0002
0010
1000
0103
,
0001
0010
1000
0010
,
0001
1000
1100
0101
,
2002
0000
0000
0000
,
3003
0000
2020
3030
,
0202
0000
0000
0303
,
0001
0001
1000
1000
0001
0010
0100
1000
,
0001
0001
0100
0000
0010
0010
1000
0000
,
0001
0001
0010
0000
0100
0100
1000
0000
,
0001
0001
1000
0000
0010
0010
0100
0000
,
0001
0001
1000
0000
0100
0100
0010
0000
,
0001
0001
0100
0000
1000
1000
0100
0000
,
0001
0001
0010
0000
1000
1000
0010
0000
,
0001
0001
0000
1000
1000
0000
0010
0020
,
0000
0000
0130
0000
0001
0100
0010
1000
,
0001
0010
0001
0000
0010
1000
0010
0000
,
1000
0100
1000
0000
0100
0001
0100
0000
,
0001
0010
0001
0000
0010
1000
0010
0000
,
1000
0100
1000
0000
0001
0100
0001
0000
,
2002
0000
0000
0000
,
3003
0000
2200
3300
,
0022
0000
0000
0033
,
0001
0001
1000
1000
0001
0100
0010
1000
,
0001
0101
1000
1100
,
0001
0000
1001
0000
1000
0100
0001
0100
,
1000
1010
0001
0011
,
1000
0000
1001
0000
0001
0010
1000
0010
,
0001
1100
1000
0101
,
1000
0000
1001
0000
1000
0010
0001
0010
,
0100
0011
0100
1010
,
1001
0000
1001
0000
0001
0010
0100
1000
,
2002
0000
0000
0000
,
3003
0000
0000
0000
;

//---------------dance-single - Blank----------------
#NOTES:
     dance-single:
     :
     Easy:
     4:
     0.267,0.222,0.019,0.146,0.000,175.000,2.000,15.000,0.000,0.000,0.000,0.267,0.222,0.019,0.146,0.000,175.000,2.000,15.000,0.000,0.000,0.000:
0000
0000
0000
0000
,
0000
0000
0000
0000
,
0000
0000
0000
0000
,
0000
0000
0000
0000
,
1000
1000
0100
0100
,
0001
0001
0100
0100
,
1000
0010
0100
0001
,
1000
1000
0001
0001
,
1000
0100
1000
0100
,
0001
0100
0001
0100
,
1000
0010
1000
0010
,
0001
0010
0001
0010
,
1000
0010
0100
0001
,
1000
0100
0010
0001
,
1000
0100
0001
0100
,
1000
0010
0001
0010
,
1000
0000
1000
0000
,
0001
0000
0001
0000
,
0010
0000
0010
0000
,
0100
0000
0100
0000
,
2000
3000
0020
0030
,
0200
0300
0001
1000
,
0002
0003
0020
0030
,
0200
0300
1000
0001
,
1000
1000
1000
0010
,
0100
0100
0100
0001
,
0010
0010
0010
0100
,
1000
1000
1000
0001
,
0002
0000
0000
0000
,
0003
0000
0200
0300
,
0020
0000
0000
0030
,
1000
1000
0001
0001
,
1000
0100
0001
0100
,
0010
0100
1000
0001
,
1000
0010
0001
0010
,
0100
0010
1000
0001
,
1000
0100
0001
0100
,
1000
0010
0001
0010
,
1000
0000
0000
0001
0000
0000
2000
0000
,
0000
3010
1000
0001
,
1000
0010
0001
0010
,
1000
0100
0001
0100
,
1000
0010
0001
0100
,
1000
1000
0001
0001
,
0200
0000
0000
0000
,
0300
0000
0020
0030
,
2000
0000
0000
3000
,
0001
0100
0010
1001
,
1000
0100
0010
0100
,
0001
0100
1000
1000
,
0001
0100
0010
0100
,
1000
0100
0001
0001
,
1000
0100
0001
0100
,
1000
0010
0001
0010
,
1000
0100
0001
0010
,
1000
1000
0001
0001
,
2002
0000
0000
0000
,
3003
0000
0000
0000
;
