#TITLE:BOSS CHARGE #1;
#SUBTITLE:;
#ARTIST:DanceDanceRevolution plus;
#TITLETRANSLIT:;
#SUBTITLETRANSLIT:;
#ARTISTTRANSLIT:;
#GENRE:;
#CREDIT:;
#BANNER:BOSS CHARGE #1.png;
#BACKGROUND:BOSS CHARGE #1-bg.png;
#LYRICSPATH:;
#CDTITLE:;
#MUSIC:BOSS CHARGE #1.mp3;
#OFFSET:-0.598;
#SAMPLESTART:0.000;
#SAMPLELENGTH:0.020;
#SELECTABLE:YES;
#DISPLAYBPM:*;
#BPMS:0.000=187.000
,79.000=93.500
,79.500=187.000
,110.500=93.500
,111.000=187.000
,127.000=93.500
,143.000=187.000
,219.000=93.499
,223.000=186.999
,271.000=93.499
;
#STOPS:
;
#BGCHANGES:;
#KEYSOUNDS:;
#ATTACKS:;

//---------------dance-single - Blank----------------
#NOTES:
     dance-single:
     :
     Hard:
     10:
     0.954,1.000,0.576,0.226,1.000,623.000,61.000,24.000,0.000,0.000,0.000,0.954,1.000,0.576,0.226,1.000,623.000,61.000,24.000,0.000,0.000,0.000: // measure 0
0000
0000
0000
0000
,  // measure 1
0000
0000
0000
0000
,  // measure 2
0000
0000
0000
0000
,  // measure 3
0000
0000
0000
0000
,  // measure 4
1000
0000
0100
0000
0001
0000
0100
0000
0010
0000
0001
1000
0001
0000
1000
0000
,  // measure 5
0001
0000
0100
0000
1000
0000
0100
0000
0010
0000
1000
0001
1000
0001
1000
0001
,  // measure 6
1000
0000
0010
0000
0001
0000
0010
0000
0100
0000
0001
1000
0001
0000
1000
0000
,  // measure 7
0120
0200
0000
0000
0000
0000
0330
0000
,  // measure 8
1100
0000
0000
0011
0000
0000
1001
0000
0001
0000
0100
0000
1000
0000
0100
0000
,  // measure 9
0001
0010
0001
0010
0100
0000
1000
0000
1010
0000
0010
0000
1001
0000
0000
0000
,  // measure 10
0101
0000
0000
1010
0000
0000
1001
0000
0001
0000
0010
0000
1000
0000
0010
0000
,  // measure 11
0001
0100
0001
0100
0010
0000
1000
0000
0001
0000
0001
0000
0010
0000
0100
0000
,  // measure 12
1010
0000
0000
0101
0000
0000
1001
0000
1000
0000
0100
0000
0001
0000
0100
0000
,  // measure 13
1000
0010
0100
0001
1000
0000
0100
0000
0010
0000
0001
1000
0001
0000
0000
0000
,  // measure 14
0011
0000
0000
1100
0000
0000
1001
0000
1000
0000
0010
0000
0001
0000
0010
0000
,  // measure 15
1000
0100
0010
0001
1000
0000
1001
0000
0000
0000
0000
0000
0010
0000
0000
0000
,  // measure 16
1001
0000
0001
0100
0001
0000
0100
0010
0100
0000
0010
1000
0010
0000
1000
0100
,  // measure 17
1000
0000
0100
0010
0100
0000
0010
0001
0010
0000
0001
0100
0001
0000
0100
0010
,  // measure 18
0100
0000
0010
1000
0010
0000
1000
0001
1000
0000
0001
0100
0001
0000
0010
0001
,  // measure 19
0010
0000
0100
0010
0100
0000
1000
0100
1000
0000
0001
1000
0001
0000
1000
0000
,  // measure 20
0001
0100
0001
0000
1000
0100
1000
0000
0001
0010
0001
0000
1000
0010
1000
0000
,  // measure 21
0001
0100
0001
0000
1000
0010
1000
0000
0001
0010
0001
0000
1000
0100
1000
0000
,  // measure 22
0001
1000
0001
0000
0100
0010
0100
0000
0001
1000
0001
0000
0010
0100
0010
0000
,  // measure 23
0010
0010
0010
1001
1001
1001
1001
0001
,  // measure 24
0100
0010
1000
0000
0010
1000
0001
0000
1000
0001
0100
0000
0001
0100
0010
0000
,  // measure 25
0100
0010
1000
0000
0010
1000
0100
0000
1000
0100
0010
0000
0100
0010
0001
0000
,  // measure 26
0010
0001
0100
0000
0001
0100
0010
0000
0100
0010
1000
0000
0010
1000
0001
0000
,  // measure 27
0010
0001
0100
0000
0001
0100
0010
0000
0100
0010
1000
0000
0001
0000
1000
0001
,  // measure 28
0100
0000
0001
0100
1000
0000
0100
0010
1000
0000
0010
1000
0001
0000
1000
0100
,  // measure 29
0001
0000
0100
0010
0001
0000
1000
0010
0001
0000
0010
1000
0100
0000
0010
0001
,  // measure 30
0100
0000
0010
1000
0001
0000
0100
0001
1000
0000
0100
0010
0001
0000
0001
0000
,  // measure 31
0001
0001
0110
0110
0110
0110
2001
0000
,  // measure 32
0010
0001
3100
2000
,  // measure 33
3010
0002
0013
0200
,  // measure 34
0001
0010
1300
0200
,  // measure 35
0310
0000
0000
2000
0000
0000
3001
0000
0000
0100
0010
0100
,  // measure 36
0010
1000
0010
1000
0100
1000
0100
0010
0100
0010
0001
0010
,  // measure 37
0001
0100
0001
0100
0010
0100
0010
1000
0010
1000
0100
1000
,  // measure 38
0100
0001
0100
0010
0100
0010
0001
0010
0001
1000
0010
1000
,  // measure 39
0010
0001
0010
0100
0010
0100
1000
0100
1000
0100
0001
0010
,  // measure 40
0100
1000
0010
0100
0001
1000
0100
1000
0001
0010
0001
1000
,  // measure 41
0010
0000
0000
0000
1000
0000
0000
0000
0001
0000
0000
0000
0100
0000
0000
0000
0010
0000
0000
0000
1000
0000
0000
0000
0100
0000
0000
0000
0010
0000
0000
0000
0001
0000
0000
0000
1000
0000
0000
0100
0000
0000
1000
0000
0000
0100
0000
0000
,  // measure 42
0010
0001
0010
0001
1000
0010
1000
0010
0100
0001
0100
0001
1000
0100
0010
0001
,  // measure 43
0010
0100
1000
0001
1000
0010
0100
0001
0100
0010
1000
0001
2000
0000
0000
0000
,  // measure 44
3000
0000
0202
0000
0303
0000
1000
0100
,  // measure 45
0010
1001
1001
1001
0001
0100
0010
1001
,  // measure 46
1001
0000
1001
0000
0001
0010
0100
1000
0001
0100
0010
1000
0001
0000
0100
0000
,  // measure 47
0010
0000
0000
1001
0000
0000
1001
0000
0000
1001
0000
0000
1000
0000
0000
0100
0000
0000
1000
0000
0010
0000
0001
0000
,  // measure 48
1000
0000
0100
0000
0001
0000
1000
0000
0100
0000
0001
0000
1000
0000
0010
0000
0001
0000
1000
0000
0000
0010
0000
0000
,  // measure 49
0100
0101
0101
0101
0001
0010
0100
1100
,  // measure 50
1100
0000
1100
0000
1000
0010
0100
0001
1000
0100
0010
0001
1000
0000
0010
0000
,  // measure 51
0100
0000
0101
0000
0101
0000
0101
0000
0001
0000
0010
0000
0100
0000
1000
0010
,  // measure 52
0000
1000
0010
0000
0100
0000
0001
0010
0000
0001
0010
0000
0001
0000
0100
0000
,  // measure 53
0010
1010
0011
1010
1000
0100
0010
0011
,  // measure 54
1010
0000
0011
0000
1000
0010
0001
0010
1000
0100
0001
0200
2000
0000
0000
0000
,  // measure 55
0000
0000
0000
0300
0000
0000
0010
0000
0001
0000
0100
0000
0001
0000
0010
0000
3100
0000
1001
0000
0000
0000
1000
0000
,  // measure 56
0010
0001
0000
1001
0000
0001
0010
1000
0000
1001
0000
1000
,  // measure 57
0100
0000
0000
0000
0001
0000
0000
0000
0000
0000
0000
0000
1001
0000
0000
0000
0000
0000
0000
0000
0001
0000
0000
0000
0100
0000
0000
0000
1000
0000
0000
0000
0000
0000
0000
0000
0001
0000
0000
0100
0000
0000
0001
0000
0000
0100
0000
0000
,  // measure 58
0001
0100
0001
0100
0010
1000
0010
1000
0010
1000
0010
1000
0001
0010
0001
0010
,  // measure 59
0100
1000
0100
1000
0001
0100
0001
0100
0010
1000
0010
1000
0002
0000
0000
0000
,  // measure 60
0010
0100
0103
2000
,  // measure 61
0010
0100
3100
0002
,  // measure 62
0100
0010
0013
2000
,  // measure 63
0100
0000
0000
0010
0000
0000
3010
0000
0000
1001
0001
0100
,  // measure 64
1000
0100
0010
1000
0100
0001
0100
0010
0001
1001
1000
0010
,  // measure 65
0001
0010
0100
0001
0010
1000
0010
0100
1000
1001
1000
0010
,  // measure 66
0001
0000
0000
0000
0010
0000
0000
0000
0100
0000
0000
0000
1001
0000
0000
0000
0001
0000
0000
0000
0100
0000
0000
0000
1000
0000
0000
0000
0100
0000
0000
0000
0010
0000
0000
0000
1000
0000
0000
0010
0000
0000
0001
0000
0000
0010
0000
0000
,  // measure 67
1000
0100
0001
0100
1000
0010
0001
0010
1000
0100
0001
0100
2002
0000
0000
0000
,  // measure 68
0000
3000
0200
0000
0000
0003
0020
0000
,  // measure 69
0000
0300
2000
0000
0000
3030
2002
0000
,  // measure 70
0000
0000
0000
0000
,  // measure 71
0000
0000
0000
3003
;

//---------------dance-single - Blank----------------
#NOTES:
     dance-single:
     :
     Medium:
     9:
     0.643,0.609,0.123,0.217,0.278,441.000,13.000,23.000,0.000,0.000,0.000,0.643,0.609,0.123,0.217,0.278,441.000,13.000,23.000,0.000,0.000,0.000:
0000
0000
0000
0000
,
0000
0000
0000
0000
,
0000
0000
0000
0000
,
0000
0000
0000
0000
,
1000
0100
0010
0001
0010
0100
1000
1000
,
0001
0100
0010
1000
0010
0100
0002
0000
,
1003
0100
0001
0100
0010
0001
1000
1000
,
0020
0200
0000
0000
0000
0000
0330
0000
,
1000
0000
0000
0010
0000
0000
0100
0000
0001
0000
0001
0000
1000
0000
0000
0000
,
0001
0010
1000
0010
0011
0000
1001
0000
,
1000
0000
0000
0100
0000
0000
0010
0000
0001
0000
0001
0000
1000
0000
0000
0000
,
0001
0100
1000
1100
0000
0100
0001
1000
,
0001
0000
0000
0100
0000
0000
0010
0000
1000
0000
1000
0000
0001
0000
0000
0000
,
1000
0100
0001
0100
0000
1000
1001
0000
,
0001
0000
0000
0010
0000
0000
0100
0000
1000
0000
1000
0000
0001
0000
0000
0000
,
1000
0010
0100
1001
0000
0000
0100
0000
,
1000
0010
0100
0010
0001
0010
0100
0010
,
1000
0100
0010
0100
0001
0100
0010
0100
,
1000
0010
0001
0010
1000
0100
0001
0100
,
1000
0010
0001
0100
0001
0010
1000
0001
,
0010
0100
0010
1000
0010
0100
0010
0001
,
0100
0010
0100
1000
0100
0010
0100
0001
,
0010
1000
0010
0001
0100
1000
0100
0001
,
0001
0001
0001
1000
1000
1000
1000
0001
,
0100
0010
0100
1000
0100
0010
0100
0001
,
0010
0100
0010
1000
0010
0100
0010
0001
,
0100
1000
0100
0001
0010
1000
0010
0001
,
0100
1000
0010
1000
0100
0001
1000
0100
,
0010
0100
0001
0100
0010
0100
1000
0010
,
0100
0010
0001
0010
0100
0010
1000
0100
,
0001
0100
1000
0010
0001
0010
1000
1000
,
1000
1000
0001
0001
0001
0001
2020
0000
,
0000
0030
0002
0000
0000
3000
0200
0000
,
0000
0003
0020
0000
0000
0300
2000
0000
,
0000
0030
0002
0000
0000
3000
0020
0000
,
0000
0000
0000
0003
0000
0000
0200
0000
0000
0000
0000
0000
0000
0000
0000
0330
0000
0000
0010
0000
0000
0000
0010
0000
,
0001
0000
0001
0100
0000
0100
0010
0000
0010
1000
0000
1000
,
0001
0000
0001
0100
0000
0100
0010
0000
0010
1000
0000
1000
,
0100
0000
0100
0010
0000
0010
0001
0000
0001
1000
0000
1000
,
0010
0000
0010
0100
0000
0100
0001
0000
0001
1000
0000
1000
,
0100
0000
0100
0001
0000
0001
0100
0000
0100
1000
0000
1000
,
0010
0000
0000
0000
0010
0000
0001
0000
0000
0000
0001
0000
0010
0000
0000
0000
0010
0000
1000
0000
0000
0100
0000
0000
,
0001
0100
1000
0010
0001
0010
1000
0100
,
0001
0010
1000
0010
0001
0100
2000
0000
,
3000
0000
0002
0000
0103
0000
0001
0010
,
0100
1000
1000
1000
0001
0100
0010
1000
,
1000
1000
0001
0010
1000
0010
0001
0100
,
0010
0000
0000
1000
0000
0000
1000
0000
0000
1000
0000
0000
0001
0000
0000
0001
0000
0000
1000
0000
0000
0000
1000
0000
,
0100
0000
0000
0000
0100
0000
0010
0000
0000
0000
0010
0000
0001
0000
0000
0000
0001
0000
1000
0000
0000
0010
0000
0000
,
0100
0001
0001
0001
1000
0100
0010
0001
,
0001
0001
1000
0100
0001
0100
1000
0010
,
0100
0000
0001
0000
0001
0000
0001
0000
1000
0000
1000
0000
0001
0000
0000
0001
,
0000
0000
0100
0000
0010
0000
0000
0010
0000
0000
1000
0000
0001
0000
0010
0000
,
1000
0010
0010
0010
0001
0100
1000
0100
,
0100
0100
0010
1000
0001
0100
0020
0000
,
0000
0000
0000
0030
0000
0000
1000
0000
0001
0000
1000
0000
0001
0000
1000
0000
0001
0000
1001
0000
0000
0000
0001
0000
,
0000
0100
0000
0101
0000
0001
0000
1000
0000
1100
0000
1000
,
0000
0000
0001
0000
0000
0000
0011
0000
0000
0000
0001
0000
0000
0000
1000
0000
0000
0000
0010
0000
0000
1000
0000
0000
,
0010
1000
0001
0100
0001
0100
0001
0010
,
0001
0010
0100
1000
0100
1000
2001
0000
,
0010
0100
0100
0010
,
0001
0010
3010
1002
,
0010
0100
0100
0010
,
1000
0000
0000
0100
0000
0000
0103
0000
0000
0001
0000
0001
,
0100
0000
0100
1000
0000
1000
0100
0000
0100
0010
0000
0010
,
1000
0000
1000
0001
0000
0001
0100
0000
0100
0001
0000
0001
,
0010
0000
0000
0000
0010
0000
1000
0000
0000
0000
1000
0000
0010
0000
0000
0000
0010
0000
0001
0000
0000
0100
0000
0000
,
1000
0000
0100
0000
0001
0000
1000
0000
0001
1000
0001
0000
2000
0000
0000
0000
,
0000
3000
0020
0000
0000
0030
0200
0000
,
0000
0300
0002
0000
0000
0003
2002
0000
,
0000
0000
0000
0000
,
0000
0000
0000
3003
;

//---------------dance-single - Blank----------------
#NOTES:
     dance-single:
     :
     Easy:
     6:
     0.473,0.609,0.406,0.377,0.000,268.000,43.000,40.000,0.000,0.000,0.000,0.473,0.609,0.406,0.377,0.000,268.000,43.000,40.000,0.000,0.000,0.000:
0000
0000
0000
0000
,
0000
0000
0000
0000
,
0000
0000
0000
0000
,
0000
0000
0000
0000
,
1000
0010
0100
0010
,
0001
0000
0010
0000
1000
0000
0001
1000
,
0001
0100
1000
0100
,
0002
2000
0000
0000
0000
0000
3003
0000
,
1010
0000
0000
0101
0000
0000
1000
0000
,
0001
0010
0100
0100
,
0011
0000
0000
1100
0000
0000
1000
0000
,
0001
0100
1000
0100
,
0110
0000
0000
1001
0000
0000
0100
0000
,
0001
0010
1000
0010
,
0110
0000
0000
1001
0000
0000
0100
0000
,
0001
1000
0001
1000
0000
0000
0100
0000
,
1000
0010
0001
0010
,
0100
0001
1000
0001
,
0100
1000
0100
0010
,
1000
0000
0001
0000
0010
0100
0010
0001
,
0000
0100
0000
1000
0000
0100
0000
0010
,
0000
1000
0000
0100
0000
0001
0000
0100
,
0000
0010
0000
0001
0000
1000
0000
0010
,
0010
0010
0010
0100
0100
0100
0100
0001
,
0000
0010
0000
1000
0000
0010
0000
0100
,
0000
1000
0000
0010
0000
0001
0000
0010
,
0000
0100
0000
0001
0000
1000
0000
0100
,
0000
0010
0000
0001
1000
0001
1000
0000
,
0010
0001
0010
0100
,
0001
0100
1000
0100
,
0010
0000
1000
0000
0001
0000
1000
1000
,
1000
1000
0001
0001
0001
0001
0020
0000
,
0000
0230
0000
2300
,
0000
3020
0000
0230
,
0000
0302
0000
2003
,
0000
3200
0000
1300
,
0010
0001
0010
0100
,
0001
0100
1000
0100
,
0010
1000
0100
0001
,
0100
0010
0001
1000
,
0010
0100
1000
0100
,
0010
1000
0001
0011
,
0011
1100
1100
0101
,
1010
0011
1100
2002
,
3003
0220
0330
1000
,
0010
0100
0001
0100
,
0010
0000
1000
0001
1000
0000
0001
0000
,
0010
0100
1000
1100
,
1100
0101
0101
0001
,
0100
0010
1000
0010
,
0100
0000
0001
1000
0001
0000
1000
0000
,
0100
0010
0001
0011
,
0011
1010
1010
1000
,
0010
0001
0100
1000
,
0010
0000
0100
0001
1000
0000
2002
0000
,
0000
0003
0010
0010
0100
3100
2100
0000
,
3001
0102
1003
2010
,
3001
0000
0012
0000
1003
0000
0001
0100
,
0001
0000
1000
0010
1000
0000
0001
0010
,
0001
0000
1000
0100
1000
0000
0002
0000
,
0203
2300
3200
0320
,
0230
0302
2003
3002
,
0023
2030
3020
0230
,
0320
0032
1003
0101
,
0101
1010
1010
0011
,
0011
1100
1100
1010
,
0101
0000
0011
0000
1100
0000
1000
0010
,
0100
0001
0100
0010
1000
0000
0002
0000
,
0000
0023
0000
0230
,
0000
2300
0000
0002
,
0000
0000
0000
0000
,
0000
0000
0000
3003
;
