#VERSION:0.81;
#TITLE:愛は不死鳥の様に;
#SUBTITLE:;
#ARTIST:真紅の薔薇の騎士Prim;
#TITLETRANSLIT:Ai wa fushichou no you ni;
#SUBTITLETRANSLIT:;
#ARTISTTRANSLIT:Shinku no Bara no Kishi Prim;
#GENRE:;
#ORIGIN:;
#CREDIT:;
#BANNER:Ai wa fushichou no you ni.png;
#BACKGROUND:Ai wa fushichou no you ni-bg.png;
#PREVIEWVID:;
#JACKET:Ai wa fushichou no you ni-jacket.png;
#CDIMAGE:;
#DISCIMAGE:;
#LYRICSPATH:;
#CDTITLE:;
#MUSIC:Ai wa fushichou no you ni.mp3;
#OFFSET:-0.310;
#SAMPLESTART:82.295;
#SAMPLELENGTH:17.820;
#SELECTABLE:YES;
#BPMS:0.000=192.000,
100.000=96.000,
116.000=192.000,
212.000=96.000,
220.000=192.000;
#STOPS:;
#DELAYS:;
#WARPS:;
#TIMESIGNATURES:0.000=4=4;
#TICKCOUNTS:0.000=4;
#COMBOS:0.000=1;
#SPEEDS:0.000=1.000=0.000=0;
#SCROLLS:0.000=1.000;
#FAKES:;
#LABELS:0.000=Song Start;
#BGCHANGES:;
#KEYSOUNDS:;
#ATTACKS:
;

//---------------dance-single - Blank----------------
#NOTEDATA:;
#CHARTNAME:;
#STEPSTYPE:dance-single;
#DESCRIPTION:Blank;
#CHARTSTYLE:;
#DIFFICULTY:Hard;
#METER:10;
#RADARVALUES:0.955,0.943,0.784,0.317,0.420,599.000,84.000,34.000,0.000,0.000,0.000,0.000,0.000,0.955,0.943,0.784,0.317,0.420,599.000,84.000,34.000,0.000,0.000,0.000,0.000,0.000;
#CREDIT:;
#NOTES:
0000
0000
0000
0000
,
1000
0100
0001
1000
0010
0001
0100
0010
,
1000
0010
0001
1000
0100
0001
0010
0100
,
1000
0100
0001
1000
0010
0001
0100
0010
,
1000
0010
0001
0010
1000
0100
0001
0100
,
1000
0010
0001
1000
0100
0001
1000
0001
,
1000
0100
0001
1000
0010
0001
1000
0001
,
0101
0001
1000
1100
0000
1010
1000
1001
,
0000
0011
0011
1001
0000
0110
0110
1001
,
0000
1000
0100
0001
0100
0010
0001
1000
,
0100
1000
0010
0001
0000
0010
1000
0100
,
1000
0010
0001
0010
0100
0001
0010
1000
,
0010
0100
1000
0001
0000
1000
0010
0001
,
0010
0100
0001
1000
0000
0001
0010
1000
,
0010
0100
1000
0001
0000
1000
0100
0001
,
0100
0010
0001
1000
0000
0001
0100
0010
,
1010
1010
1010
1001
0000
0000
0000
0000
,
0110
0100
0001
0010
1000
0010
0100
1000
,
0010
0001
0010
0200
0000
0301
1000
0100
,
1000
0010
0001
0010
0100
0001
0010
1000
,
0010
0100
1000
0001
0000
1000
0010
0001
,
0011
0001
0010
1010
0000
1000
0100
0001
,
0101
0001
0100
1100
0000
1000
0001
0010
,
0012
0000
1003
0001
1000
0010
0001
0010
,
0100
0000
0101
0000
1000
0010
1010
0000
,
1002
0000
0100
0000
0103
0000
0001
0010
0100
1000
0100
0000
0020
0000
0031
1000
,
0002
0000
0010
0000
0013
0000
0001
0100
0010
1000
0010
0000
0200
0000
0301
1000
,
0200
0000
0010
0000
0310
0000
0001
1000
0100
1000
0001
0000
0200
0000
0301
1000
,
0020
0000
0000
0000
0100
0000
0000
0000
0130
0000
0000
0000
0001
0000
0010
0000
0100
0000
1000
0000
0001
0000
0000
0000
1000
0010
1000
0000
0001
0010
0001
0000
,
1001
0000
0001
0100
1000
0100
0010
0100
,
0002
0010
0103
1010
,
0011
0000
1000
0010
0001
0010
0100
0001
,
2000
0000
0010
0000
3100
1000
0100
0010
,
0012
0000
1000
0000
0100
0100
0103
0000
,
2010
0000
3010
0100
0002
0000
0013
0100
,
1000
0010
0001
0010
1000
0100
0001
0100
,
1001
1001
1001
1001
0000
0001
0100
0010
,
2010
0000
0001
3001
0000
1000
0100
0002
,
0000
0100
0100
0103
0000
0001
0100
1000
,
0000
0000
0010
0000
0100
0000
0001
0000
0101
0000
0000
1100
0000
0000
1001
0000
,
0001
0010
0002
0000
0100
0000
0000
0000
1003
0000
0001
0000
0100
0000
0020
0000
,
0000
0130
0001
1000
0100
0001
0100
2000
,
0000
0000
0010
0000
0010
0000
3010
0000
0100
0001
0100
0001
1000
0000
0001
0000
,
0011
0001
1000
1010
0000
1001
0001
0101
,
0000
0011
0011
1100
0000
1010
1010
0101
,
1000
0000
0010
0100
0000
0010
0100
0000
0001
0100
0000
0001
0100
0000
0001
0000
,
1000
0000
0010
1000
0000
0010
1000
0000
0001
0000
0010
0001
0000
0010
0001
0000
,
1000
0000
0001
0010
0000
0001
0010
0000
0100
1000
0000
0100
1000
0000
0001
0000
,
1000
0000
0100
1000
0000
0100
1000
0000
0001
0100
0000
0001
0010
0000
0010
0000
,
0001
0000
0100
0010
0000
1000
0010
0000
0100
0001
0000
0100
0010
0000
1000
0000
,
0001
0000
0010
0100
0000
0010
0100
0000
1000
0000
0010
0100
0000
0010
0100
0000
,
0001
0010
1000
0020
0000
0130
1000
0002
,
0000
0000
0103
0000
0001
0000
1000
0000
0010
0100
0010
0100
0001
1000
0001
1000
,
0002
0000
0100
0000
0103
0000
0001
0010
0100
1000
0100
0000
0020
0000
0031
1000
,
0002
0000
0010
0000
0013
0000
0001
0100
1010
0000
0101
0101
0000
1100
0000
1001
,
0002
0000
0103
1000
0100
0010
1000
0200
,
0000
0010
0310
0000
0012
0000
1000
1003
,
0001
0100
1000
0100
0010
0100
0001
1000
,
1100
1100
0101
0101
0000
0000
0000
0000
,
0020
0000
0000
0000
0030
0001
0100
0010
,
2010
0000
0001
3001
1000
0100
0001
0200
,
0000
0010
0010
0310
0000
0001
0100
1000
,
0100
0000
0100
0000
0010
0000
0010
0000
1010
0000
0000
0011
0000
0000
1001
0000
,
1000
0100
2000
0000
0010
0000
0000
0000
3001
0000
1000
0000
0010
0000
0200
0000
,
0000
0310
1000
0001
0010
1000
0010
0001
,
1000
0010
1000
0000
0001
0000
0001
0000
1000
0100
1000
0000
0001
0000
0001
0000
,
1100
1000
0001
0101
0000
1001
1000
1010
,
0000
1100
1100
0011
0000
0101
0101
1010
,
0001
0000
0100
0010
0000
0100
0010
0000
1000
0010
0000
1000
0010
0000
1000
0000
,
0001
0000
0100
0001
0000
0100
0001
0000
1000
0000
0100
1000
0000
0100
1000
0000
,
0001
0000
1000
0100
0000
1000
0100
0000
0010
0001
0000
0010
0001
0000
1000
0000
,
0001
0000
0010
0001
0000
0010
0001
0000
1000
0010
0000
1000
0100
0000
0100
0000
,
1000
0000
0010
0100
0000
0001
0100
0000
0010
1000
0000
0010
0100
0000
0001
0000
,
1000
0000
0100
0010
0000
0100
0010
0000
0001
0000
0100
0010
0000
0100
0010
0000
,
1010
1010
0110
0101
0000
0101
0000
1100
,
0000
1100
0000
1001
0000
0110
0110
0110
,
0001
1000
0001
1000
0001
1000
0001
1000
0010
0100
0010
0100
0010
0100
0010
0100
,
0001
1001
1001
2002
0000
0000
3003
0000
;

//---------------dance-single - Blank----------------
#NOTEDATA:;
#CHARTNAME:;
#STEPSTYPE:dance-single;
#DESCRIPTION:Blank;
#CHARTSTYLE:;
#DIFFICULTY:Easy;
#METER:5;
#RADARVALUES:0.428,0.433,0.075,0.028,0.000,310.000,8.000,3.000,0.000,0.000,0.000,0.000,0.000,0.428,0.433,0.075,0.028,0.000,310.000,8.000,3.000,0.000,0.000,0.000,0.000,0.000;
#CREDIT:;
#NOTES:
0000
0000
0000
0000
,
1000
0100
0010
0100
,
1000
0010
0100
0010
,
1000
0010
0001
0010
,
0100
0100
0001
0001
,
1000
0100
0001
0100
,
1000
0010
0001
0010
,
1000
0000
0000
0001
0000
0010
0000
0100
,
0000
1000
0000
0001
0000
1000
0000
0001
,
1000
0010
0100
0010
,
1000
0001
0100
0100
,
0001
0010
0100
0010
,
0001
1000
0100
0100
,
1000
0010
0001
0001
,
1000
0100
0001
0001
,
1000
0100
0001
0001
,
0100
0010
1001
0000
,
0001
0100
1000
0100
,
0010
1000
0001
0100
,
0001
0010
1000
0010
,
0100
1000
0001
0100
,
0001
0010
1100
0000
,
1000
0010
0101
0000
,
1000
0100
0001
0010
,
1000
1000
0001
0001
,
1000
0010
0100
0010
,
1000
0000
0001
0000
0100
0010
0100
0000
,
0001
0010
0100
1000
,
0010
0000
0100
0000
0010
0000
1000
0001
,
1000
0010
0001
0010
,
0100
0001
1000
1001
,
1000
0100
0001
0100
,
0010
0001
1000
1001
,
2000
0010
0010
3010
,
0200
0001
0001
0301
,
1000
0100
0001
0100
,
1001
1001
1001
0000
,
0001
0100
1000
0100
,
0010
1000
0001
0100
,
0001
0001
0010
0010
,
0100
1000
0010
1000
,
0100
0001
0100
0010
,
0001
1000
0010
0010
,
1000
0100
0001
0010
,
0001
0100
1000
0001
,
1000
0010
0100
0001
,
1000
1000
0001
0001
,
1000
0100
0010
0001
,
1000
1000
0001
0001
,
1000
0010
0001
0010
,
0100
0100
0010
0010
,
1000
0100
0001
0010
,
1000
0000
0001
0000
0100
0010
0100
0010
,
1000
1000
0010
0000
0100
0100
0001
0000
,
1000
1000
0100
0000
0010
0001
1000
0100
,
1000
0010
0001
0010
,
0100
0001
0010
0100
,
1000
0010
0100
0001
,
1000
0001
1000
0001
0000
0000
0000
0000
,
0020
0000
0000
0030
,
0100
1000
0010
0001
,
0010
0100
0001
0010
,
1000
0010
0100
1000
,
0001
0001
1000
1000
,
0001
0100
1000
0100
,
0010
1000
0001
0010
,
0100
0100
0010
0010
,
0001
0001
1000
1000
,
0001
0100
1000
0100
,
0010
0010
0100
0100
,
0001
0010
1000
0010
,
0100
0100
0010
0010
,
0001
0100
1000
0010
,
0001
0001
1000
1000
,
0001
0100
1000
0100
,
0001
0010
1000
0010
,
0001
0001
1000
1000
,
0010
0100
0010
0100
0000
0000
0000
0000
;

//---------------dance-single - Blank----------------
#NOTEDATA:;
#CHARTNAME:;
#STEPSTYPE:dance-single;
#DESCRIPTION:Blank;
#CHARTSTYLE:;
#DIFFICULTY:Medium;
#METER:7;
#RADARVALUES:0.637,0.577,0.326,0.065,0.023,436.000,35.000,7.000,0.000,0.000,0.000,0.000,0.000,0.637,0.577,0.326,0.065,0.023,436.000,35.000,7.000,0.000,0.000,0.000,0.000,0.000;
#CREDIT:;
#NOTES:
// measure 0
0000
0000
0000
0000
,  // measure 1
1000
0000
0001
0010
0000
0100
1000
0000
,  // measure 2
0001
0000
1000
0010
0000
0100
0001
0000
,  // measure 3
1000
0000
0010
0100
0000
0001
1000
0000
,  // measure 4
1100
1100
0101
0101
,  // measure 5
0001
0000
1000
0100
0000
0010
0001
0000
,  // measure 6
1000
0000
0001
0100
0000
0010
1000
0000
,  // measure 7
0001
0010
0001
0010
0000
0100
0010
0100
,  // measure 8
0000
1000
0100
1000
0000
0001
1000
0001
,  // measure 9
1000
0010
0100
0001
,  // measure 10
1000
0100
0010
0000
0010
0100
1000
0000
,  // measure 11
0001
0100
0010
1000
,  // measure 12
0001
0010
0100
0000
0100
0010
0001
0000
,  // measure 13
1000
0010
1000
0010
0000
0100
0100
0000
,  // measure 14
0001
0010
0001
0010
0000
0100
0100
0000
,  // measure 15
1000
0001
1000
0001
0000
0100
0100
0000
,  // measure 16
0010
0010
0010
0010
0000
0000
0000
0000
,  // measure 17
1000
0010
0100
0001
,  // measure 18
1000
0100
0001
0000
0001
0100
1000
0000
,  // measure 19
0001
0100
0010
1000
,  // measure 20
0001
0010
1000
0000
1000
0010
0001
0000
,  // measure 21
1000
0010
1000
0010
0000
0100
0100
0000
,  // measure 22
0001
0010
0001
0010
0000
0100
0100
0000
,  // measure 23
1000
0100
0001
0000
0001
0010
1000
0000
,  // measure 24
1000
0100
0010
0001
0010
0100
1000
0001
,  // measure 25
1000
0100
1000
0100
0001
0100
0001
0100
,  // measure 26
1000
0010
1000
0010
0001
0010
0001
0010
,  // measure 27
1000
0100
0001
1000
0010
0001
1000
0100
,  // measure 28
0001
1000
0010
0001
1000
0100
0001
0100
,  // measure 29
1000
0010
1000
0000
0010
1000
0010
0000
,  // measure 30
0100
0001
0100
0000
0001
0100
0001
0000
,  // measure 31
0010
0001
0010
0000
0001
0010
0001
0000
,  // measure 32
0100
1000
0100
0000
1000
0100
1000
0000
,  // measure 33
1000
0010
0100
0001
1000
1000
1000
0000
,  // measure 34
0001
0010
0100
1000
0001
0001
0001
0000
,  // measure 35
1000
0010
0001
0010
1000
0100
0001
0100
,  // measure 36
1000
1000
1000
1000
0000
0000
0000
0000
,  // measure 37
0001
0100
0010
0000
1000
0010
0100
0000
,  // measure 38
0001
0010
0100
0000
1000
0100
0010
0000
,  // measure 39
0001
0000
0010
0000
0100
0000
1000
0000
0001
0000
0000
0001
0000
0000
0001
0000
,  // measure 40
1000
0010
0001
0000
1000
0100
0001
0000
,  // measure 41
1000
0100
0010
0000
0001
0010
0100
0000
,  // measure 42
1000
0001
1000
0001
0010
0100
0010
0100
,  // measure 43
0001
0100
0010
1000
0000
0001
0010
0001
,  // measure 44
0000
1000
0010
1000
0000
0001
1000
0001
,  // measure 45
1000
1010
0001
0011
,  // measure 46
1000
1001
1001
1001
,  // measure 47
0001
0101
1000
1100
,  // measure 48
1000
1001
1001
1001
,  // measure 49
0010
0101
0010
1100
,  // measure 50
0100
0011
0100
1010
,  // measure 51
1000
0010
0100
0001
0000
1000
0100
1000
,  // measure 52
0000
0001
0100
0001
0000
1000
0001
1000
,  // measure 53
0001
0001
0011
0010
0100
0100
0110
0100
,  // measure 54
1000
0000
1000
0000
1001
0000
1000
0000
0010
0000
0100
0001
0000
1000
0000
0001
,  // measure 55
0020
0100
1000
0031
,  // measure 56
0200
0001
1000
0310
,  // measure 57
1000
0100
1000
0100
0001
0100
0001
0100
,  // measure 58
1000
1000
1000
1000
0000
0000
0000
0000
,  // measure 59
0020
0000
0000
0030
,  // measure 60
1000
0010
0100
0000
0001
0100
0010
0000
,  // measure 61
1000
0100
0010
0000
0001
0010
0100
0000
,  // measure 62
1000
0000
0100
0000
0010
0000
0001
0000
1000
0000
0000
1000
0000
0000
1000
0000
,  // measure 63
0001
0100
1000
0000
0001
0010
1000
0000
,  // measure 64
0001
0010
0100
0000
1000
0100
0010
0000
,  // measure 65
0001
1000
0001
1000
0100
0010
0100
0010
,  // measure 66
1000
0010
0100
0001
0000
1000
0100
1000
,  // measure 67
0000
0001
0100
0001
0000
1000
0001
1000
,  // measure 68
0001
0101
1000
1100
,  // measure 69
0001
1001
1001
1001
,  // measure 70
1000
1010
0001
0011
,  // measure 71
0001
1001
1001
1001
,  // measure 72
0100
1010
0100
0011
,  // measure 73
0010
1100
0010
0101
,  // measure 74
0001
0100
0010
1000
0000
0001
0010
0001
,  // measure 75
0000
1000
0010
1000
0000
0001
1000
0001
,  // measure 76
0020
0230
2300
3002
,  // measure 77
0013
0010
0010
0010
0000
0000
0000
0000
;
