#VERSION:0.83;
#TITLE:fake doll;
#SUBTITLE:;
#ARTIST:八王子P;
#TITLETRANSLIT:;
#SUBTITLETRANSLIT:;
#ARTISTTRANSLIT:hachioji-P;
#GENRE:;
#ORIGIN:;
#CREDIT:;
#BANNER:fake doll.png;
#BACKGROUND:fake doll-bg.png;
#PREVIEWVID:;
#JACKET:fake doll-jacket.png;
#CDIMAGE:;
#DISCIMAGE:;
#LYRICSPATH:;
#CDTITLE:;
#MUSIC:fake doll.mp3;
#OFFSET:-0.151000;
#SAMPLESTART:71.694000;
#SAMPLELENGTH:16.420000;
#SELECTABLE:YES;
#BPMS:0.000=132.000;
#STOPS:;
#DELAYS:;
#WARPS:;
#TIMESIGNATURES:0.000=4=4;
#TICKCOUNTS:0.000=4;
#COMBOS:0.000=1;
#SPEEDS:0.000=1.000=0.000=0;
#SCROLLS:0.000=1.000;
#FAKES:;
#LABELS:0.000=Song Start;
#BGCHANGES:;
#KEYSOUNDS:;
#ATTACKS:
;

//---------------dance-single - Blank----------------
#NOTEDATA:;
#CHARTNAME:;
#STEPSTYPE:dance-single;
#DESCRIPTION:Blank;
#CHARTSTYLE:;
#DIFFICULTY:Hard;
#METER:7;
#RADARVALUES:0.460990,0.461058,0.161346,0.322693,0.093411,380.000000,361.000000,19.000000,38.000000,0.000000,0.000000,0.000000,0.000000,0.000000,0.460990,0.461058,0.161346,0.322693,0.093411,380.000000,361.000000,19.000000,38.000000,0.000000,0.000000,0.000000,0.000000,0.000000;
#CREDIT:;
#NOTES:
0000
0000
0000
0000
,
0000
0000
0000
0000
,
0000
0000
0000
0000
,
0000
0000
0000
0000
,
2000
0000
0001
0000
0010
0000
3100
0100
,
0002
0000
1000
0000
0010
0000
0103
0100
,
0001
0010
0100
1000
0100
0010
0001
1000
,
0002
0000
0003
0000
1000
0100
0001
0100
,
1000
0000
0010
0000
0100
0000
0001
0000
1000
0000
0000
1000
0000
0000
1000
0000
,
0001
0000
0010
0000
0100
0000
1000
0000
0001
0000
0000
0001
0000
0000
0001
0000
,
1000
0010
1000
1000
0001
0010
0001
0001
,
1000
0000
0100
0000
0001
0000
0100
0000
1000
0000
0000
0001
0000
0000
1001
0000
,
0000
0000
0001
0000
0010
0000
0100
0000
1000
0000
0000
1000
0000
0000
1000
0000
,
0001
0000
0100
0000
0010
0000
1000
0000
0001
0000
0000
0001
0000
0000
0001
0000
,
1000
0100
0001
0100
1000
0010
0001
0010
,
1000
0000
0001
0000
0010
0100
1000
1000
,
0001
0000
1000
0100
1000
0100
0000
0002
,
0000
0203
0000
2300
0000
3020
0000
0130
,
0200
0000
0001
0000
1300
0100
0001
1000
,
0001
0000
0010
0100
0000
1000
0000
0001
,
0002
0000
0010
0000
0103
0001
0010
0001
,
0000
1000
0010
1000
0000
0001
1000
0001
,
2000
0000
3100
0200
0000
0320
0000
0032
,
0000
0023
0000
0230
0000
1000
1300
0000
,
1001
0000
0001
0010
0001
0010
0000
2000
,
0000
3020
0000
0032
0000
0203
0000
0310
,
0020
0000
1000
0000
0031
0010
1000
0001
,
1000
0000
0100
0010
0000
0001
0000
1000
,
2000
0000
0100
0000
3010
1000
0100
1000
,
1000
0001
0100
0001
0000
1000
0001
1000
,
0002
0000
0013
0020
0000
0230
0000
1300
,
0001
0010
0100
0100
1000
0001
1001
0000
,
2100
0000
0010
0010
0000
0001
3001
0000
,
0012
0000
1003
0000
0001
0001
1000
1000
,
2010
0000
0100
0100
0000
0001
3001
0000
,
0102
0000
1003
0000
0001
0010
1000
0010
,
0200
0000
1300
0000
0001
0100
1000
0100
,
0020
0000
0130
0000
0001
0001
1000
1000
,
0001
0000
0001
0010
0000
0010
0100
0000
0100
1000
0000
1000
,
0002
0000
1003
0000
0001
0100
1000
0100
,
0001
0000
0000
0010
0000
0000
0100
0000
0000
0000
2000
0000
0000
0000
3001
0000
,
0001
0000
0101
0000
0001
0010
0100
1000
,
0001
0000
0000
0100
0000
0000
0010
0000
0000
0000
2000
0000
0000
0000
3001
0000
,
0001
0000
0011
0000
0001
0010
1000
0010
,
0200
0000
0000
1000
0000
0000
0001
0000
0000
0000
0010
0000
0310
0000
0000
0000
,
0001
0100
1000
0100
0010
0000
1001
0000
,
1000
0010
0100
0001
0100
0010
1000
1000
,
1002
0000
0103
0000
0001
0010
0100
1000
,
1100
0000
0000
0000
0000
0000
0000
0000
0000
0000
0101
0000
0000
0000
0001
1000
,
0001
0000
1001
0000
0001
0010
0100
1000
,
0001
0000
0000
0100
0000
0000
1000
0000
0000
0000
0001
0000
0000
0000
0010
0000
,
1000
0000
1001
0000
1000
0100
0001
0100
,
2000
0000
0000
0001
0000
0000
3001
0000
0000
0000
1000
0000
0010
0000
0100
0000
,
0002
0000
0000
1000
0000
0000
1003
0000
0000
0000
0101
0000
0000
0000
2100
0000
,
0010
0000
0001
0000
3100
1000
0010
0100
,
0001
0000
0100
0000
0000
0000
1000
0000
0100
0000
0000
0010
0000
0000
1001
0000
,
0000
0000
1000
0000
0010
0000
0100
0000
0001
0000
0000
0001
0000
0000
0001
0000
,
1000
0000
0100
0000
0010
0000
0001
0000
1000
0000
0000
1000
0000
0000
1000
0000
,
0001
0100
0001
0001
1000
0100
1000
1000
,
0001
0000
0010
0000
1000
0000
0010
0000
0001
0000
0000
1000
0000
0000
1001
0000
,
0000
0000
1000
0000
0100
0000
0010
0000
0001
0000
0000
0001
0000
0000
0001
0000
,
1000
0000
0010
0000
0100
0000
0001
0000
1000
0000
0000
1000
0000
0000
1000
0000
,
0001
0010
1000
0010
0001
0100
1000
0100
,
0001
0000
1000
0000
0100
0010
0001
0001
;

//---------------dance-double - Blank----------------
#NOTEDATA:;
#CHARTNAME:;
#STEPSTYPE:dance-double;
#DESCRIPTION:Blank;
#CHARTSTYLE:;
#DIFFICULTY:Hard;
#METER:7;
#RADARVALUES:0.435514,0.461058,0.135871,0.322693,0.059443,359.000000,343.000000,16.000000,38.000000,0.000000,0.000000,0.000000,0.000000,0.000000,0.435514,0.461058,0.135871,0.322693,0.059443,359.000000,343.000000,16.000000,38.000000,0.000000,0.000000,0.000000,0.000000,0.000000;
#CREDIT:;
#NOTES:
00000000
00000000
00000000
00000000
,
00000000
00000000
00000000
00000000
,
00000000
00000000
00000000
00000000
,
00000000
00000000
00000000
00000000
,
20000000
00000000
00100000
00000000
01000000
00000000
30010000
10000000
,
00020000
00000000
00100000
00000000
01000000
00000000
10030000
00010000
,
10000000
00100000
01000000
00010000
00100000
00001000
00010000
00000100
,
00002000
00000000
00003000
00000000
00000000
00000001
00000100
00000010
,
00001000
00000000
00000100
00000000
00000010
00000000
00000001
00000000
00001000
00000000
00000000
00000001
00000000
00000000
00001000
00000000
,
00000001
00000000
00000100
00000000
00000010
00000000
00001000
00000000
00000001
00000000
00000000
00001000
00000000
00000000
00000001
00000000
,
00001000
00000010
00010000
00010000
00000100
00100000
00001000
00001000
,
00010000
00000000
00001000
00000000
00100000
00000000
00010000
00000000
10000000
00000000
00000000
00010000
00000000
00000000
10010000
00000000
,
00000000
00000000
10000000
00000000
00100000
00000000
01000000
00000000
00010000
00000000
00000000
10000000
00000000
00000000
00010000
00000000
,
10000000
00000000
01000000
00000000
00100000
00000000
00010000
00000000
10000000
00000000
00000000
00010000
00000000
00000000
10000000
00000000
,
00010000
01000000
00010000
01000000
00001000
00100000
00000100
00010000
,
00000010
00000000
00000100
00000000
00000001
00000010
00000100
00000100
,
00001000
00000000
00000001
00000100
00000001
00000100
00000000
00002000
,
00000000
00023000
00000000
00230000
00000000
20300000
00000000
30010000
,
00020000
00000000
00100000
00000000
01030000
00010000
00100000
01000000
,
10000000
00000000
00100000
01000000
00000000
00010000
00000000
00100000
,
00002000
00000000
00010000
00000000
00103000
00001000
00010000
00000100
,
00000000
00001000
00000010
00000100
00000000
00000001
00001000
00000001
,
00002000
00000000
00003010
00000020
00000000
00000230
00000000
00000302
,
00000000
00002003
00000000
00003200
00000000
00010000
00010300
00000000
,
10010000
00000000
10000000
00100000
10000000
00100000
00000000
00020000
,
00000000
00032000
00000000
00003200
00000000
00000302
00000000
00001003
,
00002000
00000000
00000100
00000000
00003010
00001000
00000100
00000010
,
00000001
00000000
00000100
00000010
00000000
00001000
00000000
00000100
,
00020000
00000000
00001000
00000000
00030100
00010000
00001000
00100000
,
00010000
01000000
00100000
10000000
00000000
10000000
00010000
10000000
,
00020000
00000000
01030000
02000000
00000000
03200000
00000000
10300000
,
00010000
00010000
00100000
00001000
00010000
00010000
00000100
00001000
,
00000002
00000010
00000100
00001003
,
00000001
00000000
00000100
00000000
00001000
00010000
00100000
00000000
,
20000000
00100000
01000000
30010000
,
10000000
00000000
01000000
00000000
00010000
00001000
00000010
00000100
,
00002000
00000000
00003000
00000000
00000001
00000100
00001000
00010000
,
00000200
00000000
00000300
00000000
00010000
00001000
00100000
00010000
,
10000000
00000000
10000000
00100000
00000000
00100000
01000000
00000000
01000000
00010000
00000000
00010000
,
00200000
00000000
00300000
00000000
00010000
01000000
00100000
10000000
,
00010000
00000000
00100000
00000000
01000000
10000000
00010000
10000000
,
02000000
03100000
00110000
00011000
,
00001000
00000000
00000100
00000000
00000010
00000001
00001000
00000001
,
00000020
00000130
00001100
00011000
,
00200000
10000000
00010000
01300000
,
00100000
10000000
01000000
00100000
00010000
00000000
00011000
00000000
,
00001000
00000010
00001000
00000010
00000001
00000100
00001000
00000100
,
00000002
00000000
00001003
00000000
00000001
00000010
00000100
00001000
,
00000001
00000000
00000000
00000000
00000000
00011000
00000000
00010000
,
00200000
01300000
11000000
01010000
,
20000000
00000000
30010000
00000000
01000000
00010000
00100000
00001000
,
00020000
00030100
00010100
00001100
,
00002000
00000010
00000100
00003001
,
00000002
00000010
00000100
00001003
,
00001100
00000000
00011000
00000000
00110000
00100000
10000000
10000000
,
00010000
00000000
00000000
00000000
00000000
01000000
01000000
00000000
,
00010000
00000000
00100000
00000000
01000000
00000000
10000000
00000000
00010000
00000000
00000000
10000000
00000000
00000000
00010000
00000000
,
10000000
00000000
00100000
00000000
01000000
00000000
00010000
00000000
10000000
00000000
00000000
00010000
00000000
00000000
10000000
00000000
,
00010000
01000000
00001000
00001000
00100000
00000100
00010000
00010000
,
00001000
00000000
00010000
00000000
00000100
00000000
00001000
00000000
00000001
00000000
00000000
00001000
00000000
00000000
00001001
00000000
,
00000000
00000000
00000001
00000000
00000100
00000000
00000010
00000000
00001000
00000000
00000000
00000001
00000000
00000000
00001000
00000000
,
00000001
00000000
00000010
00000000
00000100
00000000
00001000
00000000
00000001
00000000
00000000
00001000
00000000
00000000
00000001
00000000
,
00001000
00000010
00001000
00000010
00010000
00000100
00100000
00001000
,
01000000
00000000
00100000
00000000
10000000
01000000
00100000
00100000
;

//---------------dance-single - ----------------
#NOTEDATA:;
#CHARTNAME:;
#STEPSTYPE:dance-single;
#DESCRIPTION:;
#CHARTSTYLE:;
#DIFFICULTY:Easy;
#METER:3;
#RADARVALUES:0.274168,0.270680,0.093411,0.152855,0.000000,226.000000,215.000000,11.000000,18.000000,0.000000,0.000000,0.000000,0.000000,0.000000,0.274168,0.270680,0.093411,0.152855,0.000000,226.000000,215.000000,11.000000,18.000000,0.000000,0.000000,0.000000,0.000000,0.000000;
#CREDIT:;
#NOTES:
0000
0000
0000
0000
,
0000
0000
0000
0000
,
0000
0000
0000
0000
,
0000
0000
0000
0000
,
1000
1000
1000
1000
,
0001
0001
0001
0001
,
1000
0010
0100
0001
,
2002
0000
0000
3003
,
0001
0010
0001
0001
,
1000
0010
1000
1000
,
0001
0001
1000
1000
,
0010
0100
0001
1001
,
1000
0100
1000
1000
,
0001
0100
0001
0001
,
1000
1000
0001
0001
,
0100
0010
1000
1001
,
2000
3000
0010
0100
,
0001
0001
1000
1000
,
0020
0030
0100
0000
,
0001
0010
1000
0010
,
0002
0003
1000
0000
,
0010
0010
0100
0000
,
0001
0100
1000
0100
,
0001
1000
1001
0000
,
0002
0003
0100
0010
,
1000
1000
0001
0001
,
0200
0300
0010
0000
,
1000
0100
0001
0100
,
2000
3000
0001
0000
,
0100
0100
0010
0000
,
1000
0010
0001
0010
,
1000
0001
0100
0100
,
0001
0010
1000
0010
,
0200
0300
0010
0001
,
1000
0010
0001
0010
,
0200
0300
0010
1000
,
0200
0300
0010
0001
,
0200
0300
0010
1000
,
0001
0001
1000
1000
,
2002
3003
1000
0001
,
1000
0100
0001
0100
,
1000
0001
1000
1000
,
0001
0100
1000
0100
,
0001
1000
0001
0001
,
1000
0010
1000
0010
,
0001
0010
0001
0010
,
1000
0100
0001
0100
,
1000
0010
0100
0100
,
1001
0000
0000
1001
,
0020
0130
0001
1000
,
0001
0010
1000
0010
,
0200
0310
0001
1000
,
0001
0100
1000
0100
,
0001
0010
1000
0010
,
0001
0001
1000
1000
,
2002
3003
0000
0110
,
1000
0100
1000
1000
,
0001
0100
0001
0001
,
1000
1000
0001
0001
,
0100
0010
1000
1001
,
0001
0010
0001
0001
,
1000
0010
1000
1000
,
0001
0001
1000
1000
,
0010
0100
0001
1001
;

//---------------dance-single - ----------------
#NOTEDATA:;
#CHARTNAME:;
#STEPSTYPE:dance-single;
#DESCRIPTION:;
#CHARTSTYLE:;
#DIFFICULTY:Medium;
#METER:5;
#RADARVALUES:0.393055,0.433937,0.203806,0.314201,0.000000,324.000000,300.000000,24.000000,37.000000,0.000000,0.000000,0.000000,0.000000,0.000000,0.393055,0.433937,0.203806,0.314201,0.000000,324.000000,300.000000,24.000000,37.000000,0.000000,0.000000,0.000000,0.000000,0.000000;
#CREDIT:;
#NOTES:
0000
0000
0000
0000
,
0000
0000
0000
0000
,
0000
0000
0000
0000
,
0000
0000
0000
0000
,
2000
0000
0010
0000
0010
0000
3010
1000
,
0002
0000
0010
0000
0013
0000
0001
1000
,
0001
0100
0001
0100
0010
1000
0010
1000
,
0002
0000
0003
0000
0000
0001
1000
0100
,
1000
0000
0010
0000
0100
0001
1000
0000
,
0001
0000
0010
0000
0100
1000
0001
0000
,
1000
0010
1000
0000
0001
0010
0001
0000
,
1000
0100
1000
0001
1000
0000
1001
0000
,
0001
0000
0100
0000
0010
1000
0001
0000
,
1000
0000
0100
0000
0010
0001
1000
0000
,
0001
0010
0001
0010
0100
1000
0100
1000
,
0001
0000
1000
0000
0010
0100
0001
1000
,
0001
0010
1000
0010
,
0200
0310
0002
1003
,
0020
0100
1000
0130
,
0010
1000
0100
0010
,
0002
0010
0100
1003
,
0001
0100
0010
1000
0001
0000
1001
0000
,
2000
3200
0302
0203
,
0320
0032
2003
3001
,
1000
0100
0001
0100
,
0020
0130
2000
3001
,
0200
0010
0001
0310
,
0100
0001
0010
0100
,
2000
0100
0010
3001
,
1000
0010
0100
0001
1000
0000
1001
0000
,
0002
0023
2030
3020
,
0130
0100
1000
0000
0001
0010
0100
1000
,
0002
0010
0100
1003
,
0001
0000
0010
0000
0100
1000
0001
0000
,
2000
0010
0100
3001
,
1000
0000
0010
0000
0100
0001
1000
0001
,
0020
0000
0030
0000
0100
1000
0001
1000
,
0020
0000
0030
0000
0100
0001
1000
0001
,
0010
0110
1100
1010
,
0220
0000
0330
0000
0010
1000
0100
0010
,
0001
0000
0100
0000
0010
1000
0010
1000
,
0002
1003
1100
0101
,
1000
0000
0001
0000
0010
0001
0010
0001
,
0200
0310
1010
0011
,
2000
0010
0100
3001
,
1000
0010
0001
0010
1000
0000
1001
0000
,
0001
0010
0001
0010
0100
1000
0100
1000
,
0002
0000
1003
0000
0001
0100
0010
1000
,
0001
0000
0000
1001
,
2000
3001
1100
0101
,
2000
0000
3010
0000
0100
0001
1000
0001
,
0020
0130
1100
0101
,
2000
0010
3100
1000
,
0002
0010
0103
1001
,
0101
0101
1100
1100
,
1000
0001
0000
0100
0010
0000
1001
0000
,
0001
0000
0100
0000
0010
1000
0001
0000
,
1000
0000
0100
0000
0010
0001
1000
0000
,
0001
0100
0001
0000
1000
0100
1000
0000
,
0001
0010
0001
1000
0001
0000
1001
0000
,
1000
0000
0010
0000
0100
0001
1000
0000
,
0001
0000
0010
0000
0100
1000
0001
0000
,
1000
0100
1000
0100
0010
0001
0010
0001
,
1000
0000
0001
0000
0100
0010
1000
0001
;
