#TITLE:ようかい体操第一;
#SUBTITLE:;
#ARTIST:Dream5;
#TITLETRANSLIT:Youkai taisou daiichi;
#SUBTITLETRANSLIT:;
#ARTISTTRANSLIT:;
#GENRE:;
#CREDIT:;
#BANNER:Youkai taisou daiichi.png;
#BACKGROUND:Youkai taisou daiichi-bg.png;
#LYRICSPATH:;
#CDTITLE:;
#MUSIC:Youkai taisou daiichi.mp3;
#OFFSET:-0.324774;
#SAMPLESTART:6.054579;
#SAMPLELENGTH:14.880001;
#SELECTABLE:YES;
#BPMS:0.000000=124.999992
;
#STOPS:
;
#BGCHANGES:;
#KEYSOUNDS:;
#ATTACKS:;

//---------------dance-single - ----------------
#NOTES:
     dance-single:
     :
     Hard:
     7:
     0.481035,0.492027,0.334336,0.262693,0.029851,282.000000,254.000000,28.000000,22.000000,0.000000,0.000000,0.481035,0.492027,0.334336,0.262693,0.029851,282.000000,254.000000,28.000000,22.000000,0.000000,0.000000:
0000
0000
0000
0000
,
0000
0000
0000
0000
,
0000
0000
0000
0000
,
1000
1000
0010
0010
0100
0100
0001
0001
,
1000
1000
0001
0001
0010
0100
0010
0000
,
0001
0001
0010
0010
0100
0100
1000
1000
,
0001
0001
1000
1000
0010
0100
0010
0000
,
1010
0000
0011
0000
1000
0010
0001
0000
,
0010
1000
0010
1000
0100
0100
0000
1000
,
0002
0000
0103
0100
2000
0000
3100
0100
,
0020
0000
1030
0000
0001
1001
1001
0000
,
0001
0001
0100
0100
1000
1000
0100
0100
,
0010
0010
1000
1000
0001
1001
1001
0000
,
0001
0000
0000
0001
0010
0000
0100
0000
2000
0000
0000
0000
3010
0000
0000
0000
,
0002
0000
0013
0000
0100
0001
1000
0001
,
0020
0000
0130
1000
0001
0001
0000
1000
,
0001
0100
1000
0100
0020
0000
1030
0000
,
0001
0010
1000
0010
0002
0000
1003
0001
,
1000
0100
0001
0100
0010
0010
0001
0000
,
0101
0000
0000
0001
1000
0000
0010
0000
0100
0000
0100
0000
0001
0000
0000
0000
,
1100
0000
0000
1000
0001
0000
0100
0000
0010
0000
0010
0000
1000
0000
0000
0000
,
0001
0101
0000
1100
0000
2002
0000
3003
,
1000
1000
0001
0001
0101
0000
1010
0000
,
0011
0000
1100
0000
1002
0000
0103
0001
,
1000
0100
0010
0001
0100
0100
0100
0000
,
0000
0001
0010
0100
1000
0000
2100
0000
,
0001
0001
3001
0000
1000
0000
1010
0000
,
0001
0000
0011
0000
1000
0010
0001
0010
,
1000
0100
0001
0100
2002
0000
3003
0001
,
1000
0000
0000
0000
1100
0000
0000
1000
0001
0000
0010
0000
1000
0000
0010
0000
,
0200
0000
1300
0000
0002
1000
1003
0001
,
1000
1000
0100
0100
0010
0010
0001
0001
,
1000
1000
0001
0001
0100
0010
0100
0000
,
0001
0001
0100
0100
0010
0010
1000
1000
,
0001
0001
1000
1000
0100
0010
0100
0000
,
1100
0000
0101
0000
1000
0100
0001
0000
,
0100
1000
0100
1000
0010
0010
0000
1000
,
0002
0000
0013
0010
2000
0000
3010
0010
,
0200
0000
1300
0000
0001
1001
1001
0000
,
0001
0001
0010
0010
1000
1000
0010
0010
,
0100
0100
1000
1000
0001
1001
1001
0000
,
0001
0000
0000
0000
0010
0000
0000
0100
1000
0000
0010
0000
0100
0000
0001
0000
,
2002
3000
0200
0000
,
0000
0000
0000
0303
0000
0000
0000
0000
;

//---------------dance-single - ----------------
#NOTES:
     dance-single:
     :
     Easy:
     3:
     0.242223,0.284858,0.083584,0.202990,0.000000,142.000000,135.000000,7.000000,17.000000,0.000000,0.000000,0.242223,0.284858,0.083584,0.202990,0.000000,142.000000,135.000000,7.000000,17.000000,0.000000,0.000000:
0000
0000
0000
0000
,
0000
0000
0000
0000
,
0000
0000
0000
0000
,
1000
1000
0100
0100
,
0010
0001
1000
0001
,
0100
0100
0010
0010
,
1000
0100
0010
0001
,
1000
1000
0010
0010
,
0100
0001
1000
0000
,
0002
0003
0020
0030
,
0200
0300
1001
1001
,
1000
0010
0001
0010
,
0100
0010
1000
1001
,
0001
0010
0200
0300
,
1000
0010
0100
0100
,
0001
0000
0010
0000
,
0100
1000
0002
0003
,
1000
0000
0010
0000
,
0100
0001
2000
3000
,
0001
0010
0001
0001
,
1000
0010
1000
1000
,
0001
0000
0000
0010
0000
0020
0000
0030
,
0100
0100
1000
0010
,
0100
0001
2000
3000
,
0001
0010
0100
0100
,
0000
1000
1000
0000
,
0001
0000
0010
0010
,
0100
0100
1000
0001
,
1000
0001
2002
3003
,
1000
0010
0001
0100
,
2000
3000
0002
0003
,
0010
0010
0100
0100
,
1000
0010
0100
0001
,
1000
1000
0001
0001
,
0010
0100
1000
0001
,
1000
1000
0010
0010
,
0001
0010
0100
0000
,
0002
0003
0020
0030
,
0200
0300
1001
1001
,
1000
0100
0010
0100
,
0001
0100
1000
1001
,
1000
0010
0100
0001
,
2000
3000
0002
0000
,
0000
0000
0000
0003
0000
0000
0000
0000
;

//---------------dance-single - ----------------
#NOTES:
     dance-single:
     :
     Medium:
     5:
     0.397451,0.414338,0.358218,0.274633,0.000000,233.000000,203.000000,30.000000,23.000000,0.000000,0.000000,0.397451,0.414338,0.358218,0.274633,0.000000,233.000000,203.000000,30.000000,23.000000,0.000000,0.000000:
0000
0000
0000
0000
,
0000
0000
0000
0000
,
0000
0000
0000
0000
,
1100
1100
0101
0101
,
1000
0000
0010
0000
0100
0001
1000
0000
,
0011
0011
1010
1010
,
0001
0000
0010
0000
0100
1000
0001
0000
,
1100
1100
0011
0011
,
0001
1000
0001
1000
0100
0100
0000
0000
,
2000
3010
0002
0103
,
2000
0000
3001
0000
0100
0100
0100
0000
,
0001
0010
0001
0010
0100
1000
0100
1000
,
0001
0001
1000
1000
0010
0100
0010
0000
,
1000
0100
0020
0130
,
1000
0000
0010
0000
0100
0001
0100
0001
,
1000
0000
0100
0000
0010
0001
0000
0001
,
0010
0100
2000
3001
,
1000
0010
0100
0000
0002
0000
1003
0000
,
0001
0010
0100
0000
2000
0000
3001
0000
,
1100
0000
0101
0000
1000
0100
0001
0000
,
0101
0000
1100
0000
0001
0100
1000
0000
,
0100
0010
0000
0010
0000
0020
0000
0030
,
1000
1000
0001
0001
0020
0000
0230
0000
,
2300
3002
0203
0310
,
1000
0001
1000
0000
0100
0100
0100
0000
,
0000
1000
0010
0100
0002
0000
1003
0000
,
0100
0100
0100
0000
2000
0000
3010
0000
,
0002
0000
0013
0000
1000
0100
0001
0100
,
1000
0100
0001
0100
0010
0000
0000
0000
,
0101
0000
1100
0000
0001
0100
1000
0100
,
0002
0000
0013
0000
0200
1000
1300
0000
,
0011
0011
1010
1010
,
0001
0000
0100
0000
0010
1000
0001
0000
,
1100
1100
0101
0101
,
1000
0000
0100
0000
0010
0001
1000
0000
,
0011
0011
1100
1100
,
1000
0001
1000
0001
0010
0010
0000
0000
,
0002
0103
2000
3010
,
0002
0000
1003
0000
0010
0010
0010
0000
,
1000
0100
1000
0100
0010
0001
0010
0001
,
1000
1000
0001
0001
0100
0010
0100
0000
,
0001
0000
0010
0000
0100
1000
0001
1000
,
0020
0030
0200
0000
,
0000
0000
0000
0300
0000
0000
0000
0000
;

//---------------dance-double - ----------------
#NOTES:
     dance-double:
     :
     Hard:
     7:
     0.481035,0.492027,0.310455,0.262693,0.035822,282.000000,256.000000,26.000000,22.000000,0.000000,0.000000,0.481035,0.492027,0.310455,0.262693,0.035822,282.000000,256.000000,26.000000,22.000000,0.000000,0.000000:
// measure 0
00000000
00000000
00000000
00000000
,  // measure 1
00000000
00000000
00000000
00000000
,  // measure 2
00000000
00000000
00000000
00000000
,  // measure 3
10000000
10000000
00100000
00100000
01000000
01000000
00010000
00010000
,  // measure 4
00100000
00100000
00001000
00001000
00010000
00000100
00001000
00000000
,  // measure 5
00000001
00000001
00000100
00000100
00000010
00000010
00001000
00001000
,  // measure 6
00000100
00000100
00010000
00010000
00001000
00100000
00010000
00000000
,  // measure 7
10100000
00000000
00110000
00000000
10000000
00100000
00010000
00000000
,  // measure 8
00100000
01000000
00001000
00010000
00000100
00000100
00000000
00000010
,  // measure 9
00000002
00000000
00000103
00000100
00002000
00000000
00013000
00010000
,  // measure 10
02000000
00000000
13000000
00000000
00010000
10010000
10010000
00000000
,  // measure 11
10000000
10000000
00100000
00100000
00010000
00010000
00001000
00001000
,  // measure 12
00000010
00000010
00000001
00000001
00001000
00001001
00001001
00000000
,  // measure 13
00000001
00000000
00000000
00000001
00000100
00000000
00000010
00000000
00002000
00000000
00000000
00000000
00003100
00000000
00000000
00000000
,  // measure 14
00020000
00000000
00031000
00000000
01000000
00001000
00100000
00010000
,  // measure 15
20000000
00000000
30100000
01000000
00010000
00010000
00000000
10000000
,  // measure 16
01000000
00010000
00001000
00010000
02000000
00000000
13000000
00000000
,  // measure 17
00010000
01000000
10000000
01000000
00002000
00000000
00013000
00000100
,  // measure 18
00001000
00000010
00000001
00000010
00010000
00010000
00001000
00000000
,  // measure 19
00011000
00000000
00000000
00010000
00000100
00000000
00001000
00000000
00000010
00000000
00010000
00000000
00001000
00000000
00000000
00000000
,  // measure 20
00011000
00000000
00000000
00001000
00100000
00000000
00010000
00000000
01000000
00000000
00001000
00000000
00010000
00000000
00000000
00000000
,  // measure 21
00000100
00000110
00000000
00000011
00000000
00002002
00000000
00003003
,  // measure 22
00000001
00000001
00001000
00001000
00001010
00000000
00010100
00000000
,  // measure 23
00101000
00000000
01010000
00000000
20010000
00000000
30100000
01000000
,  // measure 24
00010000
00100000
10000000
00100000
01000000
01000000
10010000
00000000
,  // measure 25
00000000
00000000
10000000
00000000
00100000
00000000
01000000
00000000
00020000
00000000
00000000
00000000
00030000
00000000
00100000
01000000
,  // measure 26
00100000
00200000
00300000
00000000
01000000
00000000
10000000
00100000
,  // measure 27
00010000
01000000
10000000
00000000
00100000
00100000
01000000
01000000
,  // measure 28
00001000
00001000
00010000
00010000
00022000
00000000
00033000
00001000
,  // measure 29
00010000
00000000
00000000
00000000
00010010
00000000
00000000
00000010
00000100
00000000
00000001
00000000
00001000
00000000
00000100
00000000
,  // measure 30
00000020
00000000
00000130
00000000
00002000
00000001
00003001
00000100
,  // measure 31
00000001
00000001
00000100
00000100
00000010
00000010
00001000
00001000
,  // measure 32
00000100
00000100
00010000
00010000
00001000
00100000
00010000
00000000
,  // measure 33
10000000
10000000
00100000
00100000
01000000
01000000
00010000
00010000
,  // measure 34
00100000
00100000
00001000
00001000
00010000
00000100
00001000
00000000
,  // measure 35
00000101
00000000
00001100
00000000
00000001
00000100
00001000
00000000
,  // measure 36
00000100
00000010
00010000
00001000
00100000
00100000
00000000
01000000
,  // measure 37
20000000
00000000
30100000
00100000
00020000
00000000
00031000
00001000
,  // measure 38
00000020
00000000
00000031
00000000
00001000
00001001
00001001
00000000
,  // measure 39
00000001
00000001
00000100
00000100
00001000
00001000
00010000
00010000
,  // measure 40
01000000
01000000
10000000
10000000
00010000
10010000
10010000
00000000
,  // measure 41
10000000
00000000
00000000
00000000
00100000
00000000
00000000
00010000
00100000
00000000
01000000
00000000
00001000
00000000
00010000
00000000
,  // measure 42
00010200
00000300
00000020
00000000
,  // measure 43
00000000
00000000
00000000
00000030
00000000
00000000
00000000
00000000
;
