#VERSION:0.83;
#TITLE:Wonderful Night!!;
#SUBTITLE:;
#ARTIST:SHIHORI;
#TITLETRANSLIT:;
#SUBTITLETRANSLIT:;
#ARTISTTRANSLIT:;
#GENRE:;
#ORIGIN:;
#CREDIT:;
#BANNER:Wonderful Night!!.png;
#BACKGROUND:Wonderful Night!!-bg.png;
#PREVIEWVID:;
#JACKET:Wonderful Night!!-jacket.png;
#CDIMAGE:;
#DISCIMAGE:;
#LYRICSPATH:;
#CDTITLE:;
#MUSIC:Wonderful Night!!.mp3;
#OFFSET:-0.059000;
#SAMPLESTART:48.020000;
#SAMPLELENGTH:17.580000;
#SELECTABLE:YES;
#BPMS:0.000=160.000;
#STOPS:;
#DELAYS:;
#WARPS:;
#TIMESIGNATURES:0.000=4=4;
#TICKCOUNTS:0.000=4;
#COMBOS:0.000=1;
#SPEEDS:0.000=1.000=0.000=0;
#SCROLLS:0.000=1.000;
#FAKES:;
#LABELS:0.000=Song Start;
#BGCHANGES:;
#KEYSOUNDS:;
#ATTACKS:
;

//---------------dance-single - Blank----------------
#NOTEDATA:;
#CHARTNAME:;
#STEPSTYPE:dance-single;
#DESCRIPTION:Blank;
#CHARTSTYLE:;
#DIFFICULTY:Hard;
#METER:8;
#RADARVALUES:0.634713,0.652762,0.094756,0.178983,0.178983,422.000000,413.000000,9.000000,17.000000,0.000000,0.000000,0.000000,0.000000,0.000000,0.634713,0.652762,0.094756,0.178983,0.178983,422.000000,413.000000,9.000000,17.000000,0.000000,0.000000,0.000000,0.000000,0.000000;
#CREDIT:;
#NOTES:
0000
0000
0000
0000
,
0000
0000
0000
0000
,
0000
0000
0000
0000
,
0000
0000
0000
0000
,
1000
0000
0100
0010
0000
0010
0001
0000
1000
0000
0010
0100
0000
0100
0001
0000
,
1000
0000
0001
0010
0000
0010
0100
0000
2000
0000
0000
0000
3001
0000
0000
0000
,
1000
0000
0001
0100
0000
0010
1000
0000
0001
0000
0010
0100
0000
1000
0002
0000
,
0000
0010
0003
0100
0101
0000
1100
0000
,
0001
0010
0100
1000
0100
0010
0001
1000
,
0001
0100
0010
1000
0010
0100
0001
1000
,
0001
0010
0100
1000
0010
0100
0001
0100
,
0010
1000
0100
0010
0001
0010
0100
0000
,
1000
0010
0100
0001
0010
0001
0100
0010
,
1000
0100
1000
0010
0100
0001
1000
0000
,
0001
0010
0100
1000
0010
1000
0001
0100
,
0001
0010
0100
1000
,
0001
0100
1000
0100
0001
0100
0010
1000
,
0100
0001
0100
1000
0010
0100
0001
0010
,
1000
0010
0001
0100
0010
1000
0100
0010
,
0001
0100
0010
1000
0010
0001
0010
0000
,
1000
0100
0010
0001
0010
1000
0010
0100
,
1000
0010
0100
0001
0100
1000
0100
0000
,
0010
1000
0100
0010
0001
0100
1000
0100
,
0010
1000
0100
0010
0001
0010
0100
1000
,
0001
0000
0011
0000
0220
0000
0330
2200
,
0000
3300
0001
0000
0100
0000
0010
0000
,
1000
0100
0001
0100
0010
0001
0100
1000
,
0100
0100
0010
0010
1000
1000
0001
0001
,
0020
0130
2000
3001
,
0200
0310
2000
3001
,
1000
0100
0001
0100
0010
0001
1000
0100
,
1000
0010
0001
0010
0200
0000
0310
0000
,
1000
0100
0010
0001
0010
1000
0010
0100
,
1000
0010
0001
0010
0100
0001
0100
0010
,
1000
0100
0001
0100
1000
0010
0100
0001
,
0100
1000
0100
0010
1000
0001
0100
0000
,
0001
0010
0100
1000
0001
0001
0001
0000
,
1000
0010
0100
0001
1000
1000
1000
0000
,
0001
0010
0100
1000
0010
0100
1000
0100
,
0010
1000
0100
0001
0200
0000
0310
0000
,
0001
0010
0100
1000
0010
0100
0001
0100
,
0010
1000
0100
0001
0100
1000
0010
0100
,
0001
0010
1000
0010
0001
0100
0010
1000
,
0001
0010
1000
0010
0001
0100
0010
0000
,
1000
0100
0010
0001
0100
0100
0100
0000
,
0001
0010
0100
1000
0010
0010
0010
0000
,
1000
0010
0100
0001
0010
1000
0010
0001
,
0100
0010
1000
0001
,
1000
0100
0001
0100
0010
0001
0100
1000
,
0100
0010
1000
0010
0001
0010
0100
0001
,
0010
1000
0010
0100
1000
0010
0100
0001
,
1000
0100
0011
1010
,
1000
0000
0100
0010
0000
0010
0001
0000
1000
0000
0010
0100
0000
0100
0001
0000
,
1000
0000
0001
0010
0000
0010
0100
0000
2000
0000
0000
0000
3001
0000
0000
0000
,
1000
0000
0001
0100
0000
0010
1000
0000
0001
0000
0010
0100
0000
1000
0001
0000
,
2000
3010
0101
1100
,
0001
0000
0010
0100
0000
1000
0001
0000
1000
0000
0010
0100
0000
0001
1000
0000
,
0001
0000
0010
0100
0000
1000
0010
0000
0200
0000
0000
0000
0301
0000
0000
0000
,
1000
0000
0001
0100
0000
0010
1000
0000
0001
0000
1000
0100
0000
0010
0002
0000
,
0000
0000
0010
0000
0000
0000
0103
0000
0010
1000
0010
0000
0100
0001
0100
0000
,
0001
0010
0001
0000
1000
0100
1000
0000
0002
0000
0000
0000
0000
0000
0000
0000
,
0000
0000
0000
0000
,
0003
0000
0000
0000
;

//---------------dance-single - Blank----------------
#NOTEDATA:;
#CHARTNAME:;
#STEPSTYPE:dance-single;
#DESCRIPTION:Blank;
#CHARTSTYLE:;
#DIFFICULTY:Easy;
#METER:4;
#RADARVALUES:0.330893,0.326381,0.021057,0.094756,0.000000,220.000000,218.000000,2.000000,9.000000,0.000000,0.000000,0.000000,0.000000,0.000000,0.330893,0.326381,0.021057,0.094756,0.000000,220.000000,218.000000,2.000000,9.000000,0.000000,0.000000,0.000000,0.000000,0.000000;
#CREDIT:;
#NOTES:
0000
0000
0000
0000
,
0000
0000
0000
0000
,
0000
0000
0000
0000
,
0000
0000
0000
0000
,
1000
0100
0010
0001
,
0010
0100
1000
1000
,
0001
0100
0010
1000
,
0002
1003
0010
0010
,
1000
0100
0001
0100
,
0010
0001
1000
0100
,
1000
0010
0001
0010
,
0100
0001
1000
0100
,
1000
0010
0001
0010
,
0100
0001
1000
0100
,
0001
0100
0010
0001
,
1000
1000
0001
0001
,
1000
0010
0001
0010
,
0100
0001
1000
0100
,
0001
0100
0010
0001
,
1000
0100
1000
0010
,
0001
0010
0100
0001
,
1000
1000
0001
0001
,
1000
0100
0001
0100
,
0010
0001
1000
0100
,
1000
0010
0200
0300
,
0001
0010
0200
0300
,
1000
0010
0001
0010
,
0100
0100
0010
0010
,
1000
0100
0010
0001
,
1000
0010
0100
0001
,
1000
0100
0001
0100
,
1000
0001
1001
0000
,
1000
0010
0001
0010
,
0100
0001
1000
0100
,
0001
0100
0010
0001
,
0010
1000
0010
0100
,
1000
0010
0200
0300
,
0001
0010
0200
0300
,
1000
0100
0001
0100
,
1000
0001
1001
0000
,
0001
0100
0010
1000
,
0010
0001
0010
0100
,
0001
1000
0100
0001
,
0100
0010
0001
1000
,
0100
1000
0020
0030
,
0100
0001
0020
0030
,
0100
1000
0001
0010
,
0001
0001
1000
1000
,
0001
0100
1000
0100
,
0010
1000
0001
0010
,
1000
0010
0100
1000
,
0001
0100
0010
0010
,
1000
0010
0100
0001
,
0100
0010
1000
1000
,
0001
0010
0100
1000
,
0002
0003
0100
0100
,
0010
1000
0100
0001
,
0100
0010
0001
0001
,
1000
0010
0001
0010
,
0100
0001
1000
1000
,
0001
0001
2000
0000
,
0000
0000
0000
0000
,
3000
0000
0000
0000
;

//---------------dance-single - ----------------
#NOTEDATA:;
#CHARTNAME:;
#STEPSTYPE:dance-single;
#DESCRIPTION:;
#CHARTSTYLE:;
#DIFFICULTY:Medium;
#METER:6;
#RADARVALUES:0.436177,0.489572,0.147398,0.242154,0.000000,290.000000,276.000000,14.000000,23.000000,0.000000,0.000000,0.000000,0.000000,0.000000,0.436177,0.489572,0.147398,0.242154,0.000000,290.000000,276.000000,14.000000,23.000000,0.000000,0.000000,0.000000,0.000000,0.000000;
#CREDIT:;
#NOTES:
0000
0000
0000
0000
,
0000
0000
0000
0000
,
0000
0000
0000
0000
,
0000
0000
0000
0000
,
1000
0100
0010
0000
0001
0010
0100
0000
,
1000
0001
1000
0000
0020
0000
0130
0000
,
0001
0100
0010
0000
1000
0010
0100
0001
,
1000
0001
0101
1100
,
0000
0001
0000
0010
0000
0100
0000
1000
,
0000
0100
0000
0010
0000
0001
1000
0001
,
0000
1000
0000
0010
0000
0100
0000
0001
,
0000
0100
0000
0010
0000
1000
0001
1000
,
0000
0001
0000
0100
0000
1000
0000
0100
,
0000
0001
0000
0010
0000
0100
1000
0001
,
0000
1000
0000
0010
0000
0001
0000
0010
,
0000
0100
0001
0100
0010
1000
0001
0000
,
0000
1000
0000
0100
0000
0001
0000
0010
,
0000
0001
0000
0100
0000
1000
0010
0100
,
0000
0001
0000
0100
0000
1000
0000
0010
,
0000
1000
0000
0100
0000
0001
0010
0100
,
0000
1000
0000
0010
0000
0001
0000
1000
,
0000
0100
0000
0001
0000
0010
0100
1000
,
0000
0001
0000
0010
0000
1000
0000
0001
,
0000
0100
1000
0010
0200
0000
0301
0000
,
1000
0010
0202
0303
,
0001
0010
2200
3300
,
1000
0010
0001
0010
,
0100
0001
0100
0001
2000
0000
3100
0000
,
0020
0100
0130
1001
,
0200
0010
0310
1001
,
0001
0100
0010
1000
0002
0000
1003
0000
,
0001
0010
0100
1000
0001
0000
1001
0000
,
0002
0010
0100
1003
,
0001
0000
0100
0000
1000
0001
0010
0000
,
2000
0100
0010
3001
,
1000
0000
0010
0000
0001
1000
0100
0000
,
0001
0000
0010
0000
0100
0100
0100
0000
,
1000
0000
0010
0000
0100
0100
0100
0000
,
0001
0100
1000
0100
,
0001
0010
0100
1000
0001
0000
1001
0000
,
2000
0100
0010
3001
,
1000
0000
0010
0000
0001
1000
0100
0000
,
0002
0010
0100
1003
,
0001
0000
0100
0000
1000
0001
0010
0000
,
1000
0000
0100
0000
0010
0010
0010
0000
,
0001
0000
0100
0000
0010
0010
0010
0000
,
1000
0010
0001
0010
,
1000
0100
0010
0001
1000
0010
0100
0001
,
2000
0010
0100
3100
,
1000
0000
0010
0000
0100
0001
1000
0001
,
0020
0001
0100
1030
,
0010
0001
0100
0010
1000
0000
1001
0000
,
0001
0010
0100
0000
1000
0100
0010
0000
,
0001
1000
0001
0000
0200
0000
0310
0000
,
1000
0010
0100
0000
0001
0100
0010
1000
,
0001
1000
1010
0011
,
0001
0010
1000
0000
1000
0010
0001
0000
,
0001
0100
1000
0000
0200
0000
0310
0000
,
1000
0100
0001
0000
0001
0100
1000
0001
,
2000
3010
0102
1003
,
2100
3001
2002
0000
,
0000
0000
0000
0000
,
3003
0000
0000
0000
;

//---------------dance-double - ----------------
#NOTEDATA:;
#CHARTNAME:;
#STEPSTYPE:dance-double;
#DESCRIPTION:;
#CHARTSTYLE:;
#DIFFICULTY:Hard;
#METER:8;
#RADARVALUES:0.580567,0.718038,0.157926,0.221097,0.173719,386.000000,371.000000,15.000000,21.000000,0.000000,0.000000,0.000000,0.000000,0.000000,0.580567,0.718038,0.157926,0.221097,0.173719,386.000000,371.000000,15.000000,21.000000,0.000000,0.000000,0.000000,0.000000,0.000000;
#CREDIT:;
#NOTES:
// measure 0
00000000
00000000
00000000
00000000
,  // measure 1
00000000
00000000
00000000
00000000
,  // measure 2
00000000
00000000
00000000
00000000
,  // measure 3
00000000
00000000
00000000
00000000
,  // measure 4
00001000
00100000
00001000
00010000
,  // measure 5
00001000
01000000
00100000
10000000
00010000
00000000
10010000
00000000
,  // measure 6
10000000
00000000
00000000
00000000
01000000
00000000
00000000
00000000
00100000
00000000
00010000
01000000
00000000
00001000
00010000
00000000
,  // measure 7
00000000
00000100
00001000
00000001
00000101
00000000
00001001
00000000
,  // measure 8
00000000
00000001
00000000
00000010
00000000
00001000
00000000
00000010
,  // measure 9
00000000
00000100
00000000
00010000
00000000
00001000
00000000
00100000
,  // measure 10
00010000
01000000
10000000
01000000
00100000
10000000
00001000
00010000
,  // measure 11
00000100
00001000
00000010
00000001
00000010
00000100
00000001
00001000
,  // measure 12
00000000
00000001
00000000
00000010
00000000
00001000
00000000
00010000
,  // measure 13
00000000
00001000
00000000
00000010
00000000
00000001
00000000
00000100
,  // measure 14
00001000
00010000
00001000
00000100
00000010
00010000
00001000
00100000
,  // measure 15
00000000
00010000
00000000
01000000
00000000
00100000
00000000
10000000
,  // measure 16
00010000
01000000
10000000
01000000
00100000
10000000
00001000
00010000
,  // measure 17
00000100
00000000
00001000
00000000
00000010
00000000
00000100
00000000
00000001
00000000
00001000
00000000
00000001
00000000
00000000
00000001
,  // measure 18
00001000
00000010
00000001
00000010
00000100
00000001
00010000
00001000
,  // measure 19
00100000
00010000
01000000
00100000
10000000
00010000
10000000
00000000
,  // measure 20
00010000
01000000
10000000
01000000
00001000
00010000
00000100
00001000
,  // measure 21
00000010
00000001
00000010
00010000
00001000
00100000
00010000
00000000
,  // measure 22
10000000
00100000
00010000
00001000
00000010
00000001
00001000
00001100
,  // measure 23
00000000
00000100
00010000
00010000
00001000
00001000
01000000
01000000
,  // measure 24
00100000
00000000
10100000
00000000
02020000
00000000
00000000
03030000
,  // measure 25
00000000
00000000
11000000
00000000
00000000
00000000
00110000
00000000
00001000
00010000
00000100
00000000
00000100
00000000
00000000
00000000
,  // measure 26
00000000
00000000
00001010
00000000
00000202
00000000
00000000
00000303
,  // measure 27
00000002
00000023
00002030
00023000
,  // measure 28
01030000
00000000
10000000
00100000
00010000
00002000
00000000
00003000
,  // measure 29
00000010
00000000
00000001
00000000
00000100
00000000
00000100
00000000
00000010
00010000
00001000
00000000
00100000
00000000
00010000
00000000
,  // measure 30
01000000
00010000
01000000
10000000
01000000
10000000
01000000
00100000
,  // measure 31
10000000
00000000
00010000
01000000
00010000
00000000
10000000
00100000
10000000
00000000
00010000
00100000
00001000
00010000
00000100
00001000
,  // measure 32
00000002
00000010
00000100
00001003
,  // measure 33
00000001
00000010
00010000
00000010
00000100
00001000
00001001
00000000
,  // measure 34
00000002
00000000
00000100
00000000
00001000
00000000
00000103
00000001
,  // measure 35
00000100
00001000
00010000
00000000
00100000
01000000
00001000
00010000
,  // measure 36
00000100
00000100
00000100
00001000
00000001
00000001
00000001
00000100
,  // measure 37
00000010
00000010
00000010
00010000
00001000
00001000
00001000
00100000
,  // measure 38
00010000
01000000
10000000
01000000
00001000
01000000
00100000
10000000
,  // measure 39
00001000
00000000
00010000
00000000
00000100
00000000
00001000
00000000
00000001
00000100
00000001
00001000
00000100
00001000
00000010
00010000
,  // measure 40
00002000
01000000
10000000
00103000
,  // measure 41
00001000
01000000
10000000
01000000
00100000
10000000
10010000
00000000
,  // measure 42
20000000
00000000
00100000
00000000
30010000
00000000
10000000
00100000
,  // measure 43
00010000
00001000
00010000
00000000
00100000
01000000
00001000
00010000
,  // measure 44
00000100
00000100
00000100
00001000
00000010
00000010
00000010
00010000
,  // measure 45
00001000
00001000
00001000
01000000
10000000
10000000
10000000
01000000
,  // measure 46
00100000
10000000
00100000
00010000
00100000
01000000
00001000
00010000
,  // measure 47
00000000
00000100
00000000
00001000
00000000
00000010
00000100
00000001
,  // measure 48
00001000
00000001
00002000
00000000
00000000
00000000
00000000
00000000
00000000
00000000
00000000
00000000
00003000
00000000
00000010
00000000
,  // measure 49
00000100
00000000
00000000
00000001
00000000
00000000
00001000
00000000
00000000
00000000
00000100
00000000
00010000
00000000
00001000
00000000
,  // measure 50
00100000
00010000
20000000
00000000
00000000
00000000
00000000
00000000
00000000
00000000
00000000
00000000
30000000
00000000
00010000
00000000
,  // measure 51
00000000
00100000
00000000
01000000
20000000
30100000
00020000
00130000
,  // measure 52
00010000
00000100
00010000
00001000
,  // measure 53
00010000
00000010
00000100
00000001
00001000
00000000
00001001
00000000
,  // measure 54
00000001
00000000
00000000
00000000
00000010
00000000
00000000
00000000
00000100
00000000
00001000
00000010
00000000
00010000
00001000
00000000
,  // measure 55
00200000
00310000
10100000
10010000
,  // measure 56
10000000
00000000
00100000
01000000
00000000
00100000
01000000
00000000
00010000
00000000
00100000
01000000
00000000
00100000
01000000
00000000
,  // measure 57
10000000
00000000
00100000
01000000
00000000
00001000
00010000
00000000
00000200
00000000
00000000
00000000
00001300
00000000
00000000
00000000
,  // measure 58
00000001
00000000
00000100
00000010
00000000
00000100
00000010
00000000
00001000
00000000
00000100
00000010
00000000
00000001
00002000
00000000
,  // measure 59
00000000
00000000
00003100
00000000
00000000
00000000
00010000
00000000
00001000
01000000
00100000
00000000
10000000
00100000
01000000
00000000
,  // measure 60
00001000
00010000
00000100
00000000
00001000
00000010
00000100
00000000
00000002
00000000
00000000
00000000
00000000
00000000
00000000
00000000
,  // measure 61
00000000
00000000
00000000
00000000
,  // measure 62
00000003
00000000
00000000
00000000
;
