#VERSION:0.81;
#TITLE:We Like to Party (The Vengabus);
#SUBTITLE:;
#ARTIST:Vengaboys;
#TITLETRANSLIT:;
#SUBTITLETRANSLIT:;
#ARTISTTRANSLIT:;
#GENRE:;
#ORIGIN:;
#CREDIT:;
#BANNER:We Like to Party.png;
#BACKGROUND:We Like to Party-bg.png;
#PREVIEWVID:;
#JACKET:We Like to Party-jacket.png;
#CDIMAGE:;
#DISCIMAGE:;
#LYRICSPATH:;
#CDTITLE:;
#MUSIC:We Like to Party.mp3;
#OFFSET:-0.127;
#SAMPLESTART:69.560;
#SAMPLELENGTH:16.440;
#SELECTABLE:YES;
#BPMS:0.000=136.000;
#STOPS:;
#DELAYS:;
#WARPS:;
#TIMESIGNATURES:0.000=4=4;
#TICKCOUNTS:0.000=4;
#COMBOS:0.000=1;
#SPEEDS:0.000=1.000=0.000=0;
#SCROLLS:0.000=1.000;
#FAKES:;
#LABELS:0.000=Song Start;
#BGCHANGES:;
#KEYSOUNDS:;
#ATTACKS:
;

//---------------dance-single - Blank----------------
#NOTEDATA:;
#CHARTNAME:;
#STEPSTYPE:dance-single;
#DESCRIPTION:Blank;
#CHARTSTYLE:;
#DIFFICULTY:Hard;
#METER:7;
#RADARVALUES:0.524,0.474,0.208,0.208,0.154,328.000,21.000,21.000,0.000,0.000,0.000,0.000,0.000,0.524,0.474,0.208,0.208,0.154,328.000,21.000,21.000,0.000,0.000,0.000,0.000,0.000;
#CREDIT:;
#NOTES:
0000
0000
0000
0000
,
0000
0000
0000
0000
,
0000
0000
0000
0000
,
0000
0000
0000
0000
,
1000
1000
0100
1000
0001
0001
0100
0000
,
0001
0001
0010
0001
1000
1000
0010
0000
,
1000
1000
0100
0001
0100
0100
1000
0001
,
1000
1000
0010
0001
0010
0010
1000
0001
,
0101
0000
1100
0000
0001
1000
0000
0000
,
0000
0000
1000
0000
0010
0000
0000
0000
0100
0001
0000
0001
1000
0000
0000
0000
,
1010
0000
0011
0000
1000
0001
0000
0000
,
0000
0000
0001
0000
0100
0000
0000
0000
0010
1000
0000
1000
0001
0000
0000
0000
,
1100
0000
0011
0000
0001
0100
0000
0000
,
0000
0000
0010
0000
1000
0000
0000
0000
0001
0010
0000
0100
1000
0000
0000
0000
,
0011
0000
1100
0000
1000
0010
0000
0000
,
2002
0000
3003
1000
0100
0001
0100
1000
,
0001
0000
0000
0001
0000
0000
1000
0000
0010
0000
0001
0000
0010
0000
1000
0000
,
0001
0000
0000
0001
0000
0000
0001
0000
0100
0000
1000
0000
0100
0000
0001
0000
,
1000
0000
0000
1000
0000
0000
1000
0000
0010
0000
0001
0000
0010
0000
1000
0000
,
0001
0000
0000
0001
0000
0000
1000
0000
0100
0000
0001
0000
0100
0000
0010
0000
,
0100
0000
0000
0100
0000
0000
1000
0000
0010
0000
0001
0000
0010
0000
0100
0000
,
0010
0000
0000
0010
0000
0000
1000
0000
0100
0000
0001
0000
1000
0000
0010
0000
,
0001
0000
0000
0001
0000
0000
1000
0000
0010
0000
0001
0000
1000
0000
0100
0000
,
0001
0000
0000
0001
0000
0000
0000
0000
0010
0000
0000
0000
0100
0000
0000
0000
,
1100
0000
0101
0000
1000
0010
0100
0002
,
0000
1000
1003
0000
0010
0000
0100
0000
,
0101
0000
1100
0000
0001
0010
0100
2000
,
0000
0001
3001
0000
0100
0000
0010
0000
,
1010
0000
0011
0000
1001
0000
0001
0200
,
0000
0010
0310
0000
1000
0000
0001
0000
,
1000
0100
0001
0100
1000
0001
1000
0000
,
0001
0010
0001
0000
1000
0010
1000
0000
,
0102
1003
2100
3001
,
1000
0100
0001
0010
2000
0000
3001
0000
,
2000
0000
3020
0000
0230
0000
0301
0002
,
0000
0010
0010
0013
0200
0000
1300
0000
,
2010
3001
0012
1003
,
0001
0010
1000
0100
0002
0000
1003
0000
,
0002
0000
0203
0000
0320
0000
1030
0001
,
2002
0000
3003
1000
0100
0001
0100
1000
,
0001
0000
0000
0001
0000
0000
1000
0000
0010
0000
0001
0000
0010
0000
1000
0000
,
0001
0000
0000
0001
0000
0000
0001
0000
0100
0000
1000
0000
0100
0000
0001
0000
,
1000
0000
0000
1000
0000
0000
1000
0000
0010
0000
0001
0000
0010
0000
1000
0000
,
0001
0000
0000
0001
0000
0000
1000
0000
0100
0000
0001
0000
0100
0000
0010
0000
,
0100
0000
0000
0100
0000
0000
1000
0000
0010
0000
0001
0000
0010
0000
0100
0000
,
0010
0000
0000
0010
0000
0000
1000
0000
0100
0000
0001
0000
1000
0000
0010
0000
,
0001
0000
0000
0001
0000
0000
1000
0000
0010
0000
0001
0000
1000
0000
0100
0000
,
0001
0000
0000
0001
0000
0000
1000
0000
0100
0000
0001
0000
0010
0000
1000
0000
,
0001
0000
0000
0001
0010
0000
0100
0000
1000
0000
0010
0000
0001
0000
0010
0000
,
1000
0000
0000
1000
0100
0000
0010
0000
0001
0000
0100
0000
1000
0000
0100
0000
,
0001
0000
0000
0001
0010
0000
0100
0000
1000
0000
1000
0000
1000
0000
0001
0000
,
1000
0000
0000
1000
0010
0000
0100
0000
0001
0000
0010
0000
1000
0000
0010
0000
,
0001
0000
0000
0001
0100
0000
1000
0000
0100
0000
0010
0000
0100
0000
0001
0000
,
1000
0000
0000
1000
0100
0000
0001
0000
0100
0000
0010
0000
0100
0000
1000
0000
,
0001
0000
0000
0001
0010
0000
1000
0000
0010
0000
0010
0000
0010
0000
0100
0000
,
1000
0000
0000
1000
0001
0000
1000
0000
0100
0000
0001
0000
0010
0000
1000
0000
,
0001
0000
0000
0001
0000
0000
0000
0000
0000
0000
0000
0000
0000
0000
0000
0000
;

//---------------dance-double - Blank----------------
#NOTEDATA:;
#CHARTNAME:;
#STEPSTYPE:dance-double;
#DESCRIPTION:Blank;
#CHARTSTYLE:;
#DIFFICULTY:Hard;
#METER:8;
#RADARVALUES:0.540,0.502,0.308,0.218,0.189,328.000,31.000,22.000,0.000,0.000,0.000,0.000,0.000,0.540,0.502,0.308,0.218,0.189,328.000,31.000,22.000,0.000,0.000,0.000,0.000,0.000;
#CREDIT:;
#NOTES:
00000000
00000000
00000000
00000000
,
00000000
00000000
00000000
00000000
,
00000000
00000000
00000000
00000000
,
00000000
00000000
00000000
00000000
,
10000000
10000000
01000000
00010000
00100000
00100000
00001000
00000000
,
00010000
00010000
00000010
00000100
00000001
00000001
00001000
00000000
,
00000001
00000001
00000100
00001000
00000100
00000100
00001000
00010000
,
00001000
00001000
00010000
00100000
00010000
00010000
00100000
00000000
,
10100000
00000000
01010000
00000000
00100000
00001000
00000000
00000000
,
00000000
00000000
00010000
00000000
00000100
00000000
00000000
00000000
00001000
00000010
00000000
00000100
00000001
00000000
00000000
00000000
,
00000101
00000000
00001010
00000000
00000100
00010000
00000000
00000000
,
00000000
00000000
00001000
00000000
00100000
00000000
00000000
00000000
00010000
01000000
00000000
00100000
10000000
00000000
00000000
00000000
,
10100000
00000000
00110000
00000000
00010000
00001000
00000000
00000000
,
00000000
00000000
00001000
00000000
00000100
00000000
00000000
00000000
00000100
00000001
00000000
00000001
00001000
00000000
00000000
00000000
,
00000011
00000000
00001010
00000000
00001000
00010000
00000000
00000000
,
20020000
00000000
30030000
10000000
01000000
00010000
01000000
00100000
,
00001000
00000000
00000000
00001000
00000000
00000000
00010000
00000000
00000100
00000000
00010000
00000000
00000010
00000000
00000100
00000000
,
00000001
00000000
00000000
00000001
00000000
00000000
00001000
00000000
00000100
00000000
00010000
00000000
00000010
00000000
00000100
00000000
,
00001000
00000000
00000000
00001000
00000000
00000000
00010000
00000000
00100000
00000000
10000000
00000000
01000000
00000000
00010000
00000000
,
00001000
00000000
00000000
00001000
00000000
00000000
00100000
00000000
01000000
00000000
10000000
00000000
00100000
00000000
00010000
00000000
,
00001000
00000000
00000000
00001000
00000000
00000000
00000010
00000000
00000001
00000000
00000100
00000000
00001000
00000000
00010000
00000000
,
00001000
00000000
00000000
00001000
00000000
00000000
00010000
00000000
00001000
00000000
01000000
00000000
00100000
00000000
10000000
00000000
,
01000000
00000000
00000000
01000000
00000000
00000000
00010000
00000000
00001000
00000000
00000100
00000000
00000001
00000000
00001000
00000000
,
00000010
00000000
00000000
00000010
00000000
00000000
00000000
00000000
00000100
00000000
00000000
00000000
00000001
00000000
00000000
00000000
,
00000011
00000000
00001100
00000000
00000001
00000100
00001000
00000200
,
00000000
00000010
00000310
00000000
00001000
00000000
00000100
00000000
,
00010100
00000000
00101000
00000000
00001000
01000000
00010000
00200000
,
00000000
01000000
01300000
00000000
10000000
00100000
00010000
00100000
,
10100000
00000000
01010000
00000000
00011000
00000000
00010000
00000200
,
00000000
00000010
00000310
00000000
00000001
00000000
00001000
00000020
,
00000000
00000130
00000001
00001000
00000010
00010000
00001000
00000000
,
10000000
00100000
00010000
00000000
00001000
00000100
00000001
00000000
,
00000012
00001003
00002010
00003001
,
00000001
00000100
00001000
00010000
02000000
00000000
13000000
00000000
,
00020000
00000000
02030000
00000000
03200000
00000000
00310000
00020000
,
00000000
00001000
00001000
00031000
00000020
00000000
00000031
00000000
,
00000102
00001003
00002100
00003001
,
00000001
00000010
00001000
00010000
00200000
00000000
10300000
00000000
,
00020000
00000000
00230000
00000000
02300000
00000000
03010000
00010000
,
00022000
00000000
00033000
00001000
00000010
00000001
00000010
00000100
,
00010000
00000000
00000000
00010000
00000000
00000000
00100000
00000000
10000000
00000000
01000000
00000000
00010000
00000000
01000000
00000000
,
01100000
00000000
00000000
00100000
00000000
00000000
00010000
00000000
00100000
00000000
00001000
00000000
01000000
00000000
10000000
00000000
,
01000000
00000000
00000000
01000000
00000000
00000000
00010000
00000000
00100000
00000000
10000000
00000000
00010000
00000000
01000000
00000000
,
00100000
00000000
00000000
00100000
00000000
00000000
00001000
00000000
00010000
00000000
00000010
00000000
00000100
00000000
00001000
00000000
,
00010000
00000000
00000000
00010000
00000000
00000000
00100000
00000000
01000000
00000000
00001000
00000000
00010000
00000000
00000100
00000000
,
00001000
00000000
00000000
00001000
00000000
00000000
00000001
00000000
00000100
00000000
00001000
00000000
00010000
00000000
01000000
00000000
,
10000000
00000000
00000000
10000000
00000000
00000000
10000000
00000000
00100000
00000000
00010000
00000000
00001000
00000000
00000010
00000000
,
00000001
00000000
00000000
00000001
00000000
00000000
00001000
00000000
00000010
00000000
00000100
00000000
00000001
00000000
00001000
00000000
,
00001001
00000000
00000000
00000001
00000100
00000000
00000000
00000100
00000010
00000000
00001000
00000000
00000100
00000000
00010000
00000000
,
00010100
00000000
00000000
00000100
00010000
00000000
00000000
00010000
00001000
00000000
00100000
00000000
00010000
00000000
10000000
00000000
,
10010000
00000000
00000000
10000000
00100000
00000000
00000000
00100000
01000000
00000000
01000000
00000000
01000000
00000000
00010000
00000000
,
00110000
00000000
00000000
00010000
00100000
00000000
00000000
00100000
00001000
00000000
00010000
00000000
00000100
00000000
00001000
00000000
,
00001001
00000000
00000000
00000001
00000100
00000000
00000000
00001000
00000100
00000000
00001000
00000000
00010000
00000000
00100000
00000000
,
10010000
00000000
00000000
10000000
01000000
00000000
00000000
00010000
01000000
00000000
00010000
00000000
00001000
00000000
00000010
00000000
,
00001001
00000000
00000000
00000001
00000100
00000000
00000000
00001000
00010000
00000000
00010000
00000000
00010000
00000000
00100000
00000000
,
10000000
00000000
00000000
10000000
00000000
00000000
01000000
00000000
00010000
00000000
00001000
00000000
00000100
00000000
00000001
00000000
,
00001001
00000000
00000000
00001001
00000000
00000000
00000000
00000000
00000000
00000000
00000000
00000000
00000000
00000000
00000000
00000000
;

//---------------dance-single - Blank----------------
#NOTEDATA:;
#CHARTNAME:;
#STEPSTYPE:dance-single;
#DESCRIPTION:Blank;
#CHARTSTYLE:;
#DIFFICULTY:Easy;
#METER:3;
#RADARVALUES:0.291,0.279,0.040,0.060,0.000,195.000,4.000,6.000,0.000,0.000,0.000,0.000,0.000,0.291,0.279,0.040,0.060,0.000,195.000,4.000,6.000,0.000,0.000,0.000,0.000,0.000;
#CREDIT:;
#NOTES:
0000
0000
0000
0000
,
0000
0000
0000
0000
,
0000
0000
0000
0000
,
0000
0000
0000
0000
,
1000
0100
1000
0100
,
0010
0001
0010
0001
,
1000
0010
1000
0010
,
0100
0001
0100
0001
,
1000
1000
0001
0000
,
0000
0010
0100
0100
,
1000
1000
0001
0000
,
0000
0100
0010
0010
,
1000
0100
0001
0000
,
0000
1000
0010
0001
,
1000
0010
0100
0000
,
2002
3003
0000
0000
,
1000
0010
1000
1000
,
0001
0010
0001
0001
,
1000
0100
1000
1000
,
0001
0100
0001
0001
,
1000
0010
0100
0100
,
0001
0010
0100
0100
,
1000
0100
0001
0100
,
1000
0010
0001
0010
,
1000
0010
0100
0001
,
0100
0010
1000
0000
,
0001
0010
0100
1000
,
0100
0010
0001
0000
,
1000
0010
0100
0001
,
1000
0100
0010
0000
,
0001
0010
0100
1000
,
0001
0100
0010
1001
,
1000
1000
0010
0010
,
0100
0001
1000
1000
,
0001
0010
1000
0010
,
0001
0100
1000
0100
,
0001
0001
0010
0010
,
0100
1000
0010
0100
,
0001
0010
1000
0010
,
2002
3003
1000
0010
,
0100
0100
0001
0100
,
0010
0010
1000
0100
,
0010
0010
0001
0010
,
0100
0100
1000
0010
,
0001
0001
1000
0100
,
0001
0001
1000
0100
,
0001
0001
1000
0010
,
0001
0001
1000
0001
,
1000
0010
0100
0010
,
0001
0010
1000
0001
,
1000
0100
0010
0100
,
0001
0100
1000
0001
,
1000
0010
0001
0100
,
0001
0010
1000
0001
,
1000
0100
0001
0010
,
0001
0100
1000
0001
,
2002
3003
0000
0000
;

//---------------dance-single - Blank----------------
#NOTEDATA:;
#CHARTNAME:;
#STEPSTYPE:dance-single;
#DESCRIPTION:Blank;
#CHARTSTYLE:;
#DIFFICULTY:Medium;
#METER:6;
#RADARVALUES:0.447,0.447,0.179,0.258,0.000,271.000,18.000,26.000,0.000,0.000,0.000,0.000,0.000,0.447,0.447,0.179,0.258,0.000,271.000,18.000,26.000,0.000,0.000,0.000,0.000,0.000;
#CREDIT:;
#NOTES:
// measure 0
0000
0000
0000
0000
,  // measure 1
0000
0000
0000
0000
,  // measure 2
0000
0000
0000
0000
,  // measure 3
0000
0000
0000
0000
,  // measure 4
1000
0000
0010
0000
0100
0001
0100
0000
,  // measure 5
0001
0000
0010
0000
0100
1000
0100
0000
,  // measure 6
1000
0000
0010
0000
0100
0001
1000
0000
,  // measure 7
0001
0000
0010
0000
0100
1000
0001
0000
,  // measure 8
1010
0101
1001
0000
,  // measure 9
0001
0000
0010
0000
0100
1000
0001
0000
,  // measure 10
1100
0011
1001
0000
,  // measure 11
0001
0000
1000
0000
0010
0100
0001
0000
,  // measure 12
1100
0101
0110
0000
,  // measure 13
0001
0000
1000
0000
0010
0100
0001
0000
,  // measure 14
0011
1010
0110
0000
,  // measure 15
2002
0000
3003
0000
1000
0001
1000
0001
,  // measure 16
0100
0000
0100
0000
0001
1000
0001
1000
,  // measure 17
0100
0000
0100
0000
1000
0001
1000
0001
,  // measure 18
0010
0000
0010
0000
0001
1000
0001
1000
,  // measure 19
0010
0000
0010
0000
1000
0010
0100
0001
,  // measure 20
0100
0000
0100
0000
0001
0010
0100
1000
,  // measure 21
0100
0000
0100
0000
1000
0010
0001
0010
,  // measure 22
1000
0000
1000
0000
0001
0010
1000
0010
,  // measure 23
0001
0001
1000
0010
,  // measure 24
0101
0000
0100
0000
0010
1000
0010
0000
,  // measure 25
0100
0001
2000
3001
,  // measure 26
1010
0000
0010
0000
0100
0001
0100
0000
,  // measure 27
0010
1000
0002
1003
,  // measure 28
0011
0000
0100
0000
1000
0010
0001
0000
,  // measure 29
0010
0100
0002
1003
,  // measure 30
0001
0010
0001
0000
0010
1000
0010
0000
,  // measure 31
1000
0100
1000
0000
0100
0001
0100
0000
,  // measure 32
0020
0130
0002
1003
,  // measure 33
0001
0010
0100
1000
0002
0000
1003
0000
,  // measure 34
0002
0203
2300
3200
,  // measure 35
0302
0023
2030
3020
,  // measure 36
0230
0310
2000
3001
,  // measure 37
1000
0100
0010
0001
2000
0000
3001
0000
,  // measure 38
2000
3020
0032
0013
,  // measure 39
2002
0000
3003
0000
0001
1000
0001
1000
,  // measure 40
0010
0000
0010
0000
1000
0001
1000
0001
,  // measure 41
0010
0000
0010
0000
0001
1000
0001
1000
,  // measure 42
0100
0000
0100
0000
1000
0001
1000
0001
,  // measure 43
0100
0000
0100
0000
0001
0100
0010
1000
,  // measure 44
0010
0000
0010
0000
1000
0100
0010
0001
,  // measure 45
0010
0000
0010
0000
0001
0100
1000
0100
,  // measure 46
0001
0000
0001
0000
1000
0100
0001
0100
,  // measure 47
1000
0000
0001
0000
1000
0010
0001
0010
,  // measure 48
0100
0000
0100
0000
0001
0010
1000
0010
,  // measure 49
0100
0000
0100
0000
1000
0100
0001
0100
,  // measure 50
0010
0000
0010
0000
0001
0100
1000
0100
,  // measure 51
0010
0000
0010
0000
1000
0010
0001
0100
,  // measure 52
0001
0000
0001
0000
0010
1000
0100
0001
,  // measure 53
0100
0000
0100
0000
1000
0010
0001
0100
,  // measure 54
1000
0000
1000
0000
0001
0100
1000
0010
,  // measure 55
0001
0000
0001
0000
1000
0100
0001
0010
,  // measure 56
2002
3003
0000
0000
;
