#VERSION:0.83;
#TITLE:笑っちゃおうよ BOYFRIEND;
#SUBTITLE:;
#ARTIST:Berryz工房;
#TITLETRANSLIT:Waracchaou yo BOYFRIEND;
#SUBTITLETRANSLIT:;
#ARTISTTRANSLIT:Berryz Koubou;
#GENRE:;
#ORIGIN:;
#CREDIT:;
#BANNER:Waracchaou yo BOYFRIEND.png;
#BACKGROUND:Waracchaou yo BOYFRIEND-bg.png;
#PREVIEWVID:;
#JACKET:Waracchaou yo BOYFRIEND-jacket.png;
#CDIMAGE:;
#DISCIMAGE:;
#LYRICSPATH:;
#CDTITLE:;
#MUSIC:Waracchaou yo BOYFRIEND.mp3;
#OFFSET:-0.656000;
#SAMPLESTART:47.974998;
#SAMPLELENGTH:15.640000;
#SELECTABLE:YES;
#BPMS:0.000=147.000;
#STOPS:;
#DELAYS:;
#WARPS:;
#TIMESIGNATURES:0.000=4=4;
#TICKCOUNTS:0.000=4;
#COMBOS:0.000=1;
#SPEEDS:0.000=1.000=0.000=0;
#SCROLLS:0.000=1.000;
#FAKES:;
#LABELS:0.000=Song Start;
#BGCHANGES:;
#KEYSOUNDS:;
#ATTACKS:
;

//---------------dance-double - Blank----------------
#NOTEDATA:;
#CHARTNAME:;
#STEPSTYPE:dance-double;
#DESCRIPTION:Blank;
#CHARTSTYLE:;
#DIFFICULTY:Hard;
#METER:7;
#RADARVALUES:0.503702,0.584295,0.282073,0.402962,0.045333,350.000000,322.000000,28.000000,40.000000,0.000000,0.000000,0.000000,0.000000,0.000000,0.503702,0.584295,0.282073,0.402962,0.045333,350.000000,322.000000,28.000000,40.000000,0.000000,0.000000,0.000000,0.000000,0.000000;
#CREDIT:;
#NOTES:
// measure 0
00000000
00000000
00000000
00000000
,  // measure 1
00000000
00000000
00000000
00000000
,  // measure 2
00000000
00000000
00000000
00000000
,  // measure 3
00000000
00000000
00000000
00000000
,  // measure 4
10000000
00000000
01000000
00010000
01000000
00200000
00000000
00301000
,  // measure 5
00010000
00000010
00000100
00000020
00000000
00001000
00001030
00000000
,  // measure 6
00000002
00000023
00000230
00002300
,  // measure 7
00003010
00000010
00001000
00001000
00000100
00000100
00010000
00010000
,  // measure 8
00001000
00000000
00000000
10010000
,  // measure 9
10000000
01000000
00010000
01000000
20000000
00000000
30010000
00000000
,  // measure 10
10000000
00100000
10000000
00100000
02000000
00000000
03010000
00100000
,  // measure 11
00001000
00010000
00001000
00010000
00000200
00000000
00001300
00000000
,  // measure 12
00000001
00000100
00001000
00000100
00000002
00000000
00001003
00000000
,  // measure 13
00000001
00000010
00001000
00000010
00000002
00000000
00001003
00000000
,  // measure 14
00000001
00000100
00000001
00000100
00000020
00000000
00001030
00000100
,  // measure 15
00010000
00001000
00010000
00001000
00200000
00000000
00310000
00000000
,  // measure 16
10000000
00100000
10000000
00100000
00010000
00100000
00010000
00100000
,  // measure 17
00010000
00001000
00010000
00001000
00000100
00001000
00000100
00000001
,  // measure 18
00000000
00001000
00000000
00000100
00010100
00000000
00010000
00001000
,  // measure 19
00000000
00100000
00000000
00010000
01020000
00000000
10030000
00000000
,  // measure 20
00010000
00100000
00010000
00100000
00001000
00010000
00000010
00000100
,  // measure 21
00000001
00000100
00000000
00001000
00000200
00000000
00000301
00000000
,  // measure 22
00001000
00000100
00001000
00000100
00010000
00001000
01000000
00100000
,  // measure 23
10000000
00000000
01020000
00000000
00100000
00000000
10000000
10030000
,  // measure 24
00000000
10000000
00100000
00010000
00002000
00000000
00013000
00000000
,  // measure 25
00100000
10000000
01000000
00010000
00002000
00000000
00003100
00000000
,  // measure 26
00000001
00000010
00001000
00000010
00000200
00000000
00001300
00000010
,  // measure 27
00010000
01000000
10000000
01000000
00200000
00000000
00310000
00000000
,  // measure 28
10100000
01010000
00110000
11000000
,  // measure 29
10000000
00000000
01000000
00000000
00100000
00000000
00000000
00000000
00110000
00000000
00000000
00010000
00100000
00000000
00001000
00000000
,  // measure 30
00011000
00002100
00000010
00003001
,  // measure 31
00001000
00000000
00000010
00000000
00000001
00000000
00000010
00000000
00000100
00000000
00000000
00000100
00000010
00000000
00010000
00000000
,  // measure 32
00010010
00021000
00100000
00130000
,  // measure 33
10000000
00000000
00000000
00000000
11000000
00000000
00000000
00000000
00010000
00000000
00000000
01000000
00000000
00000000
00001000
00000000
,  // measure 34
00020000
00030100
00010100
00001100
,  // measure 35
00001020
00000000
00000000
00000000
00000130
00000000
00000001
00000000
00001000
00000000
00000000
00001000
00000000
00000000
00001000
00000000
,  // measure 36
00000100
00000000
00000100
00000000
00010000
00000000
00010000
00000000
00001000
00000000
00001000
00000000
00100000
00010000
00100000
00010000
,  // measure 37
10000000
00000000
00100000
00000000
00010000
00000000
00000000
00000000
00011000
00000000
00000000
00010000
00001000
00000000
00000100
00000000
,  // measure 38
00001100
00000102
00001000
00001003
,  // measure 39
00000001
00000000
00000010
00000000
00000100
00000000
00000010
00000000
00001000
00000000
00000000
00001000
00010000
00000000
01000000
00000000
,  // measure 40
11000000
20100000
00100000
30010000
,  // measure 41
10000000
00000000
00000000
00000000
00100000
00000000
01000000
00000000
00010000
00000000
00000000
00100000
00000000
00000000
00001000
00000000
,  // measure 42
00000020
00000130
00001100
00000101
,  // measure 43
00000001
00000100
00001000
00000100
00001000
00010000
00001000
00010000
,  // measure 44
00100000
00000000
10010000
00000000
00000000
10000000
01000000
00010000
,  // measure 45
01000000
00000000
10000000
00100000
00010000
00200000
00000000
01300000
,  // measure 46
00010000
00100000
00001000
00020000
00000000
00000100
00030100
00000000
,  // measure 47
00002000
00003020
00000230
00000302
,  // measure 48
00000013
00000010
00000100
00000100
00001000
00001000
00000010
00000010
,  // measure 49
00010000
00010000
01000000
01000000
10000000
10000000
00010000
00010000
,  // measure 50
10010000
00000000
00000000
01100000
,  // measure 51
10000000
01000000
00010000
00001000
00000020
00000000
00000031
00000000
,  // measure 52
00001000
00000010
00001000
00000010
00000200
00000000
00001300
00001000
,  // measure 53
00010000
00100000
00010000
00100000
20000000
00000000
30010000
00000000
,  // measure 54
10000000
01000000
00010000
00001000
00000200
00000000
00000301
00000000
,  // measure 55
00000001
00000010
00001000
00010000
00200000
00000000
10300000
00000000
,  // measure 56
00100000
01000000
00001000
00010000
00000020
00000000
00000100
00000130
,  // measure 57
00000001
00000100
00000010
00010000
00002000
00000000
00103000
00000000
,  // measure 58
10010000
00000000
00000000
00000000
;

//---------------dance-single - Blank----------------
#NOTEDATA:;
#CHARTNAME:;
#STEPSTYPE:dance-single;
#DESCRIPTION:Blank;
#CHARTSTYLE:;
#DIFFICULTY:Hard;
#METER:7;
#RADARVALUES:0.509459,0.594369,0.322369,0.392888,0.040296,354.000000,322.000000,32.000000,39.000000,0.000000,0.000000,0.000000,0.000000,0.000000,0.509459,0.594369,0.322369,0.392888,0.040296,354.000000,322.000000,32.000000,39.000000,0.000000,0.000000,0.000000,0.000000,0.000000;
#CREDIT:;
#NOTES:
0000
0000
0000
0000
,
0000
0000
0000
0000
,
0000
0000
0000
0000
,
0000
0000
0000
0000
,
1000
0000
0001
0100
0010
2000
0000
3001
,
1000
0100
0010
0002
0000
1000
1003
0000
,
0002
0203
2300
3200
,
0310
0010
1000
1000
0001
0001
0100
0100
,
0010
0000
0000
1001
,
1000
0010
0100
0010
2000
0000
3001
0000
,
1000
0100
1000
0000
1020
0000
0130
0100
,
0000
0001
0010
0001
0200
0000
0310
0000
,
1000
0100
0010
0100
2000
0000
3001
0000
,
0001
0100
0010
0100
0002
0000
0013
0000
,
0001
0010
0100
1000
0002
0000
0100
0103
,
0001
0010
1000
0010
0002
0000
1003
0000
,
0001
0100
0001
0100
1000
0100
1000
0100
,
0010
0100
0010
0100
0001
1000
0001
1001
,
0000
0101
0000
0100
0110
0000
0010
1010
,
0000
1001
0000
1000
2100
0000
3001
0000
,
1000
0010
1000
0010
0001
0010
0001
0010
,
1000
0100
0000
0001
0200
0000
1300
0000
,
0001
0100
0001
0100
1000
0100
0010
1000
,
0001
0000
0012
0000
0100
0000
1000
1003
,
0000
1000
0100
0001
0200
0000
1300
0000
,
0001
0100
1000
0100
0002
0000
1003
0000
,
0001
0010
0001
0010
2000
0000
3001
0001
,
0100
1000
0100
1000
0020
0000
0130
0000
,
0101
0101
1100
1100
,
1000
0000
0010
0000
0100
0000
0000
0000
0101
0000
0000
0001
0100
0000
0010
0000
,
1010
0012
1000
1003
,
0001
0000
0100
0000
1000
0000
0100
0000
0010
0000
0000
0010
0100
0000
0001
0000
,
0101
0000
1100
0000
1000
0100
0001
0100
,
1000
0000
0101
0000
0001
0100
0000
1000
,
0200
0310
1010
0011
,
0002
0000
0000
0000
0013
0000
0100
0000
1000
0000
0000
1000
0000
0000
1000
0000
,
0001
0000
0001
0000
0100
0000
0100
0000
1000
0000
1000
0000
0100
0010
0100
0010
,
1000
0000
0100
0000
0001
0000
0000
0000
0101
0000
0000
0100
1000
0000
0001
0000
,
0101
2010
0001
3001
,
1000
0000
0010
0000
0001
0000
0010
0000
0100
0000
0000
0100
0010
0000
1000
0000
,
1100
0000
0011
0000
0001
0010
1000
0010
,
0001
0000
0000
0000
1000
0000
0010
0000
0100
0000
0000
0001
0000
0000
1000
0000
,
0020
0130
0110
1001
,
1000
0100
0001
0100
1000
0010
0001
0010
,
1000
0000
1001
0000
0000
0001
0100
1000
,
0100
0000
0010
1000
0100
0002
0000
0103
,
1000
0010
0001
0020
0000
0100
0130
0000
,
0002
0023
0230
1300
,
0001
0001
0100
0100
1000
1000
0100
0100
,
0001
0001
0010
0010
1000
1000
0010
0010
,
0001
0000
0000
1001
,
1000
0100
0001
0010
2000
0000
3001
0000
,
1000
0010
0100
0000
0102
0000
1000
1003
,
0000
0001
0010
1000
0020
0000
0130
0000
,
1000
0010
0001
0010
0200
0000
0310
0000
,
1000
0100
0001
0010
2000
0000
3001
0000
,
1000
0010
0001
0010
0200
0000
0301
0001
,
1000
0100
0001
0100
0020
0000
0130
0000
,
2002
0000
0000
0000
,
3003
0000
0000
0000
;

//---------------dance-single - Blank----------------
#NOTEDATA:;
#CHARTNAME:;
#STEPSTYPE:dance-single;
#DESCRIPTION:Blank;
#CHARTSTYLE:;
#DIFFICULTY:Easy;
#METER:3;
#RADARVALUES:0.307978,0.297184,0.070518,0.020148,0.000000,214.000000,207.000000,7.000000,2.000000,0.000000,0.000000,0.000000,0.000000,0.000000,0.307978,0.297184,0.070518,0.020148,0.000000,214.000000,207.000000,7.000000,2.000000,0.000000,0.000000,0.000000,0.000000,0.000000;
#CREDIT:;
#NOTES:
0000
0000
0000
0000
,
0000
0000
0000
0000
,
0000
0000
0000
0000
,
0000
0000
0000
0000
,
1000
0010
1000
0010
,
0100
0001
0100
0001
,
1000
0100
0010
0001
,
1000
1000
0001
0001
,
1001
0000
0000
1000
,
0001
0100
0010
1000
,
0001
0010
0001
0010
,
0100
1000
0100
1000
,
0001
1000
0001
0001
,
0100
0010
0100
0100
,
0001
0010
0100
1000
,
0001
0100
0010
1000
,
0001
1000
0001
1000
,
0010
0100
0010
0100
,
0010
0000
1001
0000
,
0100
0000
1001
0000
,
1000
0100
0010
0001
,
0010
0100
1000
0000
,
0001
0100
0010
1000
,
0001
0001
1000
1000
,
0001
0100
1000
1000
,
0001
0010
1000
1000
,
0001
0010
0100
1000
,
0100
0010
0001
1000
,
0001
0001
1000
1000
,
0001
0100
0001
0100
,
1000
0100
1000
0100
,
0010
0100
0010
0100
,
0001
1000
0001
1000
,
0001
0010
0100
1000
,
0100
0010
0001
1000
,
0001
0100
0010
1000
,
0001
0001
1000
1000
,
0001
0100
1000
0100
,
0010
1000
0001
0100
,
0001
0010
1000
0010
,
0001
0100
0010
1000
,
0001
0100
1000
0100
,
0001
0010
1000
0010
,
0001
0001
1000
1000
,
0010
0110
0000
1001
,
1000
0100
0001
0100
,
1000
0010
0001
0010
,
1000
0010
0100
0001
,
1000
1000
1000
1000
,
0001
0001
0001
0001
,
1001
0000
0000
0001
,
1000
0010
0100
0001
,
1000
0100
1000
0100
,
0010
0001
0010
0001
,
1000
0001
1000
1000
,
0010
0100
0010
0010
,
1000
0100
0010
0001
,
1000
0010
0100
0001
,
2002
0000
0000
0000
,
3003
0000
0000
0000
;

//---------------dance-single - Blank----------------
#NOTEDATA:;
#CHARTNAME:;
#STEPSTYPE:dance-single;
#DESCRIPTION:Blank;
#CHARTSTYLE:;
#DIFFICULTY:Medium;
#METER:6;
#RADARVALUES:0.413036,0.505213,0.171259,0.362666,0.000000,287.000000,270.000000,17.000000,36.000000,0.000000,0.000000,0.000000,0.000000,0.000000,0.413036,0.505213,0.171259,0.362666,0.000000,287.000000,270.000000,17.000000,36.000000,0.000000,0.000000,0.000000,0.000000,0.000000;
#CREDIT:;
#NOTES:
0000
0000
0000
0000
,
0000
0000
0000
0000
,
0000
0000
0000
0000
,
0000
0000
0000
0000
,
1000
0000
0010
0100
0010
0200
0000
0300
,
0001
1000
0001
2000
0000
3000
0000
0000
,
0001
0010
0100
1000
,
0001
0001
1000
1000
0010
0010
0100
0100
,
0001
0000
0000
1001
,
1000
0100
1000
0100
0020
0000
0031
0000
,
1000
0010
0001
0010
,
1000
0100
0001
0100
,
1000
0010
1000
0010
2000
0000
3001
0000
,
0001
0010
0001
0010
0002
0000
1003
0000
,
0001
0100
0001
0100
0010
0000
1000
0000
,
0001
0010
0001
0010
0100
0000
1000
0000
,
0002
1000
0010
0103
,
2000
0000
0001
0000
0010
0000
3100
1000
,
0000
0010
0000
0100
0001
0000
0100
0010
,
0000
1000
0000
0100
0020
0000
0031
0000
,
1000
0010
0001
0010
,
1000
0100
0000
0010
0002
0000
1003
0000
,
0001
0100
1000
0100
,
0010
0000
1002
0000
0010
0000
0100
0103
,
0000
0001
0100
0001
0200
0000
0310
0000
,
1000
0100
1000
0100
0020
0000
0031
0000
,
1000
0001
1000
0001
0200
0000
0010
0310
,
0000
1000
0001
1000
0002
0000
0103
0000
,
0011
0011
1100
1100
,
1000
0010
0100
0000
0002
0000
1003
0000
,
1001
2001
0010
3100
,
0001
0100
0010
0000
2000
0000
3001
0000
,
1001
1002
0100
0013
,
0001
0010
1000
0010
,
0100
1000
0001
0100
,
0001
0010
1000
0010
,
0001
0001
0010
0010
0100
0100
1000
1000
,
0001
0100
0010
0000
1000
0000
0001
0000
,
0101
2100
0001
3001
,
1000
0010
0100
0000
0001
0000
1000
0000
,
1010
0012
1000
1003
,
0001
0000
0100
0010
0100
0010
0000
0010
,
0200
0301
2000
3001
,
2000
3200
0302
0023
,
1030
0000
1001
0000
0000
0001
0100
1000
,
0200
0000
0310
0000
1000
0001
1000
0000
,
0010
0100
0010
0000
2000
0000
3001
0000
,
2000
3020
0032
0103
,
1000
1000
1000
1000
0010
0010
0010
0010
,
0100
0100
0100
0100
0001
0001
0001
0001
,
1000
0000
0000
1001
,
1000
0100
1000
0100
0020
0000
0031
0000
,
1000
0010
0001
0010
,
1000
0100
0001
0100
,
1000
0010
1000
0010
2000
0000
3001
0000
,
0001
0010
0001
0010
0002
0000
1003
0000
,
0001
0100
0001
0100
0010
0000
1000
0000
,
0001
0010
0001
0010
0100
0000
1000
0000
,
2002
0000
0000
0000
,
3003
0000
0000
0000
;
